查看: 17|回复: 0

[2160p] 巨人传 Giant.1956.2160p.BluRay.x265.10bit.SDR.DTS-HD.MA.2.0-SWTYBLZ 72.39GB

[复制链接]
蓝光币
14 枚
发表于 3 天前 | 显示全部楼层 |阅读模式


◎标  题 伟人传
◎译  名 伟人
◎片  名 Giant
◎年  代 1956
◎产  地 美国
◎类  别 剧情 / 恋爱 / 西部
◎语  言 英语 / 西班牙语
◎上映日期 1956-11-24
◎IMDb评分 7.6/10 (37371人评价)
◎IMDb链接 https://www.imdb.com/title/tt0049261/
◎豆瓣评分 8.0/10 (2669人评价)
◎豆瓣链接 https://movie.douban.com/subject/1298289/
◎片  长 201 分钟
◎导  演 乔治·史蒂文斯 George Stevens
◎编  剧 弗雷德·吉奥尔 Fred Guiol
       伊凡·莫弗特 Ivan Moffat
       艾德娜·费勃 Edna Ferber
◎演  员 罗克·赫德森 Rock Hudson
       伊丽莎白·泰勒 Elizabeth Taylor
       詹姆斯·迪恩 James Dean
       杰克·洛马斯 Jack Lomas
       蒂娜·梅纳德 Tina Menard
       Judy Lent Judy Lent
       罗伯特·尼克尔斯 Robert Nichols
       哈罗德·米勒 Harold Miller
       汤姆·梦露 Tom Monroe
       Maxine Gates Maxine Gates
       肯纳G.肯普 Kenner G. Kemp
       Maurice Jara Maurice Jara
       Paul Kruger Paul Kruger
       查尔斯梅瑞狄斯 Charles Meredith
       Jill Lent Jill Lent
       维克托·米兰 Victor Millan
       Kermit Maynard Kermit Maynard
       亚历山大·斯库比 Alexander Scourby
       罗德·泰勒 Rod Taylor
       杰弗里·塞尔 Jeffrey Sayre
       Napoleon Whiting Napoleon Whiting
       John Wiley John Wiley
       丹·怀特 Dan White
       谢布·伍利 Sheb Wooley
       Rush Williams Rush Williams
       简·维特尔斯 Jane Withers
       Guy Teague Guy Teague
       伯特史蒂文斯 Bert Stevens
       Natividad Vacío Natividad Vacío
       Mickey Simpson Mickey Simpson
       Max Terhune Max Terhune
       Slim Talbot Slim Talbot
       Felipe Turich Felipe Turich
       Julian Rivero Julian Rivero
       弗兰·本内特 Fran Bennett
       山姆·哈里斯 Sam Harris
       Marc Hamilton Marc Hamilton
       卡罗尔·贝克 Carroll Baker
       保罗·菲克斯 Paul Fix
       厄尔·霍利曼 Earl Holliman
       丹尼斯·霍珀 Dennis Hopper
       查尔斯瓦茨 Charles Watts
       雷·惠特利 Ray Whitley
       梅赛德丝·麦坎布雷奇 Mercedes McCambridge
       蒙特·黑尔 Monte Hale
       芭芭拉·蓓丽 Barbara Barrie
       萨尔·米涅奥 Sal Mineo
       齐尔·威尔斯 Chill Wills
       尼克·亚当斯 Nick Adams
       Elsa Aguirre Elsa Aguirre
       埃迪·贝克 Eddie Baker
       Ray Bennett Ray Bennett
       斯图尔特·霍姆斯 Stuart Holmes
       Ethel Greenwood Ethel Greenwood
       Pilar Del Rey Pilar Del Rey
       朱迪思·伊夫林 Judith Evelyn
       乔治·邓恩 George Dunn
       Dana Dillaway Dana Dillaway
       Tex Driscoll Tex Driscoll
       Ella Ethridge Ella Ethridge
       Juney Ellis Juney Ellis
       Pete Dunn Pete Dunn
       埃尔莎·卡德纳斯 Elsa Cárdenas
       Georgann Cashen Georgann Cashen
       Carolyn Craig Carolyn Craig
       Mary Ann Cashen Mary Ann Cashen
       Fran Bennett Fran Bennett
       诺琳·纳什 Noreen Nash
       乔治·史蒂文斯 George Stevens
       亨利·金斯伯格 Henry Ginsberg
       迪米特里·迪奥姆金 Dimitri Tiomkin
       威廉·C·梅勒 William C. Mellor
       威廉·霍恩贝克 William Hornbeck
       鲍里斯·莱文 Boris Leven
       拉尔夫·S·赫斯特 Ralph S. Hurst
       玛约莉·拜斯特 Marjorie Best
       Gordon Bau Gordon Bau
       Joseph E. Rickards Joseph E. Rickards
       弗雷德·吉奥尔 Fred Guiol
       杰克·科斯格罗夫 Jack Cosgrove
◎标  签 美国 / JamesDean / 伊丽莎白·泰勒 / 1956 / 恋爱 / 美国电影 / 典范 / 西部
◎简  介

  故事发生在阳光普照的得克萨斯州,比克(洛克·哈德森 Rock Hudson 饰)是长大和生活在那边的一位牧场仆人,德州温暖的阳光将他的性情也照耀得温厚而老实。东部来的标致女人莱斯利(伊丽莎白·泰勒 Elizabeth Taylor 饰)吸引了比克的眼光,终年生活在西部的他从未见过像她一样的女人,很快,两人就坠入了情网当中,而且终极携手步入了婚姻的殿堂,就这样,莱斯利成为了农场的女仆人。                                    
                                杰特(詹姆斯·迪恩 James Dean 饰)是在比克农场里打工的长工,一次偶然的机遇里,他获得了一块可以自行开垦的荒地。哪晓得杰特走了大运,在这块地的地底下居然埋藏着代价连城的石油,杰特一夜暴富。
  1. Video
  2. ID                                       : 1
  3. Format                                   : HEVC
  4. Format/Info                              : High Efficiency Video Coding
  5. Format profile                           : Main [email protected]@High
  6. Codec ID                                 : V_MPEGH/ISO/HEVC
  7. Duration                                 : 3 h 21 min
  8. Bit rate                                 : 48.8 Mb/s
  9. Width                                    : 3 586 pixels
  10. Height                                   : 2 160 pixels
  11. Display aspect ratio                     : 5:3
  12. Frame rate mode                          : Constant
  13. Frame rate                               : 23.976 (24000/1001/189150) FPS
  14. Color space                              : YUV
  15. Chroma subsampling                       : 4:2:0
  16. Bit depth                                : 10 bits
  17. Bits/(Pixel*Frame)                       : 0.263
  18. Stream size                              : 68.6 GiB (95%)
  19. Writing library                          : x265 3.0ed72af837053:[Windows][GCC 8.2.0][64 bit] 10bit
  20. Encoding settings                        : cpuid=1111039 / frame-threads=6 / numa-pools=40 / wpp / no-pmode / no-pme / no-psnr / no-ssim / log-level=2 / input-csp=1 / input-res=3586x2160 / interlace=0 / total-frames=289406 / level-idc=51 / high-tier=1 / uhd-bd=0 / ref=3 / no-allow-non-conformance / repeat-headers / annexb / aud / hrd / info / hash=0 / no-temporal-layers / no-open-gop / min-keyint=1 / keyint=24 / gop-lookahead=0 / bframes=4 / b-adapt=2 / b-pyramid / bframe-bias=0 / rc-lookahead=25 / lookahead-slices=4 / scenecut=40 / radl=0 / no-splice / no-intra-refresh / ctu=64 / min-cu-size=8 / no-rect / no-amp / max-tu-size=32 / tu-inter-depth=1 / tu-intra-depth=1 / limit-tu=0 / rdoq-level=0 / dynamic-rd=0.00 / no-ssim-rd / signhide / no-tskip / nr-intra=0 / nr-inter=0 / no-constrained-intra / strong-intra-smoothing / max-merge=2 / limit-refs=3 / no-limit-modes / me=1 / subme=2 / merange=57 / temporal-mvp / weightp / no-weightb / no-analyze-src-pics / deblock=0:0 / no-sao / no-sao-non-deblock / rd=3 / no-early-skip / rskip / no-fast-intra / no-tskip-fast / no-cu-lossless / no-b-intra / no-splitrd-skip / rdpenalty=0 / psy-rd=2.00 / psy-rdoq=0.00 / no-rd-refine / no-lossless / cbqpoffs=0 / crqpoffs=0 / rc=crf / crf=18.0 / qcomp=0.60 / qpstep=4 / stats-write=0 / stats-read=0 / vbv-maxrate=160000 / vbv-bufsize=160000 / vbv-init=0.9 / crf-max=0.0 / crf-min=0.0 / ipratio=1.40 / pbratio=1.30 / aq-mode=1 / aq-strength=1.00 / cutree / zone-count=0 / no-strict-cbr / qg-size=32 / no-rc-grain / qpmax=69 / qpmin=0 / no-const-vbv / sar=1 / overscan=0 / videoformat=5 / range=0 / colorprim=2 / transfer=2 / colormatrix=2 / chromaloc=0 / display-window=0 / max-cll=0,0 / min-luma=0 / max-luma=1023 / log2-max-poc-lsb=8 / vui-timing-info / vui-hrd-info / slices=1 / opt-qp-pps / opt-ref-list-length-pps / no-multi-pass-opt-rps / scenecut-bias=0.05 / no-opt-cu-delta-qp / no-aq-motion / no-hdr / no-hdr-opt / no-dhdr10-opt / no-idr-recovery-sei / analysis-reuse-level=5 / scale-factor=0 / refine-intra=0 / refine-inter=0 / refine-mv=0 / refine-ctu-distortion=0 / no-limit-sao / ctu-info=0 / no-lowpass-dct / refine-analysis-type=0 / copy-pic=1 / max-ausize-factor=1.0 / no-dynamic-refine / no-single-sei / no-hevc-aq / qp-adaptation-range=1.00
  21. Default                                  : Yes
  22. Forced                                   : No

  23. Audio #1
  24. ID                                       : 2
  25. ID in the original source medium         : 4352 (0x1100)
  26. Format                                   : DTS XLL
  27. Format/Info                              : Digital Theater Systems
  28. Commercial name                          : DTS-HD Master Audio
  29. Codec ID                                 : A_DTS
  30. Duration                                 : 3 h 21 min
  31. Bit rate mode                            : Variable
  32. Bit rate                                 : 1 783 kb/s
  33. Channel(s)                               : 2 channels
  34. Channel layout                           : L R
  35. Sampling rate                            : 48.0 kHz
  36. Frame rate                               : 93.750 FPS (512 SPF)
  37. Bit depth                                : 24 bits
  38. Compression mode                         : Lossless
  39. Stream size                              : 2.50 GiB (3%)
  40. Title                                    : DTS-HD MA 2.0
  41. Language                                 : English
  42. Default                                  : Yes
  43. Forced                                   : No
  44. Original source medium                   : Blu-ray

  45. Audio #2
  46. ID                                       : 3
  47. Format                                   : AC-3
  48. Format/Info                              : Audio Coding 3
  49. Commercial name                          : Dolby Digital
  50. Codec ID                                 : A_AC3
  51. Duration                                 : 3 h 21 min
  52. Bit rate mode                            : Constant
  53. Bit rate                                 : 640 kb/s
  54. Channel(s)                               : 2 channels
  55. Channel layout                           : L R
  56. Sampling rate                            : 48.0 kHz
  57. Frame rate                               : 31.250 FPS (1536 SPF)
  58. Compression mode                         : Lossy
  59. Stream size                              : 921 MiB (1%)
  60. Title                                    : DD 2.0
  61. Language                                 : English
  62. Service kind                             : Complete Main
  63. Default                                  : No
  64. Forced                                   : No

  65. Text #1
  66. ID                                       : 4
  67. Format                                   : UTF-8
  68. Codec ID                                 : S_TEXT/UTF8
  69. Codec ID/Info                            : UTF-8 Plain Text
  70. Duration                                 : 3 h 13 min
  71. Bit rate                                 : 54 b/s
  72. Count of elements                        : 2164
  73. Stream size                              : 77.4 KiB (0%)
  74. Language                                 : English
  75. Default                                  : Yes
  76. Forced                                   : No

  77. Text #2
  78. ID                                       : 5
  79. Format                                   : UTF-8
  80. Codec ID                                 : S_TEXT/UTF8
  81. Codec ID/Info                            : UTF-8 Plain Text
  82. Duration                                 : 3 h 16 min
  83. Bit rate                                 : 56 b/s
  84. Count of elements                        : 2338
  85. Stream size                              : 80.5 KiB (0%)
  86. Title                                    : SDH
  87. Language                                 : English
  88. Default                                  : No
  89. Forced                                   : No

  90. Text #3
  91. ID                                       : 6
  92. ID in the original source medium         : 4768 (0x12A0)
  93. Format                                   : PGS
  94. Muxing mode                              : zlib
  95. Codec ID                                 : S_HDMV/PGS
  96. Codec ID/Info                            : Picture based subtitle format used on BDs/HD-DVDs
  97. Duration                                 : 3 h 16 min
  98. Bit rate                                 : 32.3 kb/s
  99. Count of elements                        : 4820
  100. Stream size                              : 45.4 MiB (0%)
  101. Language                                 : English
  102. Default                                  : No
  103. Forced                                   : No
  104. Original source medium                   : Blu-ray

  105. Text #4
  106. ID                                       : 7
  107. ID in the original source medium         : 4769 (0x12A1)
  108. Format                                   : PGS
  109. Muxing mode                              : zlib
  110. Codec ID                                 : S_HDMV/PGS
  111. Codec ID/Info                            : Picture based subtitle format used on BDs/HD-DVDs
  112. Duration                                 : 3 h 17 min
  113. Bit rate                                 : 19.8 kb/s
  114. Count of elements                        : 3218
  115. Stream size                              : 28.0 MiB (0%)
  116. Language                                 : French
  117. Default                                  : No
  118. Forced                                   : No
  119. Original source medium                   : Blu-ray

  120. Text #5
  121. ID                                       : 8
  122. ID in the original source medium         : 4770 (0x12A2)
  123. Format                                   : PGS
  124. Muxing mode                              : zlib
  125. Codec ID                                 : S_HDMV/PGS
  126. Codec ID/Info                            : Picture based subtitle format used on BDs/HD-DVDs
  127. Duration                                 : 3 h 16 min
  128. Bit rate                                 : 32.8 kb/s
  129. Count of elements                        : 4622
  130. Stream size                              : 46.1 MiB (0%)
  131. Language                                 : German
  132. Default                                  : No
  133. Forced                                   : No
  134. Original source medium                   : Blu-ray

  135. Text #6
  136. ID                                       : 9
  137. ID in the original source medium         : 4771 (0x12A3)
  138. Format                                   : PGS
  139. Muxing mode                              : zlib
  140. Codec ID                                 : S_HDMV/PGS
  141. Codec ID/Info                            : Picture based subtitle format used on BDs/HD-DVDs
  142. Duration                                 : 3 h 15 min
  143. Bit rate                                 : 30.3 kb/s
  144. Count of elements                        : 4696
  145. Stream size                              : 42.4 MiB (0%)
  146. Language                                 : Italian
  147. Default                                  : No
  148. Forced                                   : No
  149. Original source medium                   : Blu-ray

  150. Text #7
  151. ID                                       : 10
  152. ID in the original source medium         : 4772 (0x12A4)
  153. Format                                   : PGS
  154. Muxing mode                              : zlib
  155. Codec ID                                 : S_HDMV/PGS
  156. Codec ID/Info                            : Picture based subtitle format used on BDs/HD-DVDs
  157. Duration                                 : 3 h 17 min
  158. Bit rate                                 : 22.0 kb/s
  159. Count of elements                        : 4110
  160. Stream size                              : 31.0 MiB (0%)
  161. Language                                 : Spanish
  162. Default                                  : No
  163. Forced                                   : No
  164. Original source medium                   : Blu-ray

  165. Text #8
  166. ID                                       : 11
  167. ID in the original source medium         : 4773 (0x12A5)
  168. Format                                   : PGS
  169. Muxing mode                              : zlib
  170. Codec ID                                 : S_HDMV/PGS
  171. Codec ID/Info                            : Picture based subtitle format used on BDs/HD-DVDs
  172. Duration                                 : 3 h 13 min
  173. Bit rate                                 : 21.4 kb/s
  174. Count of elements                        : 2778
  175. Stream size                              : 29.6 MiB (0%)
  176. Language                                 : Dutch
  177. Default                                  : No
  178. Forced                                   : No
  179. Original source medium                   : Blu-ray

  180. Text #9
  181. ID                                       : 12
  182. ID in the original source medium         : 4774 (0x12A6)
  183. Format                                   : PGS
  184. Muxing mode                              : zlib
  185. Codec ID                                 : S_HDMV/PGS
  186. Codec ID/Info                            : Picture based subtitle format used on BDs/HD-DVDs
  187. Duration                                 : 3 h 17 min
  188. Bit rate                                 : 26.7 kb/s
  189. Count of elements                        : 4826
  190. Stream size                              : 37.7 MiB (0%)
  191. Language                                 : Spanish
  192. Default                                  : No
  193. Forced                                   : No
  194. Original source medium                   : Blu-ray

  195. Menu
  196. 00:00:00.000                             : en:Chapter 01
  197. 00:02:08.753                             : en:Chapter 02
  198. 00:04:49.247                             : en:Chapter 03
  199. 00:07:56.434                             : en:Chapter 04
  200. 00:10:13.613                             : en:Chapter 05
  201. 00:11:30.856                             : en:Chapter 06
  202. 00:16:33.575                             : en:Chapter 07
  203. 00:20:03.327                             : en:Chapter 08
  204. 00:22:07.576                             : en:Chapter 09
  205. 00:24:58.121                             : en:Chapter 10
  206. 00:27:40.784                             : en:Chapter 11
  207. 00:34:47.627                             : en:Chapter 12
  208. 00:36:20.052                             : en:Chapter 13
  209. 00:39:25.613                             : en:Chapter 14
  210. 00:41:32.990                             : en:Chapter 15
  211. 00:43:18.929                             : en:Chapter 16
  212. 00:45:38.485                             : en:Chapter 17
  213. 00:55:22.944                             : en:Chapter 18
  214. 01:03:45.822                             : en:Chapter 19
  215. 01:06:06.087                             : en:Chapter 20
  216. 01:10:56.585                             : en:Chapter 21
  217. 01:14:58.827                             : en:Chapter 22
  218. 01:18:26.451                             : en:Chapter 23
  219. 01:19:51.328                             : en:Chapter 24
  220. 01:27:09.557                             : en:Chapter 25
  221. 01:31:04.667                             : en:Chapter 26
  222. 01:35:27.304                             : en:Chapter 27
  223. 01:38:58.432                             : en:Chapter 28
  224. 01:43:00.382                             : en:Chapter 29
  225. 01:45:45.797                             : en:Chapter 30
  226. 01:48:29.169                             : en:Chapter 31
  227. 01:49:58.633                             : en:Chapter 32
  228. 01:59:37.211                             : en:Chapter 33
  229. 02:02:19.832                             : en:Chapter 34
  230. 02:07:59.838                             : en:Chapter 35
  231. 02:10:06.006                             : en:Chapter 36
  232. 02:14:50.749                             : en:Chapter 37
  233. 02:17:36.957                             : en:Chapter 38
  234. 02:19:27.192                             : en:Chapter 39
  235. 02:22:37.674                             : en:Chapter 40
  236. 02:27:37.723                             : en:Chapter 41
  237. 02:30:01.200                             : en:Chapter 42
  238. 02:32:40.234                             : en:Chapter 43
  239. 02:38:51.730                             : en:Chapter 44
  240. 02:40:51.725                             : en:Chapter 45
  241. 02:44:53.675                             : en:Chapter 46
  242. 02:50:40.647                             : en:Chapter 47
  243. 02:52:31.007                             : en:Chapter 48
  244. 02:54:39.594                             : en:Chapter 49
  245. 02:59:55.701                             : en:Chapter 50
  246. 03:04:30.059                             : en:Chapter 51
  247. 03:07:42.668                             : en:Chapter 52
  248. 03:11:55.170                             : en:Chapter 53
  249. 03:15:21.835                             : en:Chapter 54
  250. 03:18:00.702                             : en:Chapter 55
  251. 03:18:25.810                             : en:Chapter 56
复制代码












                                       
                                       

                                       
                                       
                                       




Giant.1956.2160p.BluRay.x265.10bit.SDR.DTS-HD.MA.2.0-SWTYBLZ.torrent (91.2 KB, 下载次数: 1)
回复

使用道具 举报

懒得打字嘛,点击右侧快捷回复 【右侧内容,后台自定义】
您需要登录后才可以回帖 登录 | 立即注册

本版积分规则

Archiver|手机版|小黑屋| 中国高清网 |网站地图 

GMT+8, 2022-6-27 14:11 , Processed in 0.126092 second(s), 26 queries .

Powered by HDchina X3.4

Copyright 2017-2019©HDchina.All right reserved

返回顶部 联系我们