查看: 8|回复: 0

[2160p] 巨人传 Giant.1956.2160p.BluRay.x264.8bit.SDR.DTS-HD.MA.2.0-SWTYBLZ 79.89GB

[复制链接]
蓝光币
14 枚
发表于 3 天前 | 显示全部楼层 |阅读模式


◎标  题 伟人传
◎译  名 伟人
◎片  名 Giant
◎年  代 1956
◎产  地 美国
◎类  别 剧情 / 恋爱 / 西部
◎语  言 英语 / 西班牙语
◎上映日期 1956-11-24
◎IMDb评分 7.6/10 (37371人评价)
◎IMDb链接 https://www.imdb.com/title/tt0049261/
◎豆瓣评分 8.0/10 (2669人评价)
◎豆瓣链接 https://movie.douban.com/subject/1298289/
◎片  长 201 分钟
◎导  演 乔治·史蒂文斯 George Stevens
◎编  剧 弗雷德·吉奥尔 Fred Guiol
       伊凡·莫弗特 Ivan Moffat
       艾德娜·费勃 Edna Ferber
◎演  员 罗克·赫德森 Rock Hudson
       伊丽莎白·泰勒 Elizabeth Taylor
       詹姆斯·迪恩 James Dean
       杰克·洛马斯 Jack Lomas
       蒂娜·梅纳德 Tina Menard
       Judy Lent Judy Lent
       罗伯特·尼克尔斯 Robert Nichols
       哈罗德·米勒 Harold Miller
       汤姆·梦露 Tom Monroe
       Maxine Gates Maxine Gates
       肯纳G.肯普 Kenner G. Kemp
       Maurice Jara Maurice Jara
       Paul Kruger Paul Kruger
       查尔斯梅瑞狄斯 Charles Meredith
       Jill Lent Jill Lent
       维克托·米兰 Victor Millan
       Kermit Maynard Kermit Maynard
       亚历山大·斯库比 Alexander Scourby
       罗德·泰勒 Rod Taylor
       杰弗里·塞尔 Jeffrey Sayre
       Napoleon Whiting Napoleon Whiting
       John Wiley John Wiley
       丹·怀特 Dan White
       谢布·伍利 Sheb Wooley
       Rush Williams Rush Williams
       简·维特尔斯 Jane Withers
       Guy Teague Guy Teague
       伯特史蒂文斯 Bert Stevens
       Natividad Vacío Natividad Vacío
       Mickey Simpson Mickey Simpson
       Max Terhune Max Terhune
       Slim Talbot Slim Talbot
       Felipe Turich Felipe Turich
       Julian Rivero Julian Rivero
       弗兰·本内特 Fran Bennett
       山姆·哈里斯 Sam Harris
       Marc Hamilton Marc Hamilton
       卡罗尔·贝克 Carroll Baker
       保罗·菲克斯 Paul Fix
       厄尔·霍利曼 Earl Holliman
       丹尼斯·霍珀 Dennis Hopper
       查尔斯瓦茨 Charles Watts
       雷·惠特利 Ray Whitley
       梅赛德丝·麦坎布雷奇 Mercedes McCambridge
       蒙特·黑尔 Monte Hale
       芭芭拉·蓓丽 Barbara Barrie
       萨尔·米涅奥 Sal Mineo
       齐尔·威尔斯 Chill Wills
       尼克·亚当斯 Nick Adams
       Elsa Aguirre Elsa Aguirre
       埃迪·贝克 Eddie Baker
       Ray Bennett Ray Bennett
       斯图尔特·霍姆斯 Stuart Holmes
       Ethel Greenwood Ethel Greenwood
       Pilar Del Rey Pilar Del Rey
       朱迪思·伊夫林 Judith Evelyn
       乔治·邓恩 George Dunn
       Dana Dillaway Dana Dillaway
       Tex Driscoll Tex Driscoll
       Ella Ethridge Ella Ethridge
       Juney Ellis Juney Ellis
       Pete Dunn Pete Dunn
       埃尔莎·卡德纳斯 Elsa Cárdenas
       Georgann Cashen Georgann Cashen
       Carolyn Craig Carolyn Craig
       Mary Ann Cashen Mary Ann Cashen
       Fran Bennett Fran Bennett
       诺琳·纳什 Noreen Nash
       乔治·史蒂文斯 George Stevens
       亨利·金斯伯格 Henry Ginsberg
       迪米特里·迪奥姆金 Dimitri Tiomkin
       威廉·C·梅勒 William C. Mellor
       威廉·霍恩贝克 William Hornbeck
       鲍里斯·莱文 Boris Leven
       拉尔夫·S·赫斯特 Ralph S. Hurst
       玛约莉·拜斯特 Marjorie Best
       Gordon Bau Gordon Bau
       Joseph E. Rickards Joseph E. Rickards
       弗雷德·吉奥尔 Fred Guiol
       杰克·科斯格罗夫 Jack Cosgrove
◎标  签 美国 / JamesDean / 伊丽莎白·泰勒 / 1956 / 恋爱 / 美国电影 / 典范 / 西部
◎简  介

  故事发生在阳光普照的得克萨斯州,比克(洛克·哈德森 Rock Hudson 饰)是长大和生活在那边的一位牧场仆人,德州温暖的阳光将他的性情也照耀得温厚而老实。东部来的标致女人莱斯利(伊丽莎白·泰勒 Elizabeth Taylor 饰)吸引了比克的眼光,终年生活在西部的他从未见过像她一样的女人,很快,两人就坠入了情网当中,而且终极携手步入了婚姻的殿堂,就这样,莱斯利成为了农场的女仆人。                                    
                                杰特(詹姆斯·迪恩 James Dean 饰)是在比克农场里打工的长工,一次偶然的机遇里,他获得了一块可以自行开垦的荒地。哪晓得杰特走了大运,在这块地的地底下居然埋藏着代价连城的石油,杰特一夜暴富。
  1. Video
  2. ID                                       : 1
  3. Format                                   : AVC
  4. Format/Info                              : Advanced Video Codec
  5. Format profile                           : [email protected]
  6. Format settings                          : CABAC / 5 Ref Frames
  7. Format settings, CABAC                   : Yes
  8. Format settings, Reference frames        : 5 frames
  9. Codec ID                                 : V_MPEG4/ISO/AVC
  10. Duration                                 : 3 h 21 min
  11. Bit rate                                 : 54.1 Mb/s
  12. Width                                    : 3 586 pixels
  13. Height                                   : 2 160 pixels
  14. Display aspect ratio                     : 5:3
  15. Frame rate mode                          : Constant
  16. Frame rate                               : 23.976 (24000/1001/189150) FPS
  17. Color space                              : YUV
  18. Chroma subsampling                       : 4:2:0
  19. Bit depth                                : 8 bits
  20. Scan type                                : Progressive
  21. Bits/(Pixel*Frame)                       : 0.291
  22. Stream size                              : 76.0 GiB (96%)
  23. Writing library                          : x264 core 157 r2935 545de2f
  24. Encoding settings                        : cabac=1 / ref=5 / deblock=1:-1:-1 / analyse=0x3:0x113 / me=umh / subme=10 / psy=1 / psy_rd=1.00:0.15 / mixed_ref=1 / me_range=48 / chroma_me=1 / trellis=2 / 8x8dct=1 / cqm=0 / deadzone=21,11 / fast_pskip=1 / chroma_qp_offset=-3 / threads=48 / lookahead_threads=4 / sliced_threads=0 / nr=0 / decimate=0 / interlaced=0 / bluray_compat=0 / constrained_intra=0 / bframes=3 / b_pyramid=2 / b_adapt=2 / b_bias=0 / direct=3 / weightb=1 / open_gop=0 / weightp=2 / keyint=250 / keyint_min=23 / scenecut=40 / intra_refresh=0 / rc_lookahead=50 / rc=crf / mbtree=1 / crf=20.0 / qcomp=0.60 / qpmin=0 / qpmax=69 / qpstep=4 / ip_ratio=1.40 / aq=1:1.00
  25. Default                                  : Yes
  26. Forced                                   : No

  27. Audio #1
  28. ID                                       : 2
  29. ID in the original source medium         : 4352 (0x1100)
  30. Format                                   : DTS XLL
  31. Format/Info                              : Digital Theater Systems
  32. Commercial name                          : DTS-HD Master Audio
  33. Codec ID                                 : A_DTS
  34. Duration                                 : 3 h 21 min
  35. Bit rate mode                            : Variable
  36. Bit rate                                 : 1 783 kb/s
  37. Channel(s)                               : 2 channels
  38. Channel layout                           : L R
  39. Sampling rate                            : 48.0 kHz
  40. Frame rate                               : 93.750 FPS (512 SPF)
  41. Bit depth                                : 24 bits
  42. Compression mode                         : Lossless
  43. Stream size                              : 2.50 GiB (3%)
  44. Title                                    : DTS-HD MA 2.0
  45. Language                                 : English
  46. Default                                  : Yes
  47. Forced                                   : No
  48. Original source medium                   : Blu-ray

  49. Audio #2
  50. ID                                       : 3
  51. Format                                   : AC-3
  52. Format/Info                              : Audio Coding 3
  53. Commercial name                          : Dolby Digital
  54. Codec ID                                 : A_AC3
  55. Duration                                 : 3 h 21 min
  56. Bit rate mode                            : Constant
  57. Bit rate                                 : 640 kb/s
  58. Channel(s)                               : 2 channels
  59. Channel layout                           : L R
  60. Sampling rate                            : 48.0 kHz
  61. Frame rate                               : 31.250 FPS (1536 SPF)
  62. Compression mode                         : Lossy
  63. Stream size                              : 921 MiB (1%)
  64. Title                                    : DD 2.0
  65. Language                                 : English
  66. Service kind                             : Complete Main
  67. Default                                  : No
  68. Forced                                   : No

  69. Text #1
  70. ID                                       : 4
  71. Format                                   : UTF-8
  72. Codec ID                                 : S_TEXT/UTF8
  73. Codec ID/Info                            : UTF-8 Plain Text
  74. Duration                                 : 3 h 13 min
  75. Bit rate                                 : 54 b/s
  76. Count of elements                        : 2164
  77. Stream size                              : 77.4 KiB (0%)
  78. Language                                 : English
  79. Default                                  : Yes
  80. Forced                                   : No

  81. Text #2
  82. ID                                       : 5
  83. Format                                   : UTF-8
  84. Codec ID                                 : S_TEXT/UTF8
  85. Codec ID/Info                            : UTF-8 Plain Text
  86. Duration                                 : 3 h 16 min
  87. Bit rate                                 : 56 b/s
  88. Count of elements                        : 2338
  89. Stream size                              : 80.5 KiB (0%)
  90. Title                                    : SDH
  91. Language                                 : English
  92. Default                                  : No
  93. Forced                                   : No

  94. Text #3
  95. ID                                       : 6
  96. ID in the original source medium         : 4768 (0x12A0)
  97. Format                                   : PGS
  98. Muxing mode                              : zlib
  99. Codec ID                                 : S_HDMV/PGS
  100. Codec ID/Info                            : Picture based subtitle format used on BDs/HD-DVDs
  101. Duration                                 : 3 h 16 min
  102. Bit rate                                 : 32.3 kb/s
  103. Count of elements                        : 4820
  104. Stream size                              : 45.4 MiB (0%)
  105. Language                                 : English
  106. Default                                  : No
  107. Forced                                   : No
  108. Original source medium                   : Blu-ray

  109. Text #4
  110. ID                                       : 7
  111. ID in the original source medium         : 4769 (0x12A1)
  112. Format                                   : PGS
  113. Muxing mode                              : zlib
  114. Codec ID                                 : S_HDMV/PGS
  115. Codec ID/Info                            : Picture based subtitle format used on BDs/HD-DVDs
  116. Duration                                 : 3 h 17 min
  117. Bit rate                                 : 19.8 kb/s
  118. Count of elements                        : 3218
  119. Stream size                              : 28.0 MiB (0%)
  120. Language                                 : French
  121. Default                                  : No
  122. Forced                                   : No
  123. Original source medium                   : Blu-ray

  124. Text #5
  125. ID                                       : 8
  126. ID in the original source medium         : 4770 (0x12A2)
  127. Format                                   : PGS
  128. Muxing mode                              : zlib
  129. Codec ID                                 : S_HDMV/PGS
  130. Codec ID/Info                            : Picture based subtitle format used on BDs/HD-DVDs
  131. Duration                                 : 3 h 16 min
  132. Bit rate                                 : 32.8 kb/s
  133. Count of elements                        : 4622
  134. Stream size                              : 46.1 MiB (0%)
  135. Language                                 : German
  136. Default                                  : No
  137. Forced                                   : No
  138. Original source medium                   : Blu-ray

  139. Text #6
  140. ID                                       : 9
  141. ID in the original source medium         : 4771 (0x12A3)
  142. Format                                   : PGS
  143. Muxing mode                              : zlib
  144. Codec ID                                 : S_HDMV/PGS
  145. Codec ID/Info                            : Picture based subtitle format used on BDs/HD-DVDs
  146. Duration                                 : 3 h 15 min
  147. Bit rate                                 : 30.3 kb/s
  148. Count of elements                        : 4696
  149. Stream size                              : 42.4 MiB (0%)
  150. Language                                 : Italian
  151. Default                                  : No
  152. Forced                                   : No
  153. Original source medium                   : Blu-ray

  154. Text #7
  155. ID                                       : 10
  156. ID in the original source medium         : 4772 (0x12A4)
  157. Format                                   : PGS
  158. Muxing mode                              : zlib
  159. Codec ID                                 : S_HDMV/PGS
  160. Codec ID/Info                            : Picture based subtitle format used on BDs/HD-DVDs
  161. Duration                                 : 3 h 17 min
  162. Bit rate                                 : 22.0 kb/s
  163. Count of elements                        : 4110
  164. Stream size                              : 31.0 MiB (0%)
  165. Language                                 : Spanish
  166. Default                                  : No
  167. Forced                                   : No
  168. Original source medium                   : Blu-ray

  169. Text #8
  170. ID                                       : 11
  171. ID in the original source medium         : 4773 (0x12A5)
  172. Format                                   : PGS
  173. Muxing mode                              : zlib
  174. Codec ID                                 : S_HDMV/PGS
  175. Codec ID/Info                            : Picture based subtitle format used on BDs/HD-DVDs
  176. Duration                                 : 3 h 13 min
  177. Bit rate                                 : 21.4 kb/s
  178. Count of elements                        : 2778
  179. Stream size                              : 29.6 MiB (0%)
  180. Language                                 : Dutch
  181. Default                                  : No
  182. Forced                                   : No
  183. Original source medium                   : Blu-ray

  184. Text #9
  185. ID                                       : 12
  186. ID in the original source medium         : 4774 (0x12A6)
  187. Format                                   : PGS
  188. Muxing mode                              : zlib
  189. Codec ID                                 : S_HDMV/PGS
  190. Codec ID/Info                            : Picture based subtitle format used on BDs/HD-DVDs
  191. Duration                                 : 3 h 17 min
  192. Bit rate                                 : 26.7 kb/s
  193. Count of elements                        : 4826
  194. Stream size                              : 37.7 MiB (0%)
  195. Language                                 : Spanish
  196. Default                                  : No
  197. Forced                                   : No
  198. Original source medium                   : Blu-ray

  199. Menu
  200. 00:00:00.000                             : en:Chapter 01
  201. 00:02:08.753                             : en:Chapter 02
  202. 00:04:49.247                             : en:Chapter 03
  203. 00:07:56.434                             : en:Chapter 04
  204. 00:10:13.613                             : en:Chapter 05
  205. 00:11:30.856                             : en:Chapter 06
  206. 00:16:33.575                             : en:Chapter 07
  207. 00:20:03.327                             : en:Chapter 08
  208. 00:22:07.576                             : en:Chapter 09
  209. 00:24:58.121                             : en:Chapter 10
  210. 00:27:40.784                             : en:Chapter 11
  211. 00:34:47.627                             : en:Chapter 12
  212. 00:36:20.052                             : en:Chapter 13
  213. 00:39:25.613                             : en:Chapter 14
  214. 00:41:32.990                             : en:Chapter 15
  215. 00:43:18.929                             : en:Chapter 16
  216. 00:45:38.485                             : en:Chapter 17
  217. 00:55:22.944                             : en:Chapter 18
  218. 01:03:45.822                             : en:Chapter 19
  219. 01:06:06.087                             : en:Chapter 20
  220. 01:10:56.585                             : en:Chapter 21
  221. 01:14:58.827                             : en:Chapter 22
  222. 01:18:26.451                             : en:Chapter 23
  223. 01:19:51.328                             : en:Chapter 24
  224. 01:27:09.557                             : en:Chapter 25
  225. 01:31:04.667                             : en:Chapter 26
  226. 01:35:27.304                             : en:Chapter 27
  227. 01:38:58.432                             : en:Chapter 28
  228. 01:43:00.382                             : en:Chapter 29
  229. 01:45:45.797                             : en:Chapter 30
  230. 01:48:29.169                             : en:Chapter 31
  231. 01:49:58.633                             : en:Chapter 32
  232. 01:59:37.211                             : en:Chapter 33
  233. 02:02:19.832                             : en:Chapter 34
  234. 02:07:59.838                             : en:Chapter 35
  235. 02:10:06.006                             : en:Chapter 36
  236. 02:14:50.749                             : en:Chapter 37
  237. 02:17:36.957                             : en:Chapter 38
  238. 02:19:27.192                             : en:Chapter 39
  239. 02:22:37.674                             : en:Chapter 40
  240. 02:27:37.723                             : en:Chapter 41
  241. 02:30:01.200                             : en:Chapter 42
  242. 02:32:40.234                             : en:Chapter 43
  243. 02:38:51.730                             : en:Chapter 44
  244. 02:40:51.725                             : en:Chapter 45
  245. 02:44:53.675                             : en:Chapter 46
  246. 02:50:40.647                             : en:Chapter 47
  247. 02:52:31.007                             : en:Chapter 48
  248. 02:54:39.594                             : en:Chapter 49
  249. 02:59:55.701                             : en:Chapter 50
  250. 03:04:30.059                             : en:Chapter 51
  251. 03:07:42.668                             : en:Chapter 52
  252. 03:11:55.170                             : en:Chapter 53
  253. 03:15:21.835                             : en:Chapter 54
  254. 03:18:00.702                             : en:Chapter 55
  255. 03:18:25.810                             : en:Chapter 56
复制代码













                                       
                                       

                                       
                                       
                                       




Giant.1956.2160p.BluRay.x264.8bit.SDR.DTS-HD.MA.2.0-SWTYBLZ.torrent (100.56 KB, 下载次数: 1)
回复

使用道具 举报

懒得打字嘛,点击右侧快捷回复 【右侧内容,后台自定义】
您需要登录后才可以回帖 登录 | 立即注册

本版积分规则

Archiver|手机版|小黑屋| 中国高清网 |网站地图 

GMT+8, 2022-6-27 14:00 , Processed in 0.123536 second(s), 26 queries .

Powered by HDchina X3.4

Copyright 2017-2019©HDchina.All right reserved

返回顶部 联系我们