查看: 8|回复: 0

[剧情片] 爆炸 The.Attempt.Dossier.2010.SPANISH.1080p.AMZN.WEBRip.DDP5.1.x264-SiGLA 8.65GB

[复制链接]
蓝光币
14 枚
发表于 6 天前 | 显示全部楼层 |阅读模式


◎标  题 爆炸
◎译  名 El atentado
◎片  名 The Attempt Dossier
◎年  代 2010
◎产  地 墨西哥
◎类  别 剧情 / 历史 / 战争
◎语  言 西班牙语
◎上映日期 2010
◎IMDb评分 6.1/10 (188人评价)
◎IMDb链接 https://www.imdb.com/title/tt1560618/
◎豆瓣链接 https://movie.douban.com/subject/5159559/
◎片  长 120分钟
◎导  演 豪尔赫·方斯 Jorge Fons
◎编  剧 维森特·雷里诺 Vicente Leñero
       豪尔赫·方斯 Jorge Fons
◎演  员 丹尼尔·希梅内斯·卡乔 Daniel Giménez Cacho
       何塞·马利亚·亚兹皮克 José María Yazpik
       朱利奥·布拉科 Julio Bracho
       马里奥·萨拉格萨 Mario Zaragoza
       Salvador Sánchez Salvador Sánchez
       加斯东·梅洛 Gastón Melo
       乔塞·玛丽亚·塔维拉 José María de Tavira
       胡安·卡洛斯·科隆博 Juan Carlos Colombo
       Carlos Cobos Carlos Cobos
       艾琳·阿苏埃拉 Irene Azuela
       玛丽亚罗霍 María Rojo
       亚历桑德罗·卡尔瓦 Alejandro Calva
       迭戈·洛佩斯·里维拉 Diego López Rivera
       Lucía Álvarez Lucía Álvarez
       Guillermo Granillo Guillermo Granillo
       Sigfrido Barjau Sigfrido Barjau
       Sandra Cabriada Sandra Cabriada
       Luisa Guala Luisa Guala
       华金·席尔瓦 Joaquin Silva
  1. Video
  2. ID                                       : 1
  3. Format                                   : AVC
  4. Format/Info                              : Advanced Video Codec
  5. Format profile                           : [email protected]
  6. Format settings                          : CABAC / 4 Ref Frames
  7. Format settings, CABAC                   : Yes
  8. Format settings, Reference frames        : 4 frames
  9. Codec ID                                 : V_MPEG4/ISO/AVC
  10. Duration                                 : 2 h 5 min
  11. Bit rate mode                            : Constant
  12. Bit rate                                 : 9 233 kb/s
  13. Nominal bit rate                         : 10 000 kb/s
  14. Width                                    : 1 920 pixels
  15. Height                                   : 1 080 pixels
  16. Display aspect ratio                     : 16:9
  17. Frame rate mode                          : Constant
  18. Frame rate                               : 23.976 (24000/1001/189150) FPS
  19. Color space                              : YUV
  20. Chroma subsampling                       : 4:2:0
  21. Bit depth                                : 8 bits
  22. Scan type                                : Progressive
  23. Bits/(Pixel*Frame)                       : 0.186
  24. Stream size                              : 8.09 GiB (93%)
  25. Default                                  : Yes
  26. Forced                                   : No
  27. Color range                              : Limited
  28. Color primaries                          : BT.709
  29. Transfer characteristics                 : BT.709
  30. Matrix coefficients                      : BT.709
  31. Audio
  32. ID                                       : 2
  33. Format                                   : E-AC-3
  34. Format/Info                              : Enhanced AC-3
  35. Commercial name                          : Dolby Digital Plus
  36. Codec ID                                 : A_EAC3
  37. Duration                                 : 2 h 5 min
  38. Bit rate mode                            : Constant
  39. Bit rate                                 : 640 kb/s
  40. Channel(s)                               : 6 channels
  41. Channel layout                           : L R C LFE Ls Rs
  42. Sampling rate                            : 48.0 kHz
  43. Frame rate                               : 31.250 FPS (1536 SPF)
  44. Compression mode                         : Lossy
  45. Stream size                              : 574 MiB (6%)
  46. Language                                 : Spanish
  47. Service kind                             : Complete Main
  48. Default                                  : Yes
  49. Forced                                   : No
  50. Text #1
  51. ID                                       : 3
  52. Format                                   : UTF-8
  53. Codec ID                                 : S_TEXT/UTF8
  54. Codec ID/Info                            : UTF-8 Plain Text
  55. Duration                                 : 1 h 54 min
  56. Bit rate                                 : 37 b/s
  57. Count of elements                        : 1167
  58. Stream size                              : 31.8 KiB (0%)
  59. Title                                    : Brazilian
  60. Language                                 : Portuguese
  61. Default                                  : No
  62. Forced                                   : No
  63. Text #2
  64. ID                                       : 4
  65. Format                                   : UTF-8
  66. Codec ID                                 : S_TEXT/UTF8
  67. Codec ID/Info                            : UTF-8 Plain Text
  68. Duration                                 : 1 h 53 min
  69. Bit rate                                 : 40 b/s
  70. Count of elements                        : 1188
  71. Stream size                              : 33.4 KiB (0%)
  72. Language                                 : English
  73. Default                                  : No
  74. Forced                                   : No
复制代码








                                       
                                       

                                       
                                       
                                       




The.Attempt.Dossier.2010.SPANISH.1080p.AMZN.WEBRip.DDP5.1.x264-SiGLA.torrent (22.29 KB, 下载次数: 0)
回复

使用道具 举报

懒得打字嘛,点击右侧快捷回复 【右侧内容,后台自定义】
您需要登录后才可以回帖 登录 | 立即注册

本版积分规则

Archiver|手机版|小黑屋| 中国高清网 |网站地图 

GMT+8, 2022-6-29 14:40 , Processed in 0.088770 second(s), 26 queries .

Powered by HDchina X3.4

Copyright 2017-2019©HDchina.All right reserved

返回顶部 联系我们