查看: 8|回复: 0

[剧情片] 破茧成蝶 Rated.R.2008.SPANISH.1080p.AMZN.WEBRip.DD5.1.x264-CRUD 7.36GB

[复制链接]
蓝光币
14 枚
发表于 6 天前 | 显示全部楼层 |阅读模式


◎标  题 破茧成蝶
◎译  名 限制级影片 / 成人片 / Rated R / The Naked Years: Classified 'S'
◎片  名 Los años desnudos
◎年  代 2008
◎产  地 西班牙
◎类  别 剧情 / 笑剧
◎语  言 西班牙语
◎上映日期 2008-10-24(西班牙)
◎IMDb评分 5.3/10 (330人评价)
◎IMDb链接 https://www.imdb.com/title/tt1129422/
◎豆瓣评分 6.5/10 (390人评价)
◎豆瓣链接 https://movie.douban.com/subject/3976636/
◎片  长 108分钟
◎导  演 杜尼亚·阿亚索 Dunia Ayaso
       菲利克斯·萨布罗索 Félix Sabroso
◎编  剧 杜尼亚·阿亚索 Dunia Ayaso
       菲利克斯·萨布罗索 Félix Sabroso
◎演  员 坎德拉·佩尼亚 Candela Peña
       戈雅·托莱多 Goya Toledo
       Mar Flores Mar Flores
       安东尼奥·德·拉·托雷 Antonio de la Torre
       Susana Estrada Susana Estrada
       阿娜·瓦格纳 Ana Wagener
       胡利奥·维莱斯 Julio Vélez
       Ángel Burgos Ángel Burgos
        Jose Luis Ayuso
       Juan Romero Juan Romero
       Lucio Godoy Lucio Godoy
       大卫·阿兹卡诺 David Azcano
       Javier Fernández Javier Fernández
       Antonio Panizza Antonio Panizza
       约戈·埃尔南德斯 Jorge Hernández
       Pablo Urrutia Pablo Urrutia
◎简  介

  这是一部反应西班牙民主进程期间社会的电影,影片于2008年10月24日首映                                    
                                经过描写在70年月三个拍色情片的女人的生活,展现了一个处于独裁统治末期的、实在的西班牙,全民性束缚...                                    
                                1975年的马德里,3个三十多岁的女人起头了她们的电影生活。在加百利等广告公司起步后,琳娜、桑德拉和艾娃三个分歧遭受的美男,都在“S”级(1976至1983年的民主进程期间,西班牙流行的电影)电影中各放异彩。三人在一次拍摄中了解,以后又在多部片中相遇,最初三人成为了朋友,分享各自类似的履历...
  1. Video
  2. ID                                       : 1
  3. Format                                   : AVC
  4. Format/Info                              : Advanced Video Codec
  5. Format profile                           : [email protected]
  6. Format settings                          : CABAC / 4 Ref Frames
  7. Format settings, CABAC                   : Yes
  8. Format settings, Reference frames        : 4 frames
  9. Codec ID                                 : V_MPEG4/ISO/AVC
  10. Duration                                 : 1 h 43 min
  11. Bit rate mode                            : Constant
  12. Bit rate                                 : 10 000 kb/s
  13. Width                                    : 1 920 pixels
  14. Height                                   : 816 pixels
  15. Display aspect ratio                     : 2.35:1
  16. Frame rate mode                          : Constant
  17. Frame rate                               : 25.000 FPS
  18. Color space                              : YUV
  19. Chroma subsampling                       : 4:2:0
  20. Bit depth                                : 8 bits
  21. Scan type                                : Progressive
  22. Bits/(Pixel*Frame)                       : 0.255
  23. Stream size                              : 7.04 GiB (96%)
  24. Default                                  : Yes
  25. Forced                                   : No
  26. Color range                              : Limited
  27. Color primaries                          : BT.709
  28. Transfer characteristics                 : BT.709
  29. Matrix coefficients                      : BT.709
  30. Audio
  31. ID                                       : 2
  32. Format                                   : AC-3
  33. Format/Info                              : Audio Coding 3
  34. Commercial name                          : Dolby Digital
  35. Codec ID                                 : A_AC3
  36. Duration                                 : 1 h 43 min
  37. Bit rate mode                            : Constant
  38. Bit rate                                 : 448 kb/s
  39. Channel(s)                               : 6 channels
  40. Channel layout                           : L R C LFE Ls Rs
  41. Sampling rate                            : 48.0 kHz
  42. Frame rate                               : 31.250 FPS (1536 SPF)
  43. Compression mode                         : Lossy
  44. Stream size                              : 331 MiB (4%)
  45. Language                                 : Spanish
  46. Service kind                             : Complete Main
  47. Default                                  : Yes
  48. Forced                                   : No
  49. Text #1
  50. ID                                       : 3
  51. Format                                   : UTF-8
  52. Codec ID                                 : S_TEXT/UTF8
  53. Codec ID/Info                            : UTF-8 Plain Text
  54. Duration                                 : 1 h 40 min
  55. Bit rate                                 : 49 b/s
  56. Count of elements                        : 1272
  57. Stream size                              : 36.0 KiB (0%)
  58. Language                                 : English
  59. Default                                  : No
  60. Forced                                   : No
  61. Text #2
  62. ID                                       : 4
  63. Format                                   : UTF-8
  64. Codec ID                                 : S_TEXT/UTF8
  65. Codec ID/Info                            : UTF-8 Plain Text
  66. Duration                                 : 1 h 39 min
  67. Bit rate                                 : 57 b/s
  68. Count of elements                        : 1314
  69. Stream size                              : 41.7 KiB (0%)
  70. Language                                 : Spanish
  71. Default                                  : No
  72. Forced                                   : No
复制代码







                                       
                                       

                                       
                                       
                                       




Rated.R.2008.SPANISH.1080p.AMZN.WEBRip.DD5.1.x264-CRUD.torrent (19.04 KB, 下载次数: 1)
回复

使用道具 举报

懒得打字嘛,点击右侧快捷回复 【右侧内容,后台自定义】
您需要登录后才可以回帖 登录 | 立即注册

本版积分规则

Archiver|手机版|小黑屋| 中国高清网 |网站地图 

GMT+8, 2022-6-29 14:31 , Processed in 0.093405 second(s), 26 queries .

Powered by HDchina X3.4

Copyright 2017-2019©HDchina.All right reserved

返回顶部 联系我们