查看: 11|回复: 0

[剧情片] 烈焰 No.Escapes.2020.RUSSIAN.1080p.AMZN.WEBRip.DD5.1.x264-CBON 8.66GB

[复制链接]
蓝光币
14 枚
发表于 6 天前 | 显示全部楼层 |阅读模式


◎标  题 炎火
◎译  名 Ogon
◎片  名 Огонь
◎年  代 2020
◎产  地 俄罗斯
◎类  别 剧情 / 行动 / 冒险 / 灾难
◎语  言 俄语
◎上映日期 2020-12-24(俄罗斯)
◎IMDb评分 6.5/10 (1231人评价)
◎IMDb链接 https://www.imdb.com/title/tt12200256/
◎豆瓣链接 https://movie.douban.com/subject/35174426/
◎演  员 伊琳娜·戈尔巴乔娃 Irina Gorbacheva
       伊万·扬科夫斯基 Ivan Yankovskiy
       尼基塔·米哈尔科夫 Nikita Mikhalkov
◎简  介

  A heroic story about firefighters and rescuers. What we call an act of bravery is just a usual routine for them, if only one can get used to mortal danger and extreme risk. When people in distress seem to have nobody who may help them, rescuers come to fight against merciless forces of nature.
  1. Video
  2. ID                                       : 1
  3. Format                                   : AVC
  4. Format/Info                              : Advanced Video Codec
  5. Format profile                           : [email protected]
  6. Format settings                          : CABAC / 4 Ref Frames
  7. Format settings, CABAC                   : Yes
  8. Format settings, Reference frames        : 4 frames
  9. Codec ID                                 : V_MPEG4/ISO/AVC
  10. Duration                                 : 2 h 11 min
  11. Bit rate mode                            : Constant
  12. Bit rate                                 : 8 115 kb/s
  13. Nominal bit rate                         : 10 000 kb/s
  14. Width                                    : 1 920 pixels
  15. Height                                   : 800 pixels
  16. Display aspect ratio                     : 2.40:1
  17. Frame rate mode                          : Constant
  18. Frame rate                               : 24.000 FPS
  19. Color space                              : YUV
  20. Chroma subsampling                       : 4:2:0
  21. Bit depth                                : 8 bits
  22. Scan type                                : Progressive
  23. Bits/(Pixel*Frame)                       : 0.220
  24. Stream size                              : 7.47 GiB (86%)
  25. Language                                 : Russian
  26. Default                                  : Yes
  27. Forced                                   : No
  28. Color range                              : Limited
  29. Color primaries                          : BT.709
  30. Transfer characteristics                 : BT.709
  31. Matrix coefficients                      : BT.709
  32. Audio #1
  33. ID                                       : 2
  34. Format                                   : AC-3
  35. Format/Info                              : Audio Coding 3
  36. Commercial name                          : Dolby Digital
  37. Codec ID                                 : A_AC3
  38. Duration                                 : 2 h 11 min
  39. Bit rate mode                            : Constant
  40. Bit rate                                 : 640 kb/s
  41. Channel(s)                               : 6 channels
  42. Channel layout                           : L R C LFE Ls Rs
  43. Sampling rate                            : 48.0 kHz
  44. Frame rate                               : 31.250 FPS (1536 SPF)
  45. Compression mode                         : Lossy
  46. Stream size                              : 604 MiB (7%)
  47. Language                                 : Russian
  48. Service kind                             : Complete Main
  49. Default                                  : Yes
  50. Forced                                   : No
  51. Audio #2
  52. ID                                       : 3
  53. Format                                   : E-AC-3
  54. Format/Info                              : Enhanced AC-3
  55. Commercial name                          : Dolby Digital Plus
  56. Codec ID                                 : A_EAC3
  57. Duration                                 : 2 h 11 min
  58. Bit rate mode                            : Constant
  59. Bit rate                                 : 640 kb/s
  60. Channel(s)                               : 6 channels
  61. Channel layout                           : L R C LFE Ls Rs
  62. Sampling rate                            : 48.0 kHz
  63. Frame rate                               : 31.250 FPS (1536 SPF)
  64. Compression mode                         : Lossy
  65. Stream size                              : 604 MiB (7%)
  66. Language                                 : English
  67. Service kind                             : Complete Main
  68. Default                                  : No
  69. Forced                                   : No
  70. Text #1
  71. ID                                       : 4
  72. Format                                   : UTF-8
  73. Codec ID                                 : S_TEXT/UTF8
  74. Codec ID/Info                            : UTF-8 Plain Text
  75. Duration                                 : 2 h 0 min
  76. Bit rate                                 : 45 b/s
  77. Count of elements                        : 1427
  78. Stream size                              : 39.9 KiB (0%)
  79. Title                                    : English (Original)
  80. Language                                 : English
  81. Default                                  : Yes
  82. Forced                                   : No
  83. Text #2
  84. ID                                       : 5
  85. Format                                   : UTF-8
  86. Codec ID                                 : S_TEXT/UTF8
  87. Codec ID/Info                            : UTF-8 Plain Text
  88. Duration                                 : 2 h 7 min
  89. Bit rate                                 : 53 b/s
  90. Count of elements                        : 1845
  91. Stream size                              : 50.1 KiB (0%)
  92. Title                                    : English SDH (Original)
  93. Language                                 : English
  94. Default                                  : No
  95. Forced                                   : No
  96. Text #3
  97. ID                                       : 6
  98. Format                                   : UTF-8
  99. Codec ID                                 : S_TEXT/UTF8
  100. Codec ID/Info                            : UTF-8 Plain Text
  101. Duration                                 : 1 h 47 min
  102. Bit rate                                 : 0 b/s
  103. Count of elements                        : 8
  104. Stream size                              : 136 Bytes (0%)
  105. Title                                    : English Forced (Dub)
  106. Language                                 : English
  107. Default                                  : No
  108. Forced                                   : Yes
  109. Text #4
  110. ID                                       : 7
  111. Format                                   : UTF-8
  112. Codec ID                                 : S_TEXT/UTF8
  113. Codec ID/Info                            : UTF-8 Plain Text
  114. Duration                                 : 2 h 0 min
  115. Bit rate                                 : 46 b/s
  116. Count of elements                        : 1748
  117. Stream size                              : 41.3 KiB (0%)
  118. Title                                    : English (Dub)
  119. Language                                 : English
  120. Default                                  : No
  121. Forced                                   : No
  122. Text #5
  123. ID                                       : 8
  124. Format                                   : UTF-8
  125. Codec ID                                 : S_TEXT/UTF8
  126. Codec ID/Info                            : UTF-8 Plain Text
  127. Duration                                 : 2 h 7 min
  128. Bit rate                                 : 55 b/s
  129. Count of elements                        : 2159
  130. Stream size                              : 52.0 KiB (0%)
  131. Title                                    : English SDH (Dub)
  132. Language                                 : English
  133. Default                                  : No
  134. Forced                                   : No
复制代码







                                       
                                       

                                       
                                       
                                       




No.Escapes.2020.RUSSIAN.1080p.AMZN.WEBRip.DD5.1.x264-CBON.torrent (22.28 KB, 下载次数: 0)
回复

使用道具 举报

懒得打字嘛,点击右侧快捷回复 【右侧内容,后台自定义】
您需要登录后才可以回帖 登录 | 立即注册

本版积分规则

Archiver|手机版|小黑屋| 中国高清网 |网站地图 

GMT+8, 2022-6-29 14:21 , Processed in 0.093829 second(s), 26 queries .

Powered by HDchina X3.4

Copyright 2017-2019©HDchina.All right reserved

返回顶部 联系我们