查看: 14|回复: 0

[剧情片] 中心地带 Heartland.1979.1080p.AMZN.WEBRip.DDP2.0.x264-SiGLA 6.79GB

[复制链接]
蓝光币
14 枚
发表于 6 天前 | 显示全部楼层 |阅读模式


◎标  题 中心地带
◎译  名 拓荒者 / 心田
◎片  名 Heartland
◎年  代 1979
◎产  地 美国
◎类  别 剧情 / 西部
◎语  言 英语
◎上映日期 1979-09-22
◎IMDb评分 7.3/10 (1002人评价)
◎IMDb链接 https://www.imdb.com/title/tt0082508/
◎豆瓣评分 7.1/10 (116人评价)
◎豆瓣链接 https://movie.douban.com/subject/1295097/
◎片  长 96分钟
◎导  演 理查德·皮尔斯 Richard Pearce
◎演  员 雷普·汤恩 Rip Torn
       康查塔·费雷尔 Conchata Ferrell
       巴里·普赖默斯 Barry Primus
       莉利亚·斯卡瓦 Lilia Skala
       艾米·莱特 Amy Wright
       梅根·弗尔萨姆 Megan Folsom
       迈克尔·豪斯曼 Michael Hausman
       弗雷德·墨菲 Fred Murphy
       帕特里季亚·冯·布兰登斯坦 Patrizia von Brandenstein
       迈克尔·豪斯曼 Michael Hausman
◎简  介

  Disarmingly realistic in its depiction of the realities of frontier life, Heartland is a strong antidote to the cliches of traditional Westerns. This semi-documentary slice of life is based on the diaries of Elmore Randall Stewart about her days on the Wyoming frontier in the early 20th century. It's a strongly feminist statement about a woman raising her small daughter alone a...
  1. Video
  2. ID                                       : 1
  3. Format                                   : AVC
  4. Format/Info                              : Advanced Video Codec
  5. Format profile                           : [email protected]
  6. Format settings                          : CABAC / 4 Ref Frames
  7. Format settings, CABAC                   : Yes
  8. Format settings, Reference frames        : 4 frames
  9. Format settings, GOP                     : M=4, N=48
  10. Codec ID                                 : V_MPEG4/ISO/AVC
  11. Duration                                 : 1 h 35 min
  12. Bit rate mode                            : Constant
  13. Bit rate                                 : 10 000 kb/s
  14. Width                                    : 1 920 pixels
  15. Height                                   : 1 080 pixels
  16. Display aspect ratio                     : 16:9
  17. Frame rate mode                          : Constant
  18. Frame rate                               : 23.976 (24000/1001/189150) FPS
  19. Color space                              : YUV
  20. Chroma subsampling                       : 4:2:0
  21. Bit depth                                : 8 bits
  22. Scan type                                : Progressive
  23. Bits/(Pixel*Frame)                       : 0.201
  24. Stream size                              : 6.64 GiB (98%)
  25. Default                                  : Yes
  26. Forced                                   : No
  27. Color range                              : Limited
  28. Color primaries                          : BT.709
  29. Transfer characteristics                 : BT.709
  30. Matrix coefficients                      : BT.709
  31. Audio
  32. ID                                       : 2
  33. Format                                   : E-AC-3
  34. Format/Info                              : Enhanced AC-3
  35. Commercial name                          : Dolby Digital Plus
  36. Codec ID                                 : A_EAC3
  37. Duration                                 : 1 h 35 min
  38. Bit rate mode                            : Constant
  39. Bit rate                                 : 224 kb/s
  40. Channel(s)                               : 2 channels
  41. Channel layout                           : L R
  42. Sampling rate                            : 48.0 kHz
  43. Frame rate                               : 31.250 FPS (1536 SPF)
  44. Compression mode                         : Lossy
  45. Stream size                              : 153 MiB (2%)
  46. Language                                 : English
  47. Service kind                             : Complete Main
  48. Default                                  : Yes
  49. Forced                                   : No
  50. Text #1
  51. ID                                       : 3
  52. Format                                   : UTF-8
  53. Codec ID                                 : S_TEXT/UTF8
  54. Codec ID/Info                            : UTF-8 Plain Text
  55. Duration                                 : 1 h 30 min
  56. Bit rate                                 : 33 b/s
  57. Count of elements                        : 912
  58. Stream size                              : 22.3 KiB (0%)
  59. Language                                 : English
  60. Default                                  : No
  61. Forced                                   : No
  62. Text #2
  63. ID                                       : 4
  64. Format                                   : UTF-8
  65. Codec ID                                 : S_TEXT/UTF8
  66. Codec ID/Info                            : UTF-8 Plain Text
  67. Duration                                 : 1 h 32 min
  68. Bit rate                                 : 36 b/s
  69. Count of elements                        : 1040
  70. Stream size                              : 24.7 KiB (0%)
  71. Title                                    : SDH
  72. Language                                 : English
  73. Default                                  : No
  74. Forced                                   : No
复制代码






                                       
                                       

                                       
                                       
                                       




Heartland.1979.1080p.AMZN.WEBRip.DDP2.0.x264-SiGLA.torrent (17.61 KB, 下载次数: 0)
回复

使用道具 举报

懒得打字嘛,点击右侧快捷回复 【右侧内容,后台自定义】
您需要登录后才可以回帖 登录 | 立即注册

本版积分规则

Archiver|手机版|小黑屋| 中国高清网 |网站地图 

GMT+8, 2022-6-29 14:06 , Processed in 0.088157 second(s), 26 queries .

Powered by HDchina X3.4

Copyright 2017-2019©HDchina.All right reserved

返回顶部 联系我们