查看: 19|回复: 0

[其他] 冬日再见 Winter.Ade.1989.GERMAN.1080p.WEBRip.AAC2.0.x264-KUCHU 4.25GB

[复制链接]
蓝光币
14 枚
发表于 6 天前 | 显示全部楼层 |阅读模式


◎标  题 冬季再会
◎译  名 冬季再見
◎片  名 Winter ade
◎年  代 1989
◎产  地 德国
◎类  别 记载片
◎语  言 德语
◎上映日期 1989-02-12
◎IMDb评分 8/10 (94人评价)
◎IMDb链接 https://www.imdb.com/title/tt0094329/
◎豆瓣链接 https://movie.douban.com/subject/1481515/
◎片  长 116分钟
◎导  演 赫尔克·米塞维茨 Helke Misselwitz
◎编  剧 赫尔克·米塞维茨 Helke Misselwitz
◎演  员 赫尔克·米塞维茨 Helke Misselwitz
       Gudrun Steinbrück Gudrun Steinbrück
◎简  介

  工具德合并的前一年,导演访问东德遍地,拍摄分歧年月与工作族群的女子,从她们对当下及过往生活的描写、婚姻的胡想与悲凉、以及对未来的展望,展现共产主义制度下,女性劳动者既被推重亦被压制的两面处境。不但获邀加入柏林影展的围墙撤除20周年专题,亦为德国少数具有女性概念的出色之作。                                    
                                本片获1988德国莱比锡国际记载片电影节银鸽奖。
  1. Video
  2. ID                                       : 1
  3. Format                                   : AVC
  4. Format/Info                              : Advanced Video Codec
  5. Format profile                           : [email protected]
  6. Format settings                          : CABAC / 4 Ref Frames
  7. Format settings, CABAC                   : Yes
  8. Format settings, Reference frames        : 4 frames
  9. Codec ID                                 : V_MPEG4/ISO/AVC
  10. Duration                                 : 1 h 56 min
  11. Bit rate mode                            : Constant
  12. Bit rate                                 : 5 095 kb/s
  13. Nominal bit rate                         : 5 500 kb/s
  14. Width                                    : 1 440 pixels
  15. Height                                   : 1 080 pixels
  16. Display aspect ratio                     : 4:3
  17. Frame rate mode                          : Constant
  18. Frame rate                               : 24.000 FPS
  19. Color space                              : YUV
  20. Chroma subsampling                       : 4:2:0
  21. Bit depth                                : 8 bits
  22. Scan type                                : Progressive
  23. Bits/(Pixel*Frame)                       : 0.136
  24. Stream size                              : 4.15 GiB (98%)
  25. Writing library                          : x264 core 155 r2917 0a84d98
  26. Encoding settings                        : cabac=1 / ref=3 / deblock=1:-1:-1 / analyse=0x3:0x113 / me=hex / subme=8 / psy=1 / psy_rd=1.00:0.15 / mixed_ref=1 / me_range=16 / chroma_me=1 / trellis=2 / 8x8dct=1 / cqm=0 / deadzone=21,11 / fast_pskip=1 / chroma_qp_offset=-3 / threads=24 / lookahead_threads=4 / sliced_threads=0 / nr=0 / decimate=1 / interlaced=0 / bluray_compat=0 / constrained_intra=0 / bframes=5 / b_pyramid=2 / b_adapt=1 / b_bias=0 / direct=3 / weightb=1 / open_gop=0 / weightp=2 / keyint=48 / keyint_min=25 / scenecut=0 / intra_refresh=0 / rc_lookahead=48 / rc=cbr / mbtree=1 / bitrate=5500 / ratetol=1.0 / qcomp=0.60 / qpmin=0 / qpmax=69 / qpstep=4 / vbv_maxrate=5500 / vbv_bufsize=11000 / nal_hrd=cbr / filler=1 / ip_ratio=1.40 / aq=1:1.00
  27. Language                                 : German
  28. Default                                  : Yes
  29. Forced                                   : No
  30. Color range                              : Limited
  31. Color primaries                          : BT.709
  32. Transfer characteristics                 : BT.709
  33. Matrix coefficients                      : BT.709
  34. Audio
  35. ID                                       : 2
  36. Format                                   : AAC LC
  37. Format/Info                              : Advanced Audio Codec Low Complexity
  38. Codec ID                                 : A_AAC-2
  39. Duration                                 : 1 h 56 min
  40. Bit rate                                 : 128 kb/s
  41. Channel(s)                               : 2 channels
  42. Channel layout                           : L R
  43. Sampling rate                            : 48.0 kHz
  44. Frame rate                               : 46.875 FPS (1024 SPF)
  45. Compression mode                         : Lossy
  46. Stream size                              : 107 MiB (2%)
  47. Language                                 : German
  48. Default                                  : Yes
  49. Forced                                   : No
  50. Text
  51. ID                                       : 3
  52. Format                                   : UTF-8
  53. Codec ID                                 : S_TEXT/UTF8
  54. Codec ID/Info                            : UTF-8 Plain Text
  55. Duration                                 : 1 h 55 min
  56. Bit rate                                 : 57 b/s
  57. Count of elements                        : 1135
  58. Stream size                              : 48.5 KiB (0%)
  59. Language                                 : English
  60. Default                                  : Yes
  61. Forced                                   : No
复制代码







                                       
                                       

                                       
                                       
                                       




Winter.Ade.1989.GERMAN.1080p.WEBRip.AAC2.0.x264-KUCHU.torrent (21.89 KB, 下载次数: 1)
回复

使用道具 举报

懒得打字嘛,点击右侧快捷回复 【右侧内容,后台自定义】
您需要登录后才可以回帖 登录 | 立即注册

本版积分规则

Archiver|手机版|小黑屋| 中国高清网 |网站地图 

GMT+8, 2022-6-29 15:46 , Processed in 0.088339 second(s), 26 queries .

Powered by HDchina X3.4

Copyright 2017-2019©HDchina.All right reserved

返回顶部 联系我们