查看: 6|回复: 0

[喜剧片] 缘分的天梯 Love.So.Divine.2004.KOREAN.1080p.WEBRip.x264-VXT 2.06GB

[复制链接]
蓝光币
14 枚
发表于 6 天前 | 显示全部楼层 |阅读模式


◎标  题 缘分的天梯
◎译  名 神父教育 / Love So Divine
◎片  名 신부수업
◎年  代 2004
◎产  地 韩国
◎类  别 笑剧 / 恋爱
◎语  言 韩语
◎上映日期 2004-08-05
◎IMDb评分 6.3/10 (991人评价)
◎IMDb链接 https://www.imdb.com/title/tt0419135/
◎豆瓣评分 6.3/10 (3706人评价)
◎豆瓣链接 https://movie.douban.com/subject/1394236/
◎片  长 South Korea: 110 分钟
◎导  演 许仁茂 In-moo Heo
◎编  剧 许仁茂 In-moo Heo
◎演  员 权相宇 Sang-woo Kwon
       河智苑 Ji-won Ha
       金仁文 In-mun Kim
       赵宰贤 Jae-hyeon Jo
       金惠娜 Hye-na Kim
       金仁权 In-kwon Kim
       奉万大 Man-dae Bong
       金道贤 Do-hyun Kim
       洪仁 Hong In
       金善华 Seon-hwa Kim
       千禹熙 Cheon Woo-Hee
       朴哲民 Cheol-min Park
       孔浩锡 Ho-seok Kong
       金鲜珉 Sun-min Kim
       张哲洙 Cheol-soo Jang
       朴孝俊 Hyo-jun Park
◎简  介

  奎植(权相宇 饰)是神学院的门生,他的“高尚理想”就是能当上神父,是以很是纯洁,一次恋爱还未谈过。这名“榜样生”却由于一次闯祸而被赏罚到一所村落教堂修炼。                                    
                                凤熙(河智苑 饰)刚从美国返来,她专心致志来和男友相聚,却看到男友已经和此外女子风花雪月。悲伤的凤熙喝到烂醉,在奎植的教堂里醉倒。凤熙的叔叔是教堂神父,他命令奎植,一定要救赎凤熙,让她接管神灵的洗礼。这个使命让奎植伤透了神,活跃的凤熙怎样才能接管他的革新呢。                                    
                                旦夕相处中,奎植却发现一件让他更头痛的事:他爱上了凤熙。可是为了他的理想,如此动情却是万万不成的,他愿意牺牲理想去追求一段浪漫的恋爱吗……
  1. Video
  2. ID                                       : 1
  3. Format                                   : AVC
  4. Format/Info                              : Advanced Video Codec
  5. Format profile                           : [email protected]
  6. Format settings                          : CABAC / 4 Ref Frames
  7. Format settings, CABAC                   : Yes
  8. Format settings, Reference frames        : 4 frames
  9. Codec ID                                 : avc1
  10. Codec ID/Info                            : Advanced Video Coding
  11. Duration                                 : 1 h 48 min
  12. Source duration                          : 1 h 48 min
  13. Bit rate                                 : 2 500 kb/s
  14. Width                                    : 1 920 pixels
  15. Height                                   : 1 080 pixels
  16. Display aspect ratio                     : 16:9
  17. Frame rate mode                          : Constant
  18. Frame rate                               : 23.976 (23976/1000/189150) FPS
  19. Color space                              : YUV
  20. Chroma subsampling                       : 4:2:0
  21. Bit depth                                : 8 bits
  22. Scan type                                : Progressive
  23. Bits/(Pixel*Frame)                       : 0.050
  24. Stream size                              : 1.89 GiB (92%)
  25. Source stream size                       : 1.89 GiB (92%)
  26. Writing library                          : x264 core 152 r2851M ba24899
  27. Encoding settings                        : cabac=1 / ref=4 / deblock=1:-1:-1 / analyse=0x3:0x113 / me=umh / subme=9 / psy=1 / psy_rd=1.00:0.15 / mixed_ref=1 / me_range=24 / chroma_me=1 / trellis=2 / 8x8dct=1 / cqm=0 / deadzone=21,11 / fast_pskip=1 / chroma_qp_offset=-3 / threads=16 / lookahead_threads=4 / sliced_threads=0 / nr=0 / decimate=1 / interlaced=0 / bluray_compat=0 / constrained_intra=0 / bframes=3 / b_pyramid=2 / b_adapt=2 / b_bias=0 / direct=3 / weightb=1 / open_gop=0 / weightp=2 / keyint=250 / keyint_min=25 / scenecut=40 / intra_refresh=0 / rc_lookahead=50 / rc=2pass / mbtree=1 / bitrate=2500 / ratetol=1.0 / qcomp=0.60 / qpmin=0 / qpmax=69 / qpstep=4 / cplxblur=20.0 / qblur=0.5 / vbv_maxrate=31250 / vbv_bufsize=31250 / nal_hrd=none / filler=0 / ip_ratio=1.40 / aq=3:1.00
  28. Encoded date                             : UTC 2022-06-23 00:19:30
  29. Tagged date                              : UTC 2022-06-23 00:19:30
  30. Codec configuration box                  : avcC
  31. Audio
  32. ID                                       : 2
  33. Format                                   : AAC LC
  34. Format/Info                              : Advanced Audio Codec Low Complexity
  35. Codec ID                                 : mp4a-40-2
  36. Duration                                 : 1 h 48 min
  37. Bit rate mode                            : Constant
  38. Bit rate                                 : 224 kb/s
  39. Channel(s)                               : 2 channels
  40. Channel layout                           : L R
  41. Sampling rate                            : 48.0 kHz
  42. Frame rate                               : 46.875 FPS (1024 SPF)
  43. Compression mode                         : Lossy
  44. Stream size                              : 173 MiB (8%)
  45. Language                                 : Korean
  46. Default                                  : Yes
  47. Alternate group                          : 1
  48. Encoded date                             : UTC 2022-06-23 00:19:30
  49. Tagged date                              : UTC 2022-06-23 00:19:30
复制代码







                                       
                                       

                                       
                                       
                                       




Love.So.Divine.2004.KOREAN.1080p.WEBRip.x264-VXT.torrent (21.36 KB, 下载次数: 0)
回复

使用道具 举报

懒得打字嘛,点击右侧快捷回复 【右侧内容,后台自定义】
您需要登录后才可以回帖 登录 | 立即注册

本版积分规则

Archiver|手机版|小黑屋| 中国高清网 |网站地图 

GMT+8, 2022-6-29 15:28 , Processed in 0.091325 second(s), 26 queries .

Powered by HDchina X3.4

Copyright 2017-2019©HDchina.All right reserved

返回顶部 联系我们