查看: 16|回复: 0

[科幻片] 量子战争:卡西尼空间之旅 Quantum.Quest.A.Cassini.Space.Odyssey.2010.1080p.WEBRip.x264-RARBG 976.69MB

[复制链接]
蓝光币
14 枚
发表于 6 天前 | 显示全部楼层 |阅读模式


◎标  题 量子战争:卡西尼空间之旅
◎片  名 Quantum Quest: A Cassini Space Odyssey
◎年  代 2010
◎产  地 美国
◎类  别 科幻 / 动画 / 冒险
◎语  言 英语
◎上映日期 2010-01-13
◎IMDb评分 5.1/10 (381人评价)
◎IMDb链接 https://www.imdb.com/title/tt0312305/
◎豆瓣链接 https://movie.douban.com/subject/1946872/
◎导  演 丹·圣皮埃尔 Dan St. Pierre
◎演  员 克里斯·派恩 Chris Pine
       塞缪尔·杰克逊 Samuel L. Jackson
       罗伯特·皮卡多 Robert Picardo
       尼尔·阿姆斯特朗 Neil Armstrong
       杰森·哈里斯 Jason Harris
       汤姆·肯尼 Tom Kenny
       Casey Kasem Casey Kasem
       史宾塞·布瑞斯林 Spencer Breslin
       海登·克里斯滕森 Hayden Christensen
       詹妮娜·加万卡 Janina Gavankar
       布伦特·斯皮内 Brent Spiner
       吴珊卓 Sandra Oh
       阿曼达·皮特 Amanda Peet
       詹姆斯·厄尔·琼斯 James Earl Jones
       盖瑞·格拉汉姆 Gary Graham
       道格·琼斯 Doug Jones
       阿比盖尔·布雷斯林 Abigail Breslin
       马克·哈米尔 Mark Hamill
       杰森·亚历山大 Jason Alexander
       威廉·夏特纳 William Shatner
       Shawn K. Clement Shawn K. Clement
       丹·圣皮埃尔 Dan St. Pierre
        Tara Loren
◎简  介

  设想一下,两位《星际迷航记》里的柯克船主(Captain Kirks),两位《星球大战》里的黑军人(Darth Vaders),以及曾乘坐阿波罗11号宇宙飞船登陆月球的飞翔员阿姆斯特朗(Neil Armstrong)的声音出现在一部电影里,会是什么情况?美国国家宇航局(NASA)将首度联手中国台湾太极动画公司(Digimax),推出立体动画电影《量子战争》(Quantum Quest),该片片长45分钟,估计耗资1000万美圆,将于今年9月率先登陆大银幕。                                       
                                    这部自力建造电影配音声势强大,四位首要配音演员包括《星际迷航记》(Star Trek)系列电视剧和电影中柯克船主的饰演者、老牌好莱坞影星威廉·沙特纳(William Shatner),在将于明年上映的新版《星际迷航记》中饰演柯克船主一角的新人克里斯·派恩(Chris Pine),在《星球大战》电影...
  1. Video
  2. ID                                       : 1
  3. Format                                   : AVC
  4. Format/Info                              : Advanced Video Codec
  5. Format profile                           : [email protected]
  6. Format settings                          : CABAC / 4 Ref Frames
  7. Format settings, CABAC                   : Yes
  8. Format settings, Reference frames        : 4 frames
  9. Codec ID                                 : avc1
  10. Codec ID/Info                            : Advanced Video Coding
  11. Duration                                 : 50 min 0 s
  12. Bit rate                                 : 2 500 kb/s
  13. Width                                    : 1 920 pixels
  14. Height                                   : 1 080 pixels
  15. Display aspect ratio                     : 16:9
  16. Frame rate mode                          : Constant
  17. Frame rate                               : 23.976 (23976/1000/189150) FPS
  18. Color space                              : YUV
  19. Chroma subsampling                       : 4:2:0
  20. Bit depth                                : 8 bits
  21. Scan type                                : Progressive
  22. Bits/(Pixel*Frame)                       : 0.050
  23. Stream size                              : 895 MiB (92%)
  24. Writing library                          : x264 core 152 r2851M ba24899
  25. Encoding settings                        : cabac=1 / ref=4 / deblock=1:-1:-1 / analyse=0x3:0x113 / me=umh / subme=9 / psy=1 / psy_rd=1.00:0.15 / mixed_ref=1 / me_range=24 / chroma_me=1 / trellis=2 / 8x8dct=1 / cqm=0 / deadzone=21,11 / fast_pskip=1 / chroma_qp_offset=-3 / threads=16 / lookahead_threads=4 / sliced_threads=0 / nr=0 / decimate=1 / interlaced=0 / bluray_compat=0 / constrained_intra=0 / bframes=3 / b_pyramid=2 / b_adapt=2 / b_bias=0 / direct=3 / weightb=1 / open_gop=0 / weightp=2 / keyint=250 / keyint_min=25 / scenecut=40 / intra_refresh=0 / rc_lookahead=50 / rc=2pass / mbtree=1 / bitrate=2500 / ratetol=1.0 / qcomp=0.60 / qpmin=0 / qpmax=69 / qpstep=4 / cplxblur=20.0 / qblur=0.5 / vbv_maxrate=31250 / vbv_bufsize=31250 / nal_hrd=none / filler=0 / ip_ratio=1.40 / aq=3:1.00
  26. Encoded date                             : UTC 2022-06-22 23:20:27
  27. Tagged date                              : UTC 2022-06-22 23:20:27
  28. Codec configuration box                  : avcC
  29. Audio
  30. ID                                       : 2
  31. Format                                   : AAC LC
  32. Format/Info                              : Advanced Audio Codec Low Complexity
  33. Codec ID                                 : mp4a-40-2
  34. Duration                                 : 50 min 0 s
  35. Bit rate mode                            : Constant
  36. Bit rate                                 : 224 kb/s
  37. Channel(s)                               : 6 channels
  38. Channel layout                           : C L R Ls Rs LFE
  39. Sampling rate                            : 48.0 kHz
  40. Frame rate                               : 46.875 FPS (1024 SPF)
  41. Compression mode                         : Lossy
  42. Stream size                              : 80.1 MiB (8%)
  43. Language                                 : English
  44. Default                                  : Yes
  45. Alternate group                          : 1
  46. Encoded date                             : UTC 2022-06-22 23:20:27
  47. Tagged date                              : UTC 2022-06-22 23:20:27
复制代码







                                       
                                       

                                       
                                       
                                       




Quantum.Quest.A.Cassini.Space.Odyssey.2010.1080p.WEBRip.x264-RARBG.torrent (19.81 KB, 下载次数: 0)
回复

使用道具 举报

懒得打字嘛,点击右侧快捷回复 【右侧内容,后台自定义】
您需要登录后才可以回帖 登录 | 立即注册

本版积分规则

Archiver|手机版|小黑屋| 中国高清网 |网站地图 

GMT+8, 2022-6-29 15:38 , Processed in 0.090210 second(s), 26 queries .

Powered by HDchina X3.4

Copyright 2017-2019©HDchina.All right reserved

返回顶部 联系我们