查看: 12|回复: 0

[2160p] 星际旅行8:第一类接触 Star.Trek.First.Contact.1996.2160p.PMTP.WEB-DL.x265.10bit.HDR10Plus.DTS-HD.MA.TrueHD.5.1-NOGRP 17.38GB

[复制链接]
蓝光币
14 枚
发表于 6 天前 | 显示全部楼层 |阅读模式


◎标  题 星际观光8:第一类打仗
◎译  名 星际迷航8:第一次打仗 / 星空奇遇记8:星空第一击(港) / 星舰奇航记8:战役巡航(台) / 星际争霸战8 / 星舰迷航记8 / Star Trek 8
◎片  名 Star Trek: First Contact
◎年  代 1996
◎产  地 美国
◎类  别 行动 / 科幻 / 惊悚 / 冒险
◎语  言 英语
◎上映日期 1996-11-22
◎IMDb评分 7.6/10 (124287人评价)
◎IMDb链接 https://www.imdb.com/title/tt0117731/
◎豆瓣评分 7.9/10 (7553人评价)
◎豆瓣链接 https://movie.douban.com/subject/1299888/
◎片  长 111 分钟
◎导  演 乔纳森·弗雷克斯 Jonathan Frakes
◎编  剧 布兰农·布拉加 Brannon Braga
       罗纳德·D·摩尔 Ronald D. Moore
       吉恩·罗登贝瑞 Gene Roddenberry
       Rick Berman Rick Berman
◎演  员 帕特里克·斯图尔特 Patrick Stewart
       乔纳森·弗雷克斯 Jonathan Frakes
       布伦特·斯皮内 Brent Spiner
       莱瓦尔·伯顿 LeVar Burton
       迈克尔·多恩 Michael Dorn
       盖茨·麦克法登 Gates McFadden
       玛丽娜·赛提斯 Marina Sirtis
       阿尔法·伍达德 Alfre Woodard
       詹姆斯·克伦威尔 James Cromwell
       艾丽丝·克里奇 Alice Krige
       尼尔·麦克唐纳 Neal McDonough
       马尼耶·麦克费尔 Marnie McPhail
       罗伯特·皮卡多 Robert Picardo
       德怀特·舒尔茨 Dwight Schultz
       乔伊·阿那亚 Joey Anaya
       伊桑·菲利普斯 Ethan Phillips
       亚当·斯科特 Adam Scott
       斯科特·哈文 Scott Haven
       罗纳德·D·摩尔 Ronald D. Moore
       布兰农·布拉加 Brannon Braga
       Jon David Casey Jon David Casey
       唐·斯达克 Don Stark
       大卫·考吉尔 David Cowgill
       杰夫·库普伍德 Jeff Coopwood
       Michael Zaslow Michael Zaslow
       马杰尔·巴雷特 Majel Barrett
       佩蒂·安武 Patti Yasutake
       Rick Berman Rick Berman
       杰瑞·高德史姑娘 Jerry Goldsmith
       马修·莱昂涅蒂 Matthew F. Leonetti
       约翰·W·惠勒 John W. Wheeler
       Junie Lowry-Johnson Junie Lowry-Johnson
       约翰·M·德维尔 John M. Dwyer
       Herman F. Zimmerman Herman F. Zimmerman
       Robert Blackman Robert Blackman
       黛博拉·埃弗顿 Deborah Everton
       Barbara Ronci Barbara Ronci
       James MacKinnon James MacKinnon
       Mary Kay Morse Mary Kay Morse
       R. Stephen Weber R. Stephen Weber
       June Westmore June Westmore
       斯科特·维勒尔 Scott Wheeler
       卡米尔·卡尔维 Camille Calvet
       Mark Bussan Mark Bussan
       Ellis Burman Jr. Ellis Burman Jr.
       Danny Valencia Danny Valencia
       杰克·加伯 Jake Garber
       蒙蒂·韦斯特摩尔 Monty Westmore
       Bart Mixon Bart Mixon
       迈克尔·韦斯特莫 Michael Westmore
       罗斯玛丽C·克雷莫纳 Rosemary C. Cremona
       David Ticotin David Ticotin
       Jerry Fleck Jerry Fleck
       亚历克斯·杰格尔 Alex Jaeger
       方·戴维斯 Fon Davis
       Cathy Burrows Cathy Burrows
       Jennifer German Jennifer German
       克里斯托弗·埃文斯 Christopher Evans
       蒂姆·亚历山大 Tim Alexander
       乔治·墨菲 George Murphy
       Patrick T. Myers Patrick T. Myers
       克莱格·巴朗 Craig Barron
       Amanda K. Montgomery Amanda K. Montgomery
       Lawrence Littleton Lawrence Littleton
       John Haggar John Haggar
       Rick Rische Rick Rische
       格雷格·金布尔 Greg Kimble
       Mark Moore Mark Moore
       约翰·诺尔 John Knoll
       克里斯托弗·霍瓦斯 Christopher Horvath
       Daniel Kramer Daniel Kramer
       Kenneth Littleton Kenneth Littleton
       Tad Leckman Tad Leckman
       卡尔·胡珀 Carl Hooper
       亚伦·海耶 Aaron Haye
       亚当·霍华德 Adam Howard
       Richard Patterson Richard Patterson
       Michael Gleason Michael Gleason
       Pat Sweeney Pat Sweeney
       Chad Taylor Chad Taylor
       Scott Frankel Scott Frankel
       Mike Wassel Mike Wassel
       Andrea D'Amico Andrea D'Amico
       Kirk Cadrette Kirk Cadrette
       行弘进 Susumu Yukuhiro
       Dugan Beach Dugan Beach
       罗伯特·斯特罗姆伯格 Robert Stromberg
       迈克尔·彼得森 Michael Peterson
       Syd Dutton Syd Dutton
       卢克·奥伯恩 Luke O'Byrne
       哈比布·扎尔加普尔 Habib Zargarpour
       Martin Rosenberg Martin Rosenberg
       托马斯·罗塞特 Thomas Rosseter
       乔纳森·罗斯巴特 Jonathan Rothbart
       肯尼斯·史姑娘 Kenneth Smith
       Scott Rader Scott Rader
◎简  介

  本片是以地球人与瓦肯人的“第一类打仗”事务为布景,将重心放在《星际迷航之下一代》电视系列剧中的大敌『博格人』。                                    
                                企业号正在宇宙空间做例行巡航时,舰长皮卡特接到密电,称博格人已结合其他星系的气力,预备向地球倡议进犯。由于舰长皮卡特曾受敌方俘虏并异化,星际舰队对其不很信赖,故没有派其出战。皮卡特掉臂号令,仍然介入战役,以后企业号跟从博格人的时候漩涡回到21世纪,以阻挡博格人试图改变人类的外星成长史到达征服地球的诡计。
  1. Video
  2. ID                                       : 1
  3. Format                                   : HEVC
  4. Format/Info                              : High Efficiency Video Coding
  5. Format profile                           : Main [email protected]@Main
  6. HDR format                               : SMPTE ST 2094 App 4, Version 1, HDR10+ Profile B compatible
  7. Codec ID                                 : V_MPEGH/ISO/HEVC
  8. Duration                                 : 1 h 50 min
  9. Bit rate                                 : 14.0 Mb/s
  10. Width                                    : 3 840 pixels
  11. Height                                   : 2 160 pixels
  12. Display aspect ratio                     : 16:9
  13. Frame rate mode                          : Constant
  14. Frame rate                               : 23.976 (24000/1001/189150) FPS
  15. Color space                              : YUV
  16. Chroma subsampling                       : 4:2:0 (Type 2)
  17. Bit depth                                : 10 bits
  18. Bits/(Pixel*Frame)                       : 0.070
  19. Stream size                              : 10.8 GiB (62%)
  20. Language                                 : English
  21. Default                                  : Yes
  22. Forced                                   : No
  23. Color range                              : Limited
  24. Color primaries                          : BT.2020
  25. Transfer characteristics                 : PQ
  26. Matrix coefficients                      : BT.2020 non-constant
  27. Mastering display color primaries        : Display P3
  28. Mastering display luminance              : min: 0.0050 cd/m2, max: 4000 cd/m2

  29. Audio #1
  30. ID                                       : 2
  31. Format                                   : MLP FBA
  32. Format/Info                              : Meridian Lossless Packing FBA
  33. Commercial name                          : Dolby TrueHD
  34. Codec ID                                 : A_TRUEHD
  35. Duration                                 : 1 h 50 min
  36. Bit rate mode                            : Variable
  37. Bit rate                                 : 3 898 kb/s
  38. Maximum bit rate                         : 5 340 kb/s
  39. Channel(s)                               : 6 channels
  40. Channel layout                           : L R C LFE Ls Rs
  41. Sampling rate                            : 48.0 kHz
  42. Frame rate                               : 1 200.000 FPS (40 SPF)
  43. Compression mode                         : Lossless
  44. Stream size                              : 3.01 GiB (17%)
  45. Language                                 : English
  46. Default                                  : Yes
  47. Forced                                   : No

  48. Audio #2
  49. ID                                       : 3
  50. Format                                   : DTS XLL
  51. Format/Info                              : Digital Theater Systems
  52. Commercial name                          : DTS-HD Master Audio
  53. Codec ID                                 : A_DTS
  54. Duration                                 : 1 h 50 min
  55. Bit rate mode                            : Variable
  56. Bit rate                                 : 4 251 kb/s
  57. Channel(s)                               : 6 channels
  58. Channel layout                           : C L R Ls Rs LFE
  59. Sampling rate                            : 48.0 kHz
  60. Frame rate                               : 93.750 FPS (512 SPF)
  61. Bit depth                                : 24 bits
  62. Compression mode                         : Lossless
  63. Delay relative to video                  : 6 ms
  64. Stream size                              : 3.29 GiB (19%)
  65. Language                                 : English
  66. Default                                  : No
  67. Forced                                   : No

  68. Audio #3
  69. ID                                       : 4
  70. Format                                   : E-AC-3
  71. Format/Info                              : Enhanced AC-3
  72. Commercial name                          : Dolby Digital Plus
  73. Codec ID                                 : A_EAC3
  74. Duration                                 : 1 h 50 min
  75. Bit rate mode                            : Constant
  76. Bit rate                                 : 192 kb/s
  77. Channel(s)                               : 6 channels
  78. Channel layout                           : L R C LFE Ls Rs
  79. Sampling rate                            : 48.0 kHz
  80. Frame rate                               : 31.250 FPS (1536 SPF)
  81. Compression mode                         : Lossy
  82. Stream size                              : 152 MiB (1%)
  83. Language                                 : English
  84. Service kind                             : Complete Main
  85. Default                                  : No
  86. Forced                                   : No

  87. Text #1
  88. ID                                       : 5
  89. Format                                   : UTF-8
  90. Codec ID                                 : S_TEXT/UTF8
  91. Codec ID/Info                            : UTF-8 Plain Text
  92. Duration                                 : 1 h 44 min
  93. Bit rate                                 : 54 b/s
  94. Count of elements                        : 1305
  95. Stream size                              : 42.1 KiB (0%)
  96. Language                                 : English
  97. Default                                  : No
  98. Forced                                   : No

  99. Text #2
  100. ID                                       : 6
  101. Format                                   : PGS
  102. Muxing mode                              : zlib
  103. Codec ID                                 : S_HDMV/PGS
  104. Codec ID/Info                            : Picture based subtitle format used on BDs/HD-DVDs
  105. Duration                                 : 1 h 47 min
  106. Bit rate                                 : 14.7 kb/s
  107. Count of elements                        : 1468
  108. Stream size                              : 11.2 MiB (0%)
  109. Language                                 : Arabic
  110. Default                                  : No
  111. Forced                                   : No

  112. Text #3
  113. ID                                       : 7
  114. Format                                   : PGS
  115. Muxing mode                              : zlib
  116. Codec ID                                 : S_HDMV/PGS
  117. Codec ID/Info                            : Picture based subtitle format used on BDs/HD-DVDs
  118. Duration                                 : 1 h 47 min
  119. Bit rate                                 : 25.8 kb/s
  120. Count of elements                        : 1594
  121. Stream size                              : 19.8 MiB (0%)
  122. Language                                 : Danish
  123. Default                                  : No
  124. Forced                                   : No

  125. Text #4
  126. ID                                       : 8
  127. Format                                   : PGS
  128. Muxing mode                              : zlib
  129. Codec ID                                 : S_HDMV/PGS
  130. Codec ID/Info                            : Picture based subtitle format used on BDs/HD-DVDs
  131. Duration                                 : 1 h 50 min
  132. Bit rate                                 : 30.3 kb/s
  133. Count of elements                        : 2187
  134. Stream size                              : 23.9 MiB (0%)
  135. Language                                 : German
  136. Default                                  : No
  137. Forced                                   : No

  138. Text #5
  139. ID                                       : 9
  140. Format                                   : PGS
  141. Muxing mode                              : zlib
  142. Codec ID                                 : S_HDMV/PGS
  143. Codec ID/Info                            : Picture based subtitle format used on BDs/HD-DVDs
  144. Duration                                 : 1 h 40 min
  145. Bit rate                                 : 33.6 kb/s
  146. Count of elements                        : 2070
  147. Stream size                              : 24.3 MiB (0%)
  148. Language                                 : English
  149. Default                                  : No
  150. Forced                                   : No

  151. Text #6
  152. ID                                       : 10
  153. Format                                   : PGS
  154. Muxing mode                              : zlib
  155. Codec ID                                 : S_HDMV/PGS
  156. Codec ID/Info                            : Picture based subtitle format used on BDs/HD-DVDs
  157. Duration                                 : 1 h 50 min
  158. Bit rate                                 : 32.7 kb/s
  159. Count of elements                        : 2314
  160. Stream size                              : 25.7 MiB (0%)
  161. Language                                 : Spanish
  162. Default                                  : No
  163. Forced                                   : No

  164. Text #7
  165. ID                                       : 11
  166. Format                                   : PGS
  167. Muxing mode                              : zlib
  168. Codec ID                                 : S_HDMV/PGS
  169. Codec ID/Info                            : Picture based subtitle format used on BDs/HD-DVDs
  170. Duration                                 : 1 h 50 min
  171. Bit rate                                 : 24.1 kb/s
  172. Count of elements                        : 2228
  173. Stream size                              : 19.0 MiB (0%)
  174. Language                                 : French
  175. Default                                  : No
  176. Forced                                   : No

  177. Text #8
  178. ID                                       : 12
  179. Format                                   : PGS
  180. Muxing mode                              : zlib
  181. Codec ID                                 : S_HDMV/PGS
  182. Codec ID/Info                            : Picture based subtitle format used on BDs/HD-DVDs
  183. Duration                                 : 1 h 47 min
  184. Bit rate                                 : 25.9 kb/s
  185. Count of elements                        : 1466
  186. Stream size                              : 19.8 MiB (0%)
  187. Language                                 : Croatian
  188. Default                                  : No
  189. Forced                                   : No

  190. Text #9
  191. ID                                       : 13
  192. Format                                   : PGS
  193. Muxing mode                              : zlib
  194. Codec ID                                 : S_HDMV/PGS
  195. Codec ID/Info                            : Picture based subtitle format used on BDs/HD-DVDs
  196. Duration                                 : 1 h 50 min
  197. Bit rate                                 : 31.7 kb/s
  198. Count of elements                        : 2306
  199. Stream size                              : 25.0 MiB (0%)
  200. Language                                 : Italian
  201. Default                                  : No
  202. Forced                                   : No

  203. Text #10
  204. ID                                       : 14
  205. Format                                   : PGS
  206. Muxing mode                              : zlib
  207. Codec ID                                 : S_HDMV/PGS
  208. Codec ID/Info                            : Picture based subtitle format used on BDs/HD-DVDs
  209. Duration                                 : 1 h 47 min
  210. Bit rate                                 : 22.9 kb/s
  211. Count of elements                        : 1664
  212. Stream size                              : 17.6 MiB (0%)
  213. Language                                 : Dutch
  214. Default                                  : No
  215. Forced                                   : No

  216. Text #11
  217. ID                                       : 15
  218. Format                                   : PGS
  219. Muxing mode                              : zlib
  220. Codec ID                                 : S_HDMV/PGS
  221. Codec ID/Info                            : Picture based subtitle format used on BDs/HD-DVDs
  222. Duration                                 : 1 h 47 min
  223. Bit rate                                 : 24.6 kb/s
  224. Count of elements                        : 1543
  225. Stream size                              : 18.8 MiB (0%)
  226. Language                                 : Norwegian
  227. Default                                  : No
  228. Forced                                   : No

  229. Text #12
  230. ID                                       : 16
  231. Format                                   : PGS
  232. Muxing mode                              : zlib
  233. Codec ID                                 : S_HDMV/PGS
  234. Codec ID/Info                            : Picture based subtitle format used on BDs/HD-DVDs
  235. Duration                                 : 1 h 50 min
  236. Bit rate                                 : 29.4 kb/s
  237. Count of elements                        : 2180
  238. Stream size                              : 23.1 MiB (0%)
  239. Language                                 : Portuguese
  240. Default                                  : No
  241. Forced                                   : No

  242. Text #13
  243. ID                                       : 17
  244. Format                                   : PGS
  245. Muxing mode                              : zlib
  246. Codec ID                                 : S_HDMV/PGS
  247. Codec ID/Info                            : Picture based subtitle format used on BDs/HD-DVDs
  248. Duration                                 : 1 h 47 min
  249. Bit rate                                 : 24.8 kb/s
  250. Count of elements                        : 1456
  251. Stream size                              : 19.0 MiB (0%)
  252. Language                                 : Finnish
  253. Default                                  : No
  254. Forced                                   : No

  255. Text #14
  256. ID                                       : 18
  257. Format                                   : PGS
  258. Muxing mode                              : zlib
  259. Codec ID                                 : S_HDMV/PGS
  260. Codec ID/Info                            : Picture based subtitle format used on BDs/HD-DVDs
  261. Duration                                 : 1 h 47 min
  262. Bit rate                                 : 23.8 kb/s
  263. Count of elements                        : 1554
  264. Stream size                              : 18.2 MiB (0%)
  265. Language                                 : Swedish
  266. Default                                  : No
  267. Forced                                   : No

  268. Menu
  269. 00:00:00.000                             : en:00:00:00.000
  270. 00:02:48.668                             : en:00:02:48.668
  271. 00:04:45.243                             : en:00:04:45.243
  272. 00:07:30.784                             : en:00:07:30.784
  273. 00:11:52.629                             : en:00:11:52.629
  274. 00:13:54.917                             : en:00:13:54.917
  275. 00:17:21.958                             : en:00:17:21.958
  276. 00:22:25.636                             : en:00:22:25.636
  277. 00:24:24.838                             : en:00:24:24.838
  278. 00:25:52.885                             : en:00:25:52.885
  279. 00:27:08.752                             : en:00:27:08.752
  280. 00:28:10.063                             : en:00:28:10.063
  281. 00:31:14.289                             : en:00:31:14.289
  282. 00:37:50.935                             : en:00:37:50.935
  283. 00:39:16.354                             : en:00:39:16.354
  284. 00:43:52.171                             : en:00:43:52.171
  285. 00:46:13.604                             : en:00:46:13.604
  286. 00:49:17.580                             : en:00:49:17.580
  287. 00:55:11.850                             : en:00:55:11.850
  288. 00:58:20.122                             : en:00:58:20.122
  289. 01:01:31.730                             : en:01:01:31.730
  290. 01:05:16.287                             : en:01:05:16.287
  291. 01:13:52.261                             : en:01:13:52.261
  292. 01:16:24.079                             : en:01:16:24.079
  293. 01:23:20.704                             : en:01:23:20.704
  294. 01:25:36.548                             : en:01:25:36.548
  295. 01:28:45.153                             : en:01:28:45.153
  296. 01:33:33.775                             : en:01:33:33.775
  297. 01:37:31.637                             : en:01:37:31.637
  298. 01:39:59.827                             : en:01:39:59.827
  299. 01:45:34.912                             : en:01:45:34.912
复制代码




                                       
                                       

                                       
                                       
                                       




星际观光8:第一类打仗 Star.Trek.First.Contact.1996.2160p.PMTP.WEB-DL.x265.10bit.HDR10Plus.DTS-HD.MA.TrueHD.5.1-NOGRP 17.38GB

Star.Trek.First.Contact.1996.2160p.PMTP.WEB-DL.x265.10bit.HDR10Plus.DTS-HD.MA.Tr.torrent

22.44 KB, 下载次数: 0

回复

使用道具 举报

懒得打字嘛,点击右侧快捷回复 【右侧内容,后台自定义】
您需要登录后才可以回帖 登录 | 立即注册

本版积分规则

Archiver|手机版|小黑屋| 中国高清网 |网站地图 

GMT+8, 2022-6-29 15:51 , Processed in 0.124456 second(s), 26 queries .

Powered by HDchina X3.4

Copyright 2017-2019©HDchina.All right reserved

返回顶部 联系我们