查看: 13|回复: 0

[2160p] 隐秘的生活 A.Hidden.Life.2019.2160p.WEB-DL.DD5.1.DV.MP4.x265-DVSUX 19.49GB

[复制链接]
蓝光币
14 枚
发表于 6 天前 | 显示全部楼层 |阅读模式


◎标  题 隐蔽的生活
◎译  名 隐藏的生活(台) / 藏匿生活 / 隐蔽生活 / 拉黛贡德 / Radegund
◎片  名 A Hidden Life
◎年  代 2019
◎产  地 美国 / 英国 / 德国
◎类  别 剧情 / 恋爱 / 列传 / 战争
◎语  言 英语 / 德语 / 意大利语
◎上映日期 2019-05-19(戛纳电影节) / 2019-12-13(美国)
◎IMDb评分 7.4/10 (22166人评价)
◎IMDb链接 https://www.imdb.com/title/tt5827916/
◎豆瓣评分 7.7/10 (10227人评价)
◎豆瓣链接 https://movie.douban.com/subject/26823502/
◎片  长 173分钟(戛纳电影节)
◎导  演 泰伦斯·马力克 Terrence Malick
◎编  剧 泰伦斯·马力克 Terrence Malick
◎演  员 奥古斯特·迪赫 August Diehl
       瓦莱丽·帕赫纳 Valerie Pachner
       玛丽亚·西蒙 Maria Simon
       卡琳·纽荷瑟 Karin Neuhäuser
       托比亚斯·莫雷蒂 Tobias Moretti
       乌尔里希·马特斯 Ulrich Matthes
       马提亚斯·修奈尔 Matthias Schoenaerts
       弗兰茨·罗戈夫斯基 Franz Rogowski
       卡尔·马克维斯 Karl Markovics
       布鲁诺·冈茨 Bruno Ganz
       迈克尔·恩奎斯特 Michael Nyqvist
       沃尔夫冈·迈克尔 Wolfgang Michael
       约翰内斯·克里施 Johannes Krisch
       约翰·雷森 Johan Leysen
       马丁·乌特克 Martin Wuttke
       瓦尔德马·科布斯 Waldemar Kobus
       索菲·罗伊斯 Sophie Rois
       亚历山大·费林 Alexander Fehling
       迪莫·亚历克谢夫 Dimo Alexiev
       马克·瓦斯科 Mark Waschke
       马克斯·马拉特斯塔 Max Malatesta
       埃尔敏·西贾米贾 Ermin Sijamija
       乌尔里奇·布兰德霍夫 Ulrich Brandhoff
       迈克尔·史戴诺邱 Michael Steinocher
       亚历山大·拉兹尊 Alexander Radszun
       托马斯·马拉斯 Thomas Mraz
       迪特·考斯里克 Dieter Kosslick
       贝恩义·霍尔谢尔 Bernd Hölscher
       克里斯蒂安森格沃德 Christian Sengewald
       约翰尼斯·努斯鲍姆 Johannes Nussbaum
       伦纳德·昆兹 Leonard Kunz
       马克斯·毛夫 Max Mauff
       莫妮卡·伦纳兹 Monika Lennartz
       乔尔·巴斯曼 Joel Basman
       尤尔根·普洛斯诺 Jürgen Prochnow
       尼可拉斯·瑞肯 Nicholas Reinke
       克里斯·泰辛格 Chris Theisinger
       詹姆斯·纽顿·霍华德 James Newton Howard
       Jörg Widmer Jörg Widmer
       黛博拉·艾森伯格 Deborah Eisenberg
◎标  签 战争 / 德国 / 美国 / 列传 / 2019 / 历史 / 剧情 / 人性
◎简  介

  泰伦斯·马力克继1998年《细细的红线》后,将再次执导二战题材影片。新片取材自实在历史事务,报告奥天时兵士弗兰茨·杰格斯泰德(奧古斯特·迪赫饰)因在二战期间拒绝为纳粹德国而战,终极被判死刑。据称这将是一部与《细细的红线》气概完全分歧的二战影片。该片今夏德国开机。
  1. Video
  2. ID                                       : 1
  3. Format                                   : HEVC
  4. Format/Info                              : High Efficiency Video Coding
  5. Format profile                           : Main [email protected]@High
  6. HDR format                               : Dolby Vision, Version 1.0, dvhe.05.06, BL+RPU
  7. Codec ID                                 : dvhe
  8. Codec ID/Info                            : High Efficiency Video Coding with Dolby Vision
  9. Duration                                 : 2 h 54 min
  10. Bit rate                                 : 15.7 Mb/s
  11. Width                                    : 3 840 pixels
  12. Height                                   : 2 160 pixels
  13. Display aspect ratio                     : 16:9
  14. Frame rate mode                          : Constant
  15. Frame rate                               : 23.976 (24000/1001/189150) FPS
  16. Color space                              : YUV
  17. Chroma subsampling                       : 4:2:0
  18. Bit depth                                : 10 bits
  19. Bits/(Pixel*Frame)                       : 0.079
  20. Stream size                              : 19.2 GiB (98%)
  21. Default                                  : Yes
  22. Alternate group                          : 1
  23. Encoded date                             : UTC 2022-06-22 18:30:00
  24. Tagged date                              : UTC 2022-06-22 18:37:04
  25. Color range                              : Full
  26. Codec configuration box                  : hvcC+dvcC
  27. Audio
  28. ID                                       : 2
  29. Format                                   : E-AC-3
  30. Format/Info                              : Enhanced AC-3
  31. Commercial name                          : Dolby Digital Plus
  32. Codec ID                                 : ec-3
  33. Duration                                 : 2 h 54 min
  34. Bit rate mode                            : Constant
  35. Bit rate                                 : 256 kb/s
  36. Maximum bit rate                         : 270 kb/s
  37. Channel(s)                               : 6 channels
  38. Channel layout                           : L R C LFE Ls Rs
  39. Sampling rate                            : 48.0 kHz
  40. Frame rate                               : 31.250 FPS (1536 SPF)
  41. Compression mode                         : Lossy
  42. Stream size                              : 319 MiB (2%)
  43. Title                                    : English
  44. Language                                 : English
  45. Service kind                             : Complete Main
  46. Default                                  : Yes
  47. Alternate group                          : 1
  48. Tagged date                              : UTC 2022-06-22 18:37:04
  49. Text #1
  50. ID                                       : 3
  51. Format                                   : Timed Text
  52. Codec ID                                 : tx3g
  53. Duration                                 : 2 h 54 min
  54. Bit rate mode                            : Variable
  55. Bit rate                                 : 35 b/s
  56. Stream size                              : 44.9 KiB (0%)
  57. Title                                    : English
  58. Language                                 : English
  59. Forced                                   : No
  60. Encoded date                             : UTC 2022-06-22 18:37:01
  61. Tagged date                              : UTC 2022-06-22 18:37:04
  62. Text #2
  63. ID                                       : 4
  64. Format                                   : Timed Text
  65. Codec ID                                 : tx3g
  66. Duration                                 : 2 h 54 min
  67. Bit rate mode                            : Variable
  68. Bit rate                                 : 17 b/s
  69. Stream size                              : 22.2 KiB (0%)
  70. Title                                    : Chinese-Simplified
  71. Language                                 : Chinese
  72. Forced                                   : No
  73. Encoded date                             : UTC 2022-06-22 18:37:02
  74. Tagged date                              : UTC 2022-06-22 18:37:04
  75. Text #3
  76. ID                                       : 5
  77. Format                                   : Timed Text
  78. Codec ID                                 : tx3g
  79. Duration                                 : 2 h 54 min
  80. Bit rate mode                            : Variable
  81. Bit rate                                 : 17 b/s
  82. Stream size                              : 22.2 KiB (0%)
  83. Title                                    : Chinese-Traditional
  84. Language                                 : Chinese
  85. Forced                                   : No
  86. Encoded date                             : UTC 2022-06-22 18:37:02
  87. Tagged date                              : UTC 2022-06-22 18:37:04
  88. Text #4
  89. ID                                       : 6
  90. Format                                   : Timed Text
  91. Codec ID                                 : tx3g
  92. Duration                                 : 2 h 54 min
  93. Bit rate mode                            : Variable
  94. Bit rate                                 : 18 b/s
  95. Stream size                              : 23.5 KiB (0%)
  96. Title                                    : Dutch
  97. Language                                 : Dutch
  98. Forced                                   : No
  99. Encoded date                             : UTC 2022-06-22 18:37:02
  100. Tagged date                              : UTC 2022-06-22 18:37:04
  101. Text #5
  102. ID                                       : 7
  103. Format                                   : Timed Text
  104. Codec ID                                 : tx3g
  105. Duration                                 : 2 h 54 min
  106. Bit rate mode                            : Variable
  107. Bit rate                                 : 26 b/s
  108. Stream size                              : 32.7 KiB (0%)
  109. Title                                    : French
  110. Language                                 : French
  111. Forced                                   : No
  112. Encoded date                             : UTC 2022-06-22 18:37:03
  113. Tagged date                              : UTC 2022-06-22 18:37:04
  114. Text #6
  115. ID                                       : 8
  116. Format                                   : Timed Text
  117. Codec ID                                 : tx3g
  118. Duration                                 : 2 h 54 min
  119. Bit rate mode                            : Variable
  120. Bit rate                                 : 27 b/s
  121. Stream size                              : 34.4 KiB (0%)
  122. Title                                    : French
  123. Language                                 : French
  124. Forced                                   : No
  125. Encoded date                             : UTC 2022-06-22 18:37:03
  126. Tagged date                              : UTC 2022-06-22 18:37:04
  127. Text #7
  128. ID                                       : 9
  129. Format                                   : Timed Text
  130. Codec ID                                 : tx3g
  131. Duration                                 : 2 h 54 min
  132. Bit rate mode                            : Variable
  133. Bit rate                                 : 27 b/s
  134. Stream size                              : 34.0 KiB (0%)
  135. Title                                    : German
  136. Language                                 : German
  137. Forced                                   : No
  138. Encoded date                             : UTC 2022-06-22 18:37:03
  139. Tagged date                              : UTC 2022-06-22 18:37:04
  140. Text #8
  141. ID                                       : 10
  142. Format                                   : Timed Text
  143. Codec ID                                 : tx3g
  144. Duration                                 : 2 h 54 min
  145. Bit rate mode                            : Variable
  146. Bit rate                                 : 25 b/s
  147. Stream size                              : 32.4 KiB (0%)
  148. Title                                    : Hungarian
  149. Language                                 : Hungarian
  150. Forced                                   : No
  151. Encoded date                             : UTC 2022-06-22 18:37:03
  152. Tagged date                              : UTC 2022-06-22 18:37:04
  153. Text #9
  154. ID                                       : 11
  155. Format                                   : Timed Text
  156. Codec ID                                 : tx3g
  157. Duration                                 : 2 h 54 min
  158. Bit rate mode                            : Variable
  159. Bit rate                                 : 26 b/s
  160. Stream size                              : 33.0 KiB (0%)
  161. Title                                    : Italian
  162. Language                                 : Italian
  163. Forced                                   : No
  164. Encoded date                             : UTC 2022-06-22 18:37:03
  165. Tagged date                              : UTC 2022-06-22 18:37:04
  166. Text #10
  167. ID                                       : 12
  168. Format                                   : Timed Text
  169. Codec ID                                 : tx3g
  170. Duration                                 : 2 h 54 min
  171. Bit rate mode                            : Variable
  172. Bit rate                                 : 18 b/s
  173. Stream size                              : 23.5 KiB (0%)
  174. Title                                    : Japanese
  175. Language                                 : Japanese
  176. Forced                                   : No
  177. Encoded date                             : UTC 2022-06-22 18:37:03
  178. Tagged date                              : UTC 2022-06-22 18:37:04
  179. Text #11
  180. ID                                       : 13
  181. Format                                   : Timed Text
  182. Codec ID                                 : tx3g
  183. Duration                                 : 2 h 54 min
  184. Bit rate mode                            : Variable
  185. Bit rate                                 : 20 b/s
  186. Stream size                              : 25.4 KiB (0%)
  187. Title                                    : Korean
  188. Language                                 : Korean
  189. Forced                                   : No
  190. Encoded date                             : UTC 2022-06-22 18:37:03
  191. Tagged date                              : UTC 2022-06-22 18:37:04
  192. Text #12
  193. ID                                       : 14
  194. Format                                   : Timed Text
  195. Codec ID                                 : tx3g
  196. Duration                                 : 2 h 54 min
  197. Bit rate mode                            : Variable
  198. Bit rate                                 : 24 b/s
  199. Stream size                              : 30.9 KiB (0%)
  200. Title                                    : Polish
  201. Language                                 : Polish
  202. Forced                                   : No
  203. Encoded date                             : UTC 2022-06-22 18:37:03
  204. Tagged date                              : UTC 2022-06-22 18:37:04
  205. Text #13
  206. ID                                       : 15
  207. Format                                   : Timed Text
  208. Codec ID                                 : tx3g
  209. Duration                                 : 2 h 54 min
  210. Bit rate mode                            : Variable
  211. Bit rate                                 : 26 b/s
  212. Stream size                              : 32.7 KiB (0%)
  213. Title                                    : Portuguese
  214. Language                                 : Portuguese
  215. Forced                                   : No
  216. Encoded date                             : UTC 2022-06-22 18:37:03
  217. Tagged date                              : UTC 2022-06-22 18:37:04
  218. Text #14
  219. ID                                       : 16
  220. Format                                   : Timed Text
  221. Codec ID                                 : tx3g
  222. Duration                                 : 2 h 54 min
  223. Bit rate mode                            : Variable
  224. Bit rate                                 : 26 b/s
  225. Stream size                              : 33.1 KiB (0%)
  226. Title                                    : Romanian
  227. Language                                 : Romanian
  228. Forced                                   : No
  229. Encoded date                             : UTC 2022-06-22 18:37:03
  230. Tagged date                              : UTC 2022-06-22 18:37:04
  231. Text #15
  232. ID                                       : 17
  233. Format                                   : Timed Text
  234. Codec ID                                 : tx3g
  235. Duration                                 : 2 h 54 min
  236. Bit rate mode                            : Variable
  237. Bit rate                                 : 23 b/s
  238. Stream size                              : 29.7 KiB (0%)
  239. Title                                    : Slovak
  240. Language                                 : Slovak
  241. Forced                                   : No
  242. Encoded date                             : UTC 2022-06-22 18:37:04
  243. Tagged date                              : UTC 2022-06-22 18:37:04
  244. Text #16
  245. ID                                       : 18
  246. Format                                   : Timed Text
  247. Codec ID                                 : tx3g
  248. Duration                                 : 2 h 54 min
  249. Bit rate mode                            : Variable
  250. Bit rate                                 : 25 b/s
  251. Stream size                              : 32.4 KiB (0%)
  252. Title                                    : Spanish-EU
  253. Language                                 : Spanish
  254. Forced                                   : No
  255. Encoded date                             : UTC 2022-06-22 18:37:04
  256. Tagged date                              : UTC 2022-06-22 18:37:04
  257. Text #17
  258. ID                                       : 19
  259. Format                                   : Timed Text
  260. Codec ID                                 : tx3g
  261. Duration                                 : 2 h 54 min
  262. Bit rate mode                            : Variable
  263. Bit rate                                 : 26 b/s
  264. Stream size                              : 32.7 KiB (0%)
  265. Title                                    : Spanish-EU
  266. Language                                 : Spanish
  267. Forced                                   : No
  268. Encoded date                             : UTC 2022-06-22 18:37:04
  269. Tagged date                              : UTC 2022-06-22 18:37:04
  270. Text #18
  271. ID                                       : 20
  272. Format                                   : Timed Text
  273. Codec ID                                 : tx3g
  274. Duration                                 : 2 h 54 min
  275. Bit rate mode                            : Variable
  276. Bit rate                                 : 26 b/s
  277. Stream size                              : 32.7 KiB (0%)
  278. Title                                    : Turkish
  279. Language                                 : Turkish
  280. Forced                                   : No
  281. Encoded date                             : UTC 2022-06-22 18:37:04
  282. Tagged date                              : UTC 2022-06-22 18:37:04
复制代码





                                       
                                       

                                       
                                       
                                       




A.Hidden.Life.2019.2160p.WEB-DL.DD5.1.DV.MP4.x265-DVSUX.torrent (25 KB, 下载次数: 0)
回复

使用道具 举报

懒得打字嘛,点击右侧快捷回复 【右侧内容,后台自定义】
您需要登录后才可以回帖 登录 | 立即注册

本版积分规则

Archiver|手机版|小黑屋| 中国高清网 |网站地图 

GMT+8, 2022-6-29 15:30 , Processed in 0.121413 second(s), 26 queries .

Powered by HDchina X3.4

Copyright 2017-2019©HDchina.All right reserved

返回顶部 联系我们