查看: 57|回复: 1

[2160p] 奇异博士2:疯狂多元宇宙 Doctor.Strange.in.the.Multiverse.of.Madness.2022.IMAX.2160p.DSNP.WEB-DL.x265.10bit.HDR.DDP5.1.Atmos-CM 15.34GB

[复制链接]
蓝光币
14 枚
发表于 7 天前 | 显示全部楼层 |阅读模式


◎标  题 奇异博士2:疯狂多元宇宙
◎译  名 奇异博士2 / 斯特兰奇博士2 / 奇异博士2:失控多重宇宙(港 / 台) / 奇异博士2: 失控多元宇宙(港) / Doctor Strange 2 / Doctor Strange: in the Multiverse of Madness
◎片  名 Doctor Strange in the Multiverse of Madness
◎年  代 2022
◎产  地 美国
◎类  别 行动 / 可骇 / 奇异 / 冒险
◎语  言 英语
◎上映日期 2022-05-04(中国台湾) / 2022-05-06(美国)
◎IMDb评分 7.3/10 (192714人评价)
◎IMDb链接 https://www.imdb.com/title/tt9419884/
◎豆瓣链接 https://movie.douban.com/subject/30304994/
◎片  长 126分钟
◎导  演 山姆·雷米 Sam Raimi
◎编  剧 迈克尔·沃尔德伦 Michael Waldron
       杰德·哈雷·巴特利特 Jade Halley Bartlett  
       史蒂夫·迪特寇 Steve Ditko
       斯坦·李 Stan Lee
◎演  员 本尼迪克特·康伯巴奇 Benedict Cumberbatch
       伊丽莎白·奥尔森 Elizabeth Olsen
       切瓦特·埃加福 Chiwetel Ejiofor
       本尼迪克特·王 Benedict Wong
       克索斯利尔·戈麦斯 Xochitl Gomez
       瑞秋·麦克亚当斯 Rachel McAdams
       迈克尔·斯图巴 Michael Stuhlbarg
       帕特里克·斯图尔特 Patrick Stewart
       海莉·阿特维尔 Hayley Atwell
       约翰·卡拉辛斯基 John Krasinski
       拉什纳·林奇 Lashana Lynch
       安松·蒙特 Anson Mount
       查理兹·塞隆 Charlize Theron
       希拉·阿蒂姆 Sheila Atim
       亚当·赫吉尔 Adam Hugill
       亚子·米切尔 Ako Mitchell
       杨沫沫 Momo Yeung
       丹尼尔·斯温 Daniel Swain
       多波·雷斯尼怀罗 Topo Wresniwiro
       伊登·纳森森 Eden Nathenson
       维尼·莫利 Vinny Moli
       大卫·谢 David Tse
       乔丹·亚历桑德拉 Jordan Alexandra
       迈克尔·沃尔德伦 Michael Waldron
       朱利安·希威德 Julian Hilliard
       杰特·克莱恩 Jett Klyne
       布鲁斯·坎贝尔 Bruce Campbell
       马里安·洛伦西克 Marian Lorencik
       凯文·费奇 Kevin Feige
       丹尼·艾夫曼 Danny Elfman
       格雷厄姆·丘彻亚德 Graham Churchyard
◎简  介

  布满无穷未知的疯狂多元宇宙行将展开,一切皆有能够。
  1. Video
  2. ID                                       : 1
  3. Format                                   : HEVC
  4. Format/Info                              : High Efficiency Video Coding
  5. Format profile                           : Main [email protected]@High
  6. HDR format                               : SMPTE ST 2086, HDR10 compatible
  7. Codec ID                                 : V_MPEGH/ISO/HEVC
  8. Duration                                 : 2 h 6 min
  9. Bit rate                                 : 16.6 Mb/s
  10. Width                                    : 3 840 pixels
  11. Height                                   : 2 160 pixels
  12. Display aspect ratio                     : 16:9
  13. Frame rate mode                          : Constant
  14. Frame rate                               : 23.976 (24000/1001/189150) FPS
  15. Color space                              : YUV
  16. Chroma subsampling                       : 4:2:0
  17. Bit depth                                : 10 bits
  18. Bits/(Pixel*Frame)                       : 0.083
  19. Stream size                              : 14.7 GiB (96%)
  20. Language                                 : English
  21. Default                                  : Yes
  22. Forced                                   : No
  23. Color range                              : Limited
  24. Color primaries                          : BT.2020
  25. Transfer characteristics                 : PQ
  26. Matrix coefficients                      : BT.2020 non-constant
  27. Mastering display color primaries        : BT.2020
  28. Mastering display luminance              : min: 0.0000 cd/m2, max: 1000 cd/m2
  29. Audio
  30. ID                                       : 2
  31. Format                                   : E-AC-3 JOC
  32. Format/Info                              : Enhanced AC-3 with Joint Object Coding
  33. Commercial name                          : Dolby Digital Plus with Dolby Atmos
  34. Codec ID                                 : A_EAC3
  35. Duration                                 : 2 h 6 min
  36. Bit rate mode                            : Constant
  37. Bit rate                                 : 768 kb/s
  38. Channel(s)                               : 6 channels
  39. Channel layout                           : L R C LFE Ls Rs
  40. Sampling rate                            : 48.0 kHz
  41. Frame rate                               : 31.250 FPS (1536 SPF)
  42. Compression mode                         : Lossy
  43. Stream size                              : 695 MiB (4%)
  44. Language                                 : English
  45. Service kind                             : Complete Main
  46. Default                                  : Yes
  47. Forced                                   : No
  48. Complexity index                         : 16
  49. Number of dynamic objects                : 15
  50. Bed channel count                        : 1 channel
  51. Bed channel configuration                : LFE
  52. Text #1
  53. ID                                       : 3
  54. Format                                   : UTF-8
  55. Codec ID                                 : S_TEXT/UTF8
  56. Codec ID/Info                            : UTF-8 Plain Text
  57. Duration                                 : 25 min 8 s
  58. Bit rate                                 : 1 b/s
  59. Count of elements                        : 10
  60. Stream size                              : 265 Bytes (0%)
  61. Title                                    : Forced
  62. Language                                 : English
  63. Default                                  : Yes
  64. Forced                                   : Yes
  65. Text #2
  66. ID                                       : 4
  67. Format                                   : UTF-8
  68. Codec ID                                 : S_TEXT/UTF8
  69. Codec ID/Info                            : UTF-8 Plain Text
  70. Duration                                 : 2 h 5 min
  71. Bit rate                                 : 50 b/s
  72. Count of elements                        : 1906
  73. Stream size                              : 46.1 KiB (0%)
  74. Title                                    : SDH
  75. Language                                 : English
  76. Default                                  : No
  77. Forced                                   : No
  78. Text #3
  79. ID                                       : 5
  80. Format                                   : UTF-8
  81. Codec ID                                 : S_TEXT/UTF8
  82. Codec ID/Info                            : UTF-8 Plain Text
  83. Duration                                 : 2 h 5 min
  84. Bit rate                                 : 37 b/s
  85. Count of elements                        : 1322
  86. Stream size                              : 34.2 KiB (0%)
  87. Language                                 : English
  88. Default                                  : No
  89. Forced                                   : No
  90. Text #4
  91. ID                                       : 6
  92. Format                                   : UTF-8
  93. Codec ID                                 : S_TEXT/UTF8
  94. Codec ID/Info                            : UTF-8 Plain Text
  95. Duration                                 : 2 h 5 min
  96. Bit rate                                 : 35 b/s
  97. Count of elements                        : 1256
  98. Stream size                              : 32.1 KiB (0%)
  99. Language                                 : Czech
  100. Default                                  : No
  101. Forced                                   : No
  102. Text #5
  103. ID                                       : 7
  104. Format                                   : UTF-8
  105. Codec ID                                 : S_TEXT/UTF8
  106. Codec ID/Info                            : UTF-8 Plain Text
  107. Duration                                 : 2 h 5 min
  108. Bit rate                                 : 32 b/s
  109. Count of elements                        : 815
  110. Stream size                              : 29.5 KiB (0%)
  111. Language                                 : Danish
  112. Default                                  : No
  113. Forced                                   : No
  114. Text #6
  115. ID                                       : 8
  116. Format                                   : UTF-8
  117. Codec ID                                 : S_TEXT/UTF8
  118. Codec ID/Info                            : UTF-8 Plain Text
  119. Duration                                 : 2 h 5 min
  120. Bit rate                                 : 33 b/s
  121. Count of elements                        : 1150
  122. Stream size                              : 31.2 KiB (0%)
  123. Language                                 : German
  124. Default                                  : No
  125. Forced                                   : No
  126. Text #7
  127. ID                                       : 9
  128. Format                                   : UTF-8
  129. Codec ID                                 : S_TEXT/UTF8
  130. Codec ID/Info                            : UTF-8 Plain Text
  131. Duration                                 : 2 h 5 min
  132. Bit rate                                 : 44 b/s
  133. Count of elements                        : 1297
  134. Stream size                              : 41.3 KiB (0%)
  135. Title                                    : SDH
  136. Language                                 : German
  137. Default                                  : No
  138. Forced                                   : No
  139. Text #8
  140. ID                                       : 10
  141. Format                                   : UTF-8
  142. Codec ID                                 : S_TEXT/UTF8
  143. Codec ID/Info                            : UTF-8 Plain Text
  144. Duration                                 : 2 h 5 min
  145. Bit rate                                 : 62 b/s
  146. Count of elements                        : 1244
  147. Stream size                              : 57.1 KiB (0%)
  148. Language                                 : Greek
  149. Default                                  : No
  150. Forced                                   : No
  151. Text #9
  152. ID                                       : 11
  153. Format                                   : UTF-8
  154. Codec ID                                 : S_TEXT/UTF8
  155. Codec ID/Info                            : UTF-8 Plain Text
  156. Duration                                 : 2 h 5 min
  157. Bit rate                                 : 35 b/s
  158. Count of elements                        : 1248
  159. Stream size                              : 32.1 KiB (0%)
  160. Language                                 : Spanish
  161. Default                                  : No
  162. Forced                                   : No
  163. Text #10
  164. ID                                       : 12
  165. Format                                   : UTF-8
  166. Codec ID                                 : S_TEXT/UTF8
  167. Codec ID/Info                            : UTF-8 Plain Text
  168. Duration                                 : 2 h 5 min
  169. Bit rate                                 : 37 b/s
  170. Count of elements                        : 1252
  171. Stream size                              : 34.5 KiB (0%)
  172. Title                                    : Latin American
  173. Language                                 : Spanish
  174. Default                                  : No
  175. Forced                                   : No
  176. Text #11
  177. ID                                       : 13
  178. Format                                   : UTF-8
  179. Codec ID                                 : S_TEXT/UTF8
  180. Codec ID/Info                            : UTF-8 Plain Text
  181. Duration                                 : 2 h 6 min
  182. Bit rate                                 : 38 b/s
  183. Count of elements                        : 1195
  184. Stream size                              : 35.2 KiB (0%)
  185. Title                                    : Latin American SDH
  186. Language                                 : Spanish
  187. Default                                  : No
  188. Forced                                   : No
  189. Text #12
  190. ID                                       : 14
  191. Format                                   : UTF-8
  192. Codec ID                                 : S_TEXT/UTF8
  193. Codec ID/Info                            : UTF-8 Plain Text
  194. Duration                                 : 2 h 5 min
  195. Bit rate                                 : 37 b/s
  196. Count of elements                        : 1246
  197. Stream size                              : 34.1 KiB (0%)
  198. Language                                 : Finnish
  199. Default                                  : No
  200. Forced                                   : No
  201. Text #13
  202. ID                                       : 15
  203. Format                                   : UTF-8
  204. Codec ID                                 : S_TEXT/UTF8
  205. Codec ID/Info                            : UTF-8 Plain Text
  206. Duration                                 : 2 h 5 min
  207. Bit rate                                 : 33 b/s
  208. Count of elements                        : 1165
  209. Stream size                              : 30.7 KiB (0%)
  210. Language                                 : French
  211. Default                                  : No
  212. Forced                                   : No
  213. Text #14
  214. ID                                       : 16
  215. Format                                   : UTF-8
  216. Codec ID                                 : S_TEXT/UTF8
  217. Codec ID/Info                            : UTF-8 Plain Text
  218. Duration                                 : 2 h 6 min
  219. Bit rate                                 : 42 b/s
  220. Count of elements                        : 1460
  221. Stream size                              : 39.6 KiB (0%)
  222. Title                                    : SDH
  223. Language                                 : French
  224. Default                                  : No
  225. Forced                                   : No
  226. Text #15
  227. ID                                       : 17
  228. Format                                   : UTF-8
  229. Codec ID                                 : S_TEXT/UTF8
  230. Codec ID/Info                            : UTF-8 Plain Text
  231. Duration                                 : 2 h 5 min
  232. Bit rate                                 : 40 b/s
  233. Count of elements                        : 1282
  234. Stream size                              : 37.0 KiB (0%)
  235. Title                                    : Canadian
  236. Language                                 : French
  237. Default                                  : No
  238. Forced                                   : No
  239. Text #16
  240. ID                                       : 18
  241. Format                                   : UTF-8
  242. Codec ID                                 : S_TEXT/UTF8
  243. Codec ID/Info                            : UTF-8 Plain Text
  244. Duration                                 : 2 h 5 min
  245. Bit rate                                 : 57 b/s
  246. Count of elements                        : 1957
  247. Stream size                              : 53.0 KiB (0%)
  248. Title                                    : Canadian SDH
  249. Language                                 : French
  250. Default                                  : No
  251. Forced                                   : No
  252. Text #17
  253. ID                                       : 19
  254. Format                                   : UTF-8
  255. Codec ID                                 : S_TEXT/UTF8
  256. Codec ID/Info                            : UTF-8 Plain Text
  257. Duration                                 : 2 h 5 min
  258. Bit rate                                 : 33 b/s
  259. Count of elements                        : 1256
  260. Stream size                              : 30.6 KiB (0%)
  261. Language                                 : Hungarian
  262. Default                                  : No
  263. Forced                                   : No
  264. Text #18
  265. ID                                       : 20
  266. Format                                   : UTF-8
  267. Codec ID                                 : S_TEXT/UTF8
  268. Codec ID/Info                            : UTF-8 Plain Text
  269. Duration                                 : 2 h 5 min
  270. Bit rate                                 : 36 b/s
  271. Count of elements                        : 1258
  272. Stream size                              : 33.9 KiB (0%)
  273. Language                                 : Icelandic
  274. Default                                  : No
  275. Forced                                   : No
  276. Text #19
  277. ID                                       : 21
  278. Format                                   : UTF-8
  279. Codec ID                                 : S_TEXT/UTF8
  280. Codec ID/Info                            : UTF-8 Plain Text
  281. Duration                                 : 2 h 5 min
  282. Bit rate                                 : 38 b/s
  283. Count of elements                        : 1260
  284. Stream size                              : 35.3 KiB (0%)
  285. Language                                 : Italian
  286. Default                                  : No
  287. Forced                                   : No
  288. Text #20
  289. ID                                       : 22
  290. Format                                   : UTF-8
  291. Codec ID                                 : S_TEXT/UTF8
  292. Codec ID/Info                            : UTF-8 Plain Text
  293. Duration                                 : 2 h 5 min
  294. Bit rate                                 : 31 b/s
  295. Count of elements                        : 1177
  296. Stream size                              : 29.1 KiB (0%)
  297. Language                                 : Japanese
  298. Default                                  : No
  299. Forced                                   : No
  300. Text #21
  301. ID                                       : 23
  302. Format                                   : UTF-8
  303. Codec ID                                 : S_TEXT/UTF8
  304. Codec ID/Info                            : UTF-8 Plain Text
  305. Duration                                 : 2 h 5 min
  306. Bit rate                                 : 38 b/s
  307. Count of elements                        : 1255
  308. Stream size                              : 35.0 KiB (0%)
  309. Language                                 : Korean
  310. Default                                  : No
  311. Forced                                   : No
  312. Text #22
  313. ID                                       : 24
  314. Format                                   : UTF-8
  315. Codec ID                                 : S_TEXT/UTF8
  316. Codec ID/Info                            : UTF-8 Plain Text
  317. Duration                                 : 2 h 5 min
  318. Bit rate                                 : 35 b/s
  319. Count of elements                        : 1011
  320. Stream size                              : 32.8 KiB (0%)
  321. Language                                 : Dutch
  322. Default                                  : No
  323. Forced                                   : No
  324. Text #23
  325. ID                                       : 25
  326. Format                                   : UTF-8
  327. Codec ID                                 : S_TEXT/UTF8
  328. Codec ID/Info                            : UTF-8 Plain Text
  329. Duration                                 : 2 h 5 min
  330. Bit rate                                 : 33 b/s
  331. Count of elements                        : 1261
  332. Stream size                              : 31.1 KiB (0%)
  333. Language                                 : Norwegian
  334. Default                                  : No
  335. Forced                                   : No
  336. Text #24
  337. ID                                       : 26
  338. Format                                   : UTF-8
  339. Codec ID                                 : S_TEXT/UTF8
  340. Codec ID/Info                            : UTF-8 Plain Text
  341. Duration                                 : 2 h 5 min
  342. Bit rate                                 : 30 b/s
  343. Count of elements                        : 1249
  344. Stream size                              : 27.8 KiB (0%)
  345. Language                                 : Polish
  346. Default                                  : No
  347. Forced                                   : No
  348. Text #25
  349. ID                                       : 27
  350. Format                                   : UTF-8
  351. Codec ID                                 : S_TEXT/UTF8
  352. Codec ID/Info                            : UTF-8 Plain Text
  353. Duration                                 : 2 h 6 min
  354. Bit rate                                 : 36 b/s
  355. Count of elements                        : 1246
  356. Stream size                              : 33.8 KiB (0%)
  357. Language                                 : Portuguese
  358. Default                                  : No
  359. Forced                                   : No
  360. Text #26
  361. ID                                       : 28
  362. Format                                   : UTF-8
  363. Codec ID                                 : S_TEXT/UTF8
  364. Codec ID/Info                            : UTF-8 Plain Text
  365. Duration                                 : 2 h 5 min
  366. Bit rate                                 : 36 b/s
  367. Count of elements                        : 1253
  368. Stream size                              : 33.5 KiB (0%)
  369. Title                                    : Brazilian
  370. Language                                 : Portuguese
  371. Default                                  : No
  372. Forced                                   : No
  373. Text #27
  374. ID                                       : 29
  375. Format                                   : UTF-8
  376. Codec ID                                 : S_TEXT/UTF8
  377. Codec ID/Info                            : UTF-8 Plain Text
  378. Duration                                 : 2 h 6 min
  379. Bit rate                                 : 47 b/s
  380. Count of elements                        : 1621
  381. Stream size                              : 43.8 KiB (0%)
  382. Title                                    : Brazilian SDH
  383. Language                                 : Portuguese
  384. Default                                  : No
  385. Forced                                   : No
  386. Text #28
  387. ID                                       : 30
  388. Format                                   : UTF-8
  389. Codec ID                                 : S_TEXT/UTF8
  390. Codec ID/Info                            : UTF-8 Plain Text
  391. Duration                                 : 2 h 5 min
  392. Bit rate                                 : 38 b/s
  393. Count of elements                        : 1197
  394. Stream size                              : 35.0 KiB (0%)
  395. Language                                 : Romanian
  396. Default                                  : No
  397. Forced                                   : No
  398. Text #29
  399. ID                                       : 31
  400. Format                                   : UTF-8
  401. Codec ID                                 : S_TEXT/UTF8
  402. Codec ID/Info                            : UTF-8 Plain Text
  403. Duration                                 : 2 h 5 min
  404. Bit rate                                 : 32 b/s
  405. Count of elements                        : 1257
  406. Stream size                              : 29.4 KiB (0%)
  407. Language                                 : Slovak
  408. Default                                  : No
  409. Forced                                   : No
  410. Text #30
  411. ID                                       : 32
  412. Format                                   : UTF-8
  413. Codec ID                                 : S_TEXT/UTF8
  414. Codec ID/Info                            : UTF-8 Plain Text
  415. Duration                                 : 2 h 5 min
  416. Bit rate                                 : 35 b/s
  417. Count of elements                        : 949
  418. Stream size                              : 32.3 KiB (0%)
  419. Language                                 : Swedish
  420. Default                                  : No
  421. Forced                                   : No
  422. Text #31
  423. ID                                       : 33
  424. Format                                   : UTF-8
  425. Codec ID                                 : S_TEXT/UTF8
  426. Codec ID/Info                            : UTF-8 Plain Text
  427. Duration                                 : 2 h 5 min
  428. Bit rate                                 : 36 b/s
  429. Count of elements                        : 1254
  430. Stream size                              : 33.4 KiB (0%)
  431. Language                                 : Turkish
  432. Default                                  : No
  433. Forced                                   : No
  434. Text #32
  435. ID                                       : 34
  436. Format                                   : UTF-8
  437. Codec ID                                 : S_TEXT/UTF8
  438. Codec ID/Info                            : UTF-8 Plain Text
  439. Duration                                 : 2 h 5 min
  440. Bit rate                                 : 30 b/s
  441. Count of elements                        : 1259
  442. Stream size                              : 27.9 KiB (0%)
  443. Title                                    : Hong Kong
  444. Language                                 : Chinese
  445. Default                                  : No
  446. Forced                                   : No
  447. Text #33
  448. ID                                       : 35
  449. Format                                   : UTF-8
  450. Codec ID                                 : S_TEXT/UTF8
  451. Codec ID/Info                            : UTF-8 Plain Text
  452. Duration                                 : 2 h 5 min
  453. Bit rate                                 : 34 b/s
  454. Count of elements                        : 1261
  455. Stream size                              : 31.3 KiB (0%)
  456. Title                                    : Simplified
  457. Language                                 : Chinese
  458. Default                                  : No
  459. Forced                                   : No
  460. Text #34
  461. ID                                       : 36
  462. Format                                   : UTF-8
  463. Codec ID                                 : S_TEXT/UTF8
  464. Codec ID/Info                            : UTF-8 Plain Text
  465. Duration                                 : 2 h 5 min
  466. Bit rate                                 : 30 b/s
  467. Count of elements                        : 1273
  468. Stream size                              : 27.7 KiB (0%)
  469. Title                                    : Traditional
  470. Language                                 : Chinese
  471. Default                                  : No
  472. Forced                                   : No
  473. Menu
  474. 01:59:27.417                             : Credits
复制代码




                                       
                                       

                                       
                                       
                                       




奇异博士2:疯狂多元宇宙 Doctor.Strange.in.the.Multiverse.of.Madness.2022.IMAX.2160p.DSNP.WEB-DL.x265.10bit.HDR.DDP5.1.Atmos-CM 15.34GB

Doctor.Strange.in.the.Multiverse.of.Madness.2022.IMAX.2160p.DSNP.WEB-DL.x265.10b.torrent

19.89 KB, 下载次数: 19

回复

使用道具 举报

蓝光币
0 枚
QQ
发表于 6 天前 | 显示全部楼层

Q   10 5 2 2 2 3323 售  站~~街   会~~所  学  妹  各   种    类  型   资  料

Q   10 5 2 2 2 3323 售  站~~街   会~~所  学  妹  各   种    类  型   资  料

Q   10 5 2 2 2 3323 售  站~~街   会~~所  学  妹  各   种    类  型   资  料

Q   10 5 2 2 2 3323 售  站~~街   会~~所  学  妹  各   种    类  型   资  料
回复

使用道具 举报

懒得打字嘛,点击右侧快捷回复 【右侧内容,后台自定义】
您需要登录后才可以回帖 登录 | 立即注册

本版积分规则

Archiver|手机版|小黑屋| 中国高清网 |网站地图 

GMT+8, 2022-6-29 15:51 , Processed in 0.132868 second(s), 27 queries .

Powered by HDchina X3.4

Copyright 2017-2019©HDchina.All right reserved

返回顶部 联系我们