查看: 37|回复: 1

[2160p] 奇异博士2:疯狂多元宇宙 Doctor.Strange.in.the.Multiverse.of.Madness.2022.IMAX.2160p.DSNP.WEB-DL.DDP5.1.Atmos.DV.MP4.x265-DVSUX 15.43GB

[复制链接]
蓝光币
14 枚
发表于 7 天前 | 显示全部楼层 |阅读模式


◎标  题 奇异博士2:疯狂多元宇宙
◎译  名 奇异博士2 / 斯特兰奇博士2 / 奇异博士2:失控多重宇宙(港 / 台) / 奇异博士2: 失控多元宇宙(港) / Doctor Strange 2 / Doctor Strange: in the Multiverse of Madness
◎片  名 Doctor Strange in the Multiverse of Madness
◎年  代 2022
◎产  地 美国
◎类  别 行动 / 可骇 / 奇异 / 冒险
◎语  言 英语
◎上映日期 2022-05-04(中国台湾) / 2022-05-06(美国)
◎IMDb评分 7.3/10 (192714人评价)
◎IMDb链接 https://www.imdb.com/title/tt9419884/
◎豆瓣链接 https://movie.douban.com/subject/30304994/
◎片  长 126分钟
◎导  演 山姆·雷米 Sam Raimi
◎编  剧 迈克尔·沃尔德伦 Michael Waldron
       杰德·哈雷·巴特利特 Jade Halley Bartlett  
       史蒂夫·迪特寇 Steve Ditko
       斯坦·李 Stan Lee
◎演  员 本尼迪克特·康伯巴奇 Benedict Cumberbatch
       伊丽莎白·奥尔森 Elizabeth Olsen
       切瓦特·埃加福 Chiwetel Ejiofor
       本尼迪克特·王 Benedict Wong
       克索斯利尔·戈麦斯 Xochitl Gomez
       瑞秋·麦克亚当斯 Rachel McAdams
       迈克尔·斯图巴 Michael Stuhlbarg
       帕特里克·斯图尔特 Patrick Stewart
       海莉·阿特维尔 Hayley Atwell
       约翰·卡拉辛斯基 John Krasinski
       拉什纳·林奇 Lashana Lynch
       安松·蒙特 Anson Mount
       查理兹·塞隆 Charlize Theron
       希拉·阿蒂姆 Sheila Atim
       亚当·赫吉尔 Adam Hugill
       亚子·米切尔 Ako Mitchell
       杨沫沫 Momo Yeung
       丹尼尔·斯温 Daniel Swain
       多波·雷斯尼怀罗 Topo Wresniwiro
       伊登·纳森森 Eden Nathenson
       维尼·莫利 Vinny Moli
       大卫·谢 David Tse
       乔丹·亚历桑德拉 Jordan Alexandra
       迈克尔·沃尔德伦 Michael Waldron
       朱利安·希威德 Julian Hilliard
       杰特·克莱恩 Jett Klyne
       布鲁斯·坎贝尔 Bruce Campbell
       马里安·洛伦西克 Marian Lorencik
       凯文·费奇 Kevin Feige
       丹尼·艾夫曼 Danny Elfman
       格雷厄姆·丘彻亚德 Graham Churchyard
◎简  介

  布满无穷未知的疯狂多元宇宙行将展开,一切皆有能够。
  1. Video
  2. ID                                       : 1
  3. Format                                   : HEVC
  4. Format/Info                              : High Efficiency Video Coding
  5. Format profile                           : Main [email protected]@High
  6. HDR format                               : Dolby Vision, Version 1.0, dvhe.05.06, BL+RPU
  7. Codec ID                                 : dvhe
  8. Codec ID/Info                            : High Efficiency Video Coding with Dolby Vision
  9. Duration                                 : 2 h 6 min
  10. Bit rate                                 : 16.7 Mb/s
  11. Width                                    : 3 840 pixels
  12. Height                                   : 2 160 pixels
  13. Display aspect ratio                     : 16:9
  14. Frame rate mode                          : Constant
  15. Frame rate                               : 23.976 (24000/1001/189150) FPS
  16. Color space                              : YUV
  17. Chroma subsampling                       : 4:2:0
  18. Bit depth                                : 10 bits
  19. Bits/(Pixel*Frame)                       : 0.084
  20. Stream size                              : 14.7 GiB (96%)
  21. Default                                  : Yes
  22. Alternate group                          : 1
  23. Encoded date                             : UTC 2022-06-22 07:30:39
  24. Tagged date                              : UTC 2022-06-22 07:33:40
  25. Color range                              : Full
  26. Codec configuration box                  : hvcC+dvcC
  27. Audio
  28. ID                                       : 2
  29. Format                                   : E-AC-3 JOC
  30. Format/Info                              : Enhanced AC-3 with Joint Object Coding
  31. Commercial name                          : Dolby Digital Plus with Dolby Atmos
  32. Codec ID                                 : ec-3
  33. Duration                                 : 2 h 6 min
  34. Bit rate mode                            : Constant
  35. Bit rate                                 : 768 kb/s
  36. Maximum bit rate                         : 811 kb/s
  37. Channel(s)                               : 6 channels
  38. Channel layout                           : L R C LFE Ls Rs
  39. Sampling rate                            : 48.0 kHz
  40. Frame rate                               : 31.250 FPS (1536 SPF)
  41. Compression mode                         : Lossy
  42. Stream size                              : 695 MiB (4%)
  43. Title                                    : English
  44. Language                                 : English
  45. Service kind                             : Complete Main
  46. Default                                  : Yes
  47. Alternate group                          : 1
  48. Tagged date                              : UTC 2022-06-22 07:33:40
  49. Complexity index                         : Not present / 16
  50. Number of dynamic objects                : 15
  51. Bed channel count                        : 1 channel
  52. Bed channel configuration                : LFE
  53. Text #1
  54. ID                                       : 3
  55. Format                                   : Timed Text
  56. Codec ID                                 : tx3g
  57. Duration                                 : 2 h 6 min
  58. Bit rate mode                            : Variable
  59. Bit rate                                 : 57 b/s
  60. Stream size                              : 53.1 KiB (0%)
  61. Title                                    : English
  62. Language                                 : English
  63. Forced                                   : No
  64. Encoded date                             : UTC 2022-06-22 07:33:35
  65. Tagged date                              : UTC 2022-06-22 07:33:40
  66. Text #2
  67. ID                                       : 4
  68. Format                                   : Timed Text
  69. Codec ID                                 : tx3g
  70. Duration                                 : 2 h 6 min
  71. Bit rate mode                            : Variable
  72. Bit rate                                 : 42 b/s
  73. Stream size                              : 39.1 KiB (0%)
  74. Title                                    : English
  75. Language                                 : English
  76. Forced                                   : No
  77. Encoded date                             : UTC 2022-06-22 07:33:35
  78. Tagged date                              : UTC 2022-06-22 07:33:40
  79. Text #3
  80. ID                                       : 5
  81. Format                                   : Timed Text
  82. Codec ID                                 : tx3g
  83. Duration                                 : 26 min 12 s
  84. Bit rate mode                            : Variable
  85. Bit rate                                 : 2 b/s
  86. Stream size                              : 302 Bytes (0%)
  87. Title                                    : English
  88. Language                                 : English
  89. Forced                                   : No
  90. Encoded date                             : UTC 2022-06-22 07:33:35
  91. Tagged date                              : UTC 2022-06-22 07:33:40
  92. Text #4
  93. ID                                       : 6
  94. Format                                   : Timed Text
  95. Codec ID                                 : tx3g
  96. Duration                                 : 2 h 6 min
  97. Bit rate mode                            : Variable
  98. Bit rate                                 : 35 b/s
  99. Stream size                              : 32.8 KiB (0%)
  100. Title                                    : Chinese-Cantonese
  101. Language                                 : Chinese
  102. Forced                                   : No
  103. Encoded date                             : UTC 2022-06-22 07:33:35
  104. Tagged date                              : UTC 2022-06-22 07:33:40
  105. Text #5
  106. ID                                       : 7
  107. Format                                   : Timed Text
  108. Codec ID                                 : tx3g
  109. Duration                                 : 2 h 6 min
  110. Bit rate mode                            : Variable
  111. Bit rate                                 : 39 b/s
  112. Stream size                              : 36.2 KiB (0%)
  113. Title                                    : Chinese-Simplified
  114. Language                                 : Chinese
  115. Forced                                   : No
  116. Encoded date                             : UTC 2022-06-22 07:33:36
  117. Tagged date                              : UTC 2022-06-22 07:33:40
  118. Text #6
  119. ID                                       : 8
  120. Format                                   : Timed Text
  121. Codec ID                                 : tx3g
  122. Duration                                 : 2 h 6 min
  123. Bit rate mode                            : Variable
  124. Bit rate                                 : 35 b/s
  125. Stream size                              : 32.6 KiB (0%)
  126. Title                                    : Chinese-Traditional
  127. Language                                 : Chinese
  128. Forced                                   : No
  129. Encoded date                             : UTC 2022-06-22 07:33:36
  130. Tagged date                              : UTC 2022-06-22 07:33:40
  131. Text #7
  132. ID                                       : 9
  133. Format                                   : Timed Text
  134. Codec ID                                 : tx3g
  135. Duration                                 : 2 h 6 min
  136. Bit rate mode                            : Variable
  137. Bit rate                                 : 40 b/s
  138. Stream size                              : 36.9 KiB (0%)
  139. Title                                    : Czech
  140. Language                                 : Czech
  141. Forced                                   : No
  142. Encoded date                             : UTC 2022-06-22 07:33:36
  143. Tagged date                              : UTC 2022-06-22 07:33:40
  144. Text #8
  145. ID                                       : 10
  146. Format                                   : Timed Text
  147. Codec ID                                 : tx3g
  148. Duration                                 : 2 h 6 min
  149. Bit rate mode                            : Variable
  150. Bit rate                                 : 35 b/s
  151. Stream size                              : 32.3 KiB (0%)
  152. Title                                    : Danish
  153. Language                                 : Danish
  154. Forced                                   : No
  155. Encoded date                             : UTC 2022-06-22 07:33:36
  156. Tagged date                              : UTC 2022-06-22 07:33:40
  157. Text #9
  158. ID                                       : 11
  159. Format                                   : Timed Text
  160. Codec ID                                 : tx3g
  161. Duration                                 : 2 h 6 min
  162. Bit rate mode                            : Variable
  163. Bit rate                                 : 39 b/s
  164. Stream size                              : 36.3 KiB (0%)
  165. Title                                    : Dutch
  166. Language                                 : Dutch
  167. Forced                                   : No
  168. Encoded date                             : UTC 2022-06-22 07:33:36
  169. Tagged date                              : UTC 2022-06-22 07:33:40
  170. Text #10
  171. ID                                       : 12
  172. Format                                   : Timed Text
  173. Codec ID                                 : tx3g
  174. Duration                                 : 2 h 6 min
  175. Bit rate mode                            : Variable
  176. Bit rate                                 : 42 b/s
  177. Stream size                              : 38.8 KiB (0%)
  178. Title                                    : Finnish
  179. Language                                 : Finnish
  180. Forced                                   : No
  181. Encoded date                             : UTC 2022-06-22 07:33:37
  182. Tagged date                              : UTC 2022-06-22 07:33:40
  183. Text #11
  184. ID                                       : 13
  185. Format                                   : Timed Text
  186. Codec ID                                 : tx3g
  187. Duration                                 : 2 h 6 min
  188. Bit rate mode                            : Variable
  189. Bit rate                                 : 65 b/s
  190. Stream size                              : 60.3 KiB (0%)
  191. Title                                    : French
  192. Language                                 : French
  193. Forced                                   : No
  194. Encoded date                             : UTC 2022-06-22 07:33:37
  195. Tagged date                              : UTC 2022-06-22 07:33:40
  196. Text #12
  197. ID                                       : 14
  198. Format                                   : Timed Text
  199. Codec ID                                 : tx3g
  200. Duration                                 : 2 h 6 min
  201. Bit rate mode                            : Variable
  202. Bit rate                                 : 49 b/s
  203. Stream size                              : 45.0 KiB (0%)
  204. Title                                    : French
  205. Language                                 : French
  206. Forced                                   : No
  207. Encoded date                             : UTC 2022-06-22 07:33:37
  208. Tagged date                              : UTC 2022-06-22 07:33:40
  209. Text #13
  210. ID                                       : 15
  211. Format                                   : Timed Text
  212. Codec ID                                 : tx3g
  213. Duration                                 : 2 h 6 min
  214. Bit rate mode                            : Variable
  215. Bit rate                                 : 45 b/s
  216. Stream size                              : 41.6 KiB (0%)
  217. Title                                    : French
  218. Language                                 : French
  219. Forced                                   : No
  220. Encoded date                             : UTC 2022-06-22 07:33:37
  221. Tagged date                              : UTC 2022-06-22 07:33:40
  222. Text #14
  223. ID                                       : 16
  224. Format                                   : Timed Text
  225. Codec ID                                 : tx3g
  226. Duration                                 : 2 h 6 min
  227. Bit rate mode                            : Variable
  228. Bit rate                                 : 38 b/s
  229. Stream size                              : 35.0 KiB (0%)
  230. Title                                    : French
  231. Language                                 : French
  232. Forced                                   : No
  233. Encoded date                             : UTC 2022-06-22 07:33:37
  234. Tagged date                              : UTC 2022-06-22 07:33:40
  235. Text #15
  236. ID                                       : 17
  237. Format                                   : Timed Text
  238. Codec ID                                 : tx3g
  239. Duration                                 : 2 h 6 min
  240. Bit rate mode                            : Variable
  241. Bit rate                                 : 38 b/s
  242. Stream size                              : 35.4 KiB (0%)
  243. Title                                    : German
  244. Language                                 : German
  245. Forced                                   : No
  246. Encoded date                             : UTC 2022-06-22 07:33:38
  247. Tagged date                              : UTC 2022-06-22 07:33:40
  248. Text #16
  249. ID                                       : 18
  250. Format                                   : Timed Text
  251. Codec ID                                 : tx3g
  252. Duration                                 : 2 h 6 min
  253. Bit rate mode                            : Variable
  254. Bit rate                                 : 50 b/s
  255. Stream size                              : 45.9 KiB (0%)
  256. Title                                    : German
  257. Language                                 : German
  258. Forced                                   : No
  259. Encoded date                             : UTC 2022-06-22 07:33:38
  260. Tagged date                              : UTC 2022-06-22 07:33:40
  261. Text #17
  262. ID                                       : 19
  263. Format                                   : Timed Text
  264. Codec ID                                 : tx3g
  265. Duration                                 : 2 h 6 min
  266. Bit rate mode                            : Variable
  267. Bit rate                                 : 67 b/s
  268. Stream size                              : 61.8 KiB (0%)
  269. Title                                    : Greek
  270. Language                                 : Greek
  271. Forced                                   : No
  272. Encoded date                             : UTC 2022-06-22 07:33:38
  273. Tagged date                              : UTC 2022-06-22 07:33:40
  274. Text #18
  275. ID                                       : 20
  276. Format                                   : Timed Text
  277. Codec ID                                 : tx3g
  278. Duration                                 : 2 h 6 min
  279. Bit rate mode                            : Variable
  280. Bit rate                                 : 38 b/s
  281. Stream size                              : 35.3 KiB (0%)
  282. Title                                    : Hungarian
  283. Language                                 : Hungarian
  284. Forced                                   : No
  285. Encoded date                             : UTC 2022-06-22 07:33:38
  286. Tagged date                              : UTC 2022-06-22 07:33:40
  287. Text #19
  288. ID                                       : 21
  289. Format                                   : Timed Text
  290. Codec ID                                 : tx3g
  291. Duration                                 : 2 h 6 min
  292. Bit rate mode                            : Variable
  293. Bit rate                                 : 42 b/s
  294. Stream size                              : 38.5 KiB (0%)
  295. Title                                    : Icelandic
  296. Language                                 : Icelandic
  297. Forced                                   : No
  298. Encoded date                             : UTC 2022-06-22 07:33:38
  299. Tagged date                              : UTC 2022-06-22 07:33:40
  300. Text #20
  301. ID                                       : 22
  302. Format                                   : Timed Text
  303. Codec ID                                 : tx3g
  304. Duration                                 : 2 h 6 min
  305. Bit rate mode                            : Variable
  306. Bit rate                                 : 43 b/s
  307. Stream size                              : 40.0 KiB (0%)
  308. Title                                    : Italian
  309. Language                                 : Italian
  310. Forced                                   : No
  311. Encoded date                             : UTC 2022-06-22 07:33:38
  312. Tagged date                              : UTC 2022-06-22 07:33:40
  313. Text #21
  314. ID                                       : 23
  315. Format                                   : Timed Text
  316. Codec ID                                 : tx3g
  317. Duration                                 : 2 h 6 min
  318. Bit rate mode                            : Variable
  319. Bit rate                                 : 36 b/s
  320. Stream size                              : 33.5 KiB (0%)
  321. Title                                    : Japanese
  322. Language                                 : Japanese
  323. Forced                                   : No
  324. Encoded date                             : UTC 2022-06-22 07:33:38
  325. Tagged date                              : UTC 2022-06-22 07:33:40
  326. Text #22
  327. ID                                       : 24
  328. Format                                   : Timed Text
  329. Codec ID                                 : tx3g
  330. Duration                                 : 2 h 6 min
  331. Bit rate mode                            : Variable
  332. Bit rate                                 : 43 b/s
  333. Stream size                              : 39.4 KiB (0%)
  334. Title                                    : Korean
  335. Language                                 : Korean
  336. Forced                                   : No
  337. Encoded date                             : UTC 2022-06-22 07:33:38
  338. Tagged date                              : UTC 2022-06-22 07:33:40
  339. Text #23
  340. ID                                       : 25
  341. Format                                   : Timed Text
  342. Codec ID                                 : tx3g
  343. Duration                                 : 2 h 6 min
  344. Bit rate mode                            : Variable
  345. Bit rate                                 : 38 b/s
  346. Stream size                              : 35.6 KiB (0%)
  347. Title                                    : Norwegian
  348. Language                                 : Norwegian
  349. Forced                                   : No
  350. Encoded date                             : UTC 2022-06-22 07:33:38
  351. Tagged date                              : UTC 2022-06-22 07:33:40
  352. Text #24
  353. ID                                       : 26
  354. Format                                   : Timed Text
  355. Codec ID                                 : tx3g
  356. Duration                                 : 2 h 6 min
  357. Bit rate mode                            : Variable
  358. Bit rate                                 : 35 b/s
  359. Stream size                              : 32.6 KiB (0%)
  360. Title                                    : Polish
  361. Language                                 : Polish
  362. Forced                                   : No
  363. Encoded date                             : UTC 2022-06-22 07:33:39
  364. Tagged date                              : UTC 2022-06-22 07:33:40
  365. Text #25
  366. ID                                       : 27
  367. Format                                   : Timed Text
  368. Codec ID                                 : tx3g
  369. Duration                                 : 2 h 6 min
  370. Bit rate mode                            : Variable
  371. Bit rate                                 : 41 b/s
  372. Stream size                              : 38.0 KiB (0%)
  373. Title                                    : Portuguese
  374. Language                                 : Portuguese
  375. Forced                                   : No
  376. Encoded date                             : UTC 2022-06-22 07:33:39
  377. Tagged date                              : UTC 2022-06-22 07:33:40
  378. Text #26
  379. ID                                       : 28
  380. Format                                   : Timed Text
  381. Codec ID                                 : tx3g
  382. Duration                                 : 2 h 6 min
  383. Bit rate mode                            : Variable
  384. Bit rate                                 : 42 b/s
  385. Stream size                              : 38.4 KiB (0%)
  386. Title                                    : Portuguese
  387. Language                                 : Portuguese
  388. Forced                                   : No
  389. Encoded date                             : UTC 2022-06-22 07:33:39
  390. Tagged date                              : UTC 2022-06-22 07:33:40
  391. Text #27
  392. ID                                       : 29
  393. Format                                   : Timed Text
  394. Codec ID                                 : tx3g
  395. Duration                                 : 2 h 6 min
  396. Bit rate mode                            : Variable
  397. Bit rate                                 : 54 b/s
  398. Stream size                              : 49.5 KiB (0%)
  399. Title                                    : Portuguese
  400. Language                                 : Portuguese
  401. Forced                                   : No
  402. Encoded date                             : UTC 2022-06-22 07:33:39
  403. Tagged date                              : UTC 2022-06-22 07:33:40
  404. Text #28
  405. ID                                       : 30
  406. Format                                   : Timed Text
  407. Codec ID                                 : tx3g
  408. Duration                                 : 2 h 6 min
  409. Bit rate mode                            : Variable
  410. Bit rate                                 : 43 b/s
  411. Stream size                              : 39.3 KiB (0%)
  412. Title                                    : Romanian
  413. Language                                 : Romanian
  414. Forced                                   : No
  415. Encoded date                             : UTC 2022-06-22 07:33:39
  416. Tagged date                              : UTC 2022-06-22 07:33:40
  417. Text #29
  418. ID                                       : 31
  419. Format                                   : Timed Text
  420. Codec ID                                 : tx3g
  421. Duration                                 : 2 h 6 min
  422. Bit rate mode                            : Variable
  423. Bit rate                                 : 37 b/s
  424. Stream size                              : 34.2 KiB (0%)
  425. Title                                    : Slovak
  426. Language                                 : Slovak
  427. Forced                                   : No
  428. Encoded date                             : UTC 2022-06-22 07:33:40
  429. Tagged date                              : UTC 2022-06-22 07:33:40
  430. Text #30
  431. ID                                       : 32
  432. Format                                   : Timed Text
  433. Codec ID                                 : tx3g
  434. Duration                                 : 2 h 6 min
  435. Bit rate mode                            : Variable
  436. Bit rate                                 : 43 b/s
  437. Stream size                              : 39.6 KiB (0%)
  438. Title                                    : Spanish
  439. Language                                 : Spanish
  440. Forced                                   : No
  441. Encoded date                             : UTC 2022-06-22 07:33:40
  442. Tagged date                              : UTC 2022-06-22 07:33:40
  443. Text #31
  444. ID                                       : 33
  445. Format                                   : Timed Text
  446. Codec ID                                 : tx3g
  447. Duration                                 : 2 h 6 min
  448. Bit rate mode                            : Variable
  449. Bit rate                                 : 42 b/s
  450. Stream size                              : 39.1 KiB (0%)
  451. Title                                    : Spanish
  452. Language                                 : Spanish
  453. Forced                                   : No
  454. Encoded date                             : UTC 2022-06-22 07:33:40
  455. Tagged date                              : UTC 2022-06-22 07:33:40
  456. Text #32
  457. ID                                       : 34
  458. Format                                   : Timed Text
  459. Codec ID                                 : tx3g
  460. Duration                                 : 2 h 6 min
  461. Bit rate mode                            : Variable
  462. Bit rate                                 : 40 b/s
  463. Stream size                              : 36.8 KiB (0%)
  464. Title                                    : Spanish-EU
  465. Language                                 : Spanish
  466. Forced                                   : No
  467. Encoded date                             : UTC 2022-06-22 07:33:40
  468. Tagged date                              : UTC 2022-06-22 07:33:40
  469. Text #33
  470. ID                                       : 35
  471. Format                                   : Timed Text
  472. Codec ID                                 : tx3g
  473. Duration                                 : 2 h 6 min
  474. Bit rate mode                            : Variable
  475. Bit rate                                 : 39 b/s
  476. Stream size                              : 35.7 KiB (0%)
  477. Title                                    : Swedish
  478. Language                                 : Swedish
  479. Forced                                   : No
  480. Encoded date                             : UTC 2022-06-22 07:33:40
  481. Tagged date                              : UTC 2022-06-22 07:33:40
  482. Text #34
  483. ID                                       : 36
  484. Format                                   : Timed Text
  485. Codec ID                                 : tx3g
  486. Duration                                 : 2 h 6 min
  487. Bit rate mode                            : Variable
  488. Bit rate                                 : 41 b/s
  489. Stream size                              : 38.1 KiB (0%)
  490. Title                                    : Turkish
  491. Language                                 : Turkish
  492. Forced                                   : No
  493. Encoded date                             : UTC 2022-06-22 07:33:40
  494. Tagged date                              : UTC 2022-06-22 07:33:40
复制代码





                                       
                                       

                                       
                                       
                                       




奇异博士2:疯狂多元宇宙 Doctor.Strange.in.the.Multiverse.of.Madness.2022.IMAX.2160p.DSNP.WEB-DL.DDP5.1.Atmos.DV.MP4.x265-DVSUX 15.43GB

Doctor.Strange.in.the.Multiverse.of.Madness.2022.IMAX.2160p.DSNP.WEB-DL.DDP5.1.A.torrent

20.02 KB, 下载次数: 6

回复

使用道具 举报

蓝光币
0 枚
QQ
发表于 6 天前 | 显示全部楼层

Q   10 5 2 2 2 3323 售  站~~街   会~~所  学  妹  各   种    类  型   资  料

Q   10 5 2 2 2 3323 售  站~~街   会~~所  学  妹  各   种    类  型   资  料

Q   10 5 2 2 2 3323 售  站~~街   会~~所  学  妹  各   种    类  型   资  料

Q   10 5 2 2 2 3323 售  站~~街   会~~所  学  妹  各   种    类  型   资  料
回复

使用道具 举报

懒得打字嘛,点击右侧快捷回复 【右侧内容,后台自定义】
您需要登录后才可以回帖 登录 | 立即注册

本版积分规则

Archiver|手机版|小黑屋| 中国高清网 |网站地图 

GMT+8, 2022-6-29 15:32 , Processed in 0.143690 second(s), 27 queries .

Powered by HDchina X3.4

Copyright 2017-2019©HDchina.All right reserved

返回顶部 联系我们