查看: 83|回复: 2

[2160p] 奇异博士2:疯狂多元宇宙 Doctor.Strange.in.the.Multiverse.of.Madness.2022.IMAX.2160p.DSNP.WEB-DL.DDP5.1.Atmos.DV.MKV.x265-CM 15.43GB

[复制链接]
蓝光币
14 枚
发表于 7 天前 | 显示全部楼层 |阅读模式


◎标  题 奇异博士2:疯狂多元宇宙
◎译  名 奇异博士2 / 斯特兰奇博士2 / 奇异博士2:失控多重宇宙(港 / 台) / 奇异博士2: 失控多元宇宙(港) / Doctor Strange 2 / Doctor Strange: in the Multiverse of Madness
◎片  名 Doctor Strange in the Multiverse of Madness
◎年  代 2022
◎产  地 美国
◎类  别 行动 / 可骇 / 奇异 / 冒险
◎语  言 英语
◎上映日期 2022-05-04(中国台湾) / 2022-05-06(美国)
◎IMDb评分 7.3/10 (192714人评价)
◎IMDb链接 https://www.imdb.com/title/tt9419884/
◎豆瓣链接 https://movie.douban.com/subject/30304994/
◎片  长 126分钟
◎导  演 山姆·雷米 Sam Raimi
◎编  剧 迈克尔·沃尔德伦 Michael Waldron
       杰德·哈雷·巴特利特 Jade Halley Bartlett  
       史蒂夫·迪特寇 Steve Ditko
       斯坦·李 Stan Lee
◎演  员 本尼迪克特·康伯巴奇 Benedict Cumberbatch
       伊丽莎白·奥尔森 Elizabeth Olsen
       切瓦特·埃加福 Chiwetel Ejiofor
       本尼迪克特·王 Benedict Wong
       克索斯利尔·戈麦斯 Xochitl Gomez
       瑞秋·麦克亚当斯 Rachel McAdams
       迈克尔·斯图巴 Michael Stuhlbarg
       帕特里克·斯图尔特 Patrick Stewart
       海莉·阿特维尔 Hayley Atwell
       约翰·卡拉辛斯基 John Krasinski
       拉什纳·林奇 Lashana Lynch
       安松·蒙特 Anson Mount
       查理兹·塞隆 Charlize Theron
       希拉·阿蒂姆 Sheila Atim
       亚当·赫吉尔 Adam Hugill
       亚子·米切尔 Ako Mitchell
       杨沫沫 Momo Yeung
       丹尼尔·斯温 Daniel Swain
       多波·雷斯尼怀罗 Topo Wresniwiro
       伊登·纳森森 Eden Nathenson
       维尼·莫利 Vinny Moli
       大卫·谢 David Tse
       乔丹·亚历桑德拉 Jordan Alexandra
       迈克尔·沃尔德伦 Michael Waldron
       朱利安·希威德 Julian Hilliard
       杰特·克莱恩 Jett Klyne
       布鲁斯·坎贝尔 Bruce Campbell
       马里安·洛伦西克 Marian Lorencik
       凯文·费奇 Kevin Feige
       丹尼·艾夫曼 Danny Elfman
       格雷厄姆·丘彻亚德 Graham Churchyard
◎简  介

  布满无穷未知的疯狂多元宇宙行将展开,一切皆有能够。
  1. Video
  2. ID                                       : 1
  3. Format                                   : HEVC
  4. Format/Info                              : High Efficiency Video Coding
  5. Format profile                           : Main [email protected]@High
  6. HDR format                               : Dolby Vision, Version 1.0, dvhe.05.06, BL+RPU
  7. Codec ID                                 : V_MPEGH/ISO/HEVC
  8. Duration                                 : 2 h 6 min
  9. Bit rate                                 : 16.7 Mb/s
  10. Width                                    : 3 840 pixels
  11. Height                                   : 2 160 pixels
  12. Display aspect ratio                     : 16:9
  13. Frame rate mode                          : Constant
  14. Frame rate                               : 23.976 (24000/1001/189150) FPS
  15. Color space                              : YUV
  16. Chroma subsampling                       : 4:2:0
  17. Bit depth                                : 10 bits
  18. Bits/(Pixel*Frame)                       : 0.084
  19. Stream size                              : 14.7 GiB (96%)
  20. Language                                 : English
  21. Default                                  : Yes
  22. Forced                                   : No
  23. Color range                              : Full
  24. Audio
  25. ID                                       : 2
  26. Format                                   : E-AC-3 JOC
  27. Format/Info                              : Enhanced AC-3 with Joint Object Coding
  28. Commercial name                          : Dolby Digital Plus with Dolby Atmos
  29. Codec ID                                 : A_EAC3
  30. Duration                                 : 2 h 6 min
  31. Bit rate mode                            : Constant
  32. Bit rate                                 : 768 kb/s
  33. Channel(s)                               : 6 channels
  34. Channel layout                           : L R C LFE Ls Rs
  35. Sampling rate                            : 48.0 kHz
  36. Frame rate                               : 31.250 FPS (1536 SPF)
  37. Compression mode                         : Lossy
  38. Stream size                              : 695 MiB (4%)
  39. Language                                 : English
  40. Service kind                             : Complete Main
  41. Default                                  : Yes
  42. Forced                                   : No
  43. Complexity index                         : 16
  44. Number of dynamic objects                : 15
  45. Bed channel count                        : 1 channel
  46. Bed channel configuration                : LFE
  47. Text #1
  48. ID                                       : 3
  49. Format                                   : UTF-8
  50. Codec ID                                 : S_TEXT/UTF8
  51. Codec ID/Info                            : UTF-8 Plain Text
  52. Duration                                 : 25 min 8 s
  53. Bit rate                                 : 1 b/s
  54. Count of elements                        : 10
  55. Stream size                              : 265 Bytes (0%)
  56. Title                                    : Forced
  57. Language                                 : English
  58. Default                                  : Yes
  59. Forced                                   : Yes
  60. Text #2
  61. ID                                       : 4
  62. Format                                   : UTF-8
  63. Codec ID                                 : S_TEXT/UTF8
  64. Codec ID/Info                            : UTF-8 Plain Text
  65. Duration                                 : 2 h 5 min
  66. Bit rate                                 : 50 b/s
  67. Count of elements                        : 1906
  68. Stream size                              : 46.1 KiB (0%)
  69. Title                                    : SDH
  70. Language                                 : English
  71. Default                                  : No
  72. Forced                                   : No
  73. Text #3
  74. ID                                       : 5
  75. Format                                   : UTF-8
  76. Codec ID                                 : S_TEXT/UTF8
  77. Codec ID/Info                            : UTF-8 Plain Text
  78. Duration                                 : 2 h 5 min
  79. Bit rate                                 : 37 b/s
  80. Count of elements                        : 1322
  81. Stream size                              : 34.2 KiB (0%)
  82. Language                                 : English
  83. Default                                  : No
  84. Forced                                   : No
  85. Text #4
  86. ID                                       : 6
  87. Format                                   : UTF-8
  88. Codec ID                                 : S_TEXT/UTF8
  89. Codec ID/Info                            : UTF-8 Plain Text
  90. Duration                                 : 2 h 5 min
  91. Bit rate                                 : 35 b/s
  92. Count of elements                        : 1256
  93. Stream size                              : 32.1 KiB (0%)
  94. Language                                 : Czech
  95. Default                                  : No
  96. Forced                                   : No
  97. Text #5
  98. ID                                       : 7
  99. Format                                   : UTF-8
  100. Codec ID                                 : S_TEXT/UTF8
  101. Codec ID/Info                            : UTF-8 Plain Text
  102. Duration                                 : 2 h 5 min
  103. Bit rate                                 : 32 b/s
  104. Count of elements                        : 815
  105. Stream size                              : 29.5 KiB (0%)
  106. Language                                 : Danish
  107. Default                                  : No
  108. Forced                                   : No
  109. Text #6
  110. ID                                       : 8
  111. Format                                   : UTF-8
  112. Codec ID                                 : S_TEXT/UTF8
  113. Codec ID/Info                            : UTF-8 Plain Text
  114. Duration                                 : 2 h 5 min
  115. Bit rate                                 : 33 b/s
  116. Count of elements                        : 1150
  117. Stream size                              : 31.2 KiB (0%)
  118. Language                                 : German
  119. Default                                  : No
  120. Forced                                   : No
  121. Text #7
  122. ID                                       : 9
  123. Format                                   : UTF-8
  124. Codec ID                                 : S_TEXT/UTF8
  125. Codec ID/Info                            : UTF-8 Plain Text
  126. Duration                                 : 2 h 5 min
  127. Bit rate                                 : 44 b/s
  128. Count of elements                        : 1297
  129. Stream size                              : 41.3 KiB (0%)
  130. Title                                    : SDH
  131. Language                                 : German
  132. Default                                  : No
  133. Forced                                   : No
  134. Text #8
  135. ID                                       : 10
  136. Format                                   : UTF-8
  137. Codec ID                                 : S_TEXT/UTF8
  138. Codec ID/Info                            : UTF-8 Plain Text
  139. Duration                                 : 2 h 5 min
  140. Bit rate                                 : 62 b/s
  141. Count of elements                        : 1244
  142. Stream size                              : 57.1 KiB (0%)
  143. Language                                 : Greek
  144. Default                                  : No
  145. Forced                                   : No
  146. Text #9
  147. ID                                       : 11
  148. Format                                   : UTF-8
  149. Codec ID                                 : S_TEXT/UTF8
  150. Codec ID/Info                            : UTF-8 Plain Text
  151. Duration                                 : 2 h 5 min
  152. Bit rate                                 : 35 b/s
  153. Count of elements                        : 1248
  154. Stream size                              : 32.1 KiB (0%)
  155. Language                                 : Spanish
  156. Default                                  : No
  157. Forced                                   : No
  158. Text #10
  159. ID                                       : 12
  160. Format                                   : UTF-8
  161. Codec ID                                 : S_TEXT/UTF8
  162. Codec ID/Info                            : UTF-8 Plain Text
  163. Duration                                 : 2 h 5 min
  164. Bit rate                                 : 37 b/s
  165. Count of elements                        : 1252
  166. Stream size                              : 34.5 KiB (0%)
  167. Title                                    : Latin American
  168. Language                                 : Spanish
  169. Default                                  : No
  170. Forced                                   : No
  171. Text #11
  172. ID                                       : 13
  173. Format                                   : UTF-8
  174. Codec ID                                 : S_TEXT/UTF8
  175. Codec ID/Info                            : UTF-8 Plain Text
  176. Duration                                 : 2 h 6 min
  177. Bit rate                                 : 38 b/s
  178. Count of elements                        : 1195
  179. Stream size                              : 35.2 KiB (0%)
  180. Title                                    : Latin American SDH
  181. Language                                 : Spanish
  182. Default                                  : No
  183. Forced                                   : No
  184. Text #12
  185. ID                                       : 14
  186. Format                                   : UTF-8
  187. Codec ID                                 : S_TEXT/UTF8
  188. Codec ID/Info                            : UTF-8 Plain Text
  189. Duration                                 : 2 h 5 min
  190. Bit rate                                 : 37 b/s
  191. Count of elements                        : 1246
  192. Stream size                              : 34.1 KiB (0%)
  193. Language                                 : Finnish
  194. Default                                  : No
  195. Forced                                   : No
  196. Text #13
  197. ID                                       : 15
  198. Format                                   : UTF-8
  199. Codec ID                                 : S_TEXT/UTF8
  200. Codec ID/Info                            : UTF-8 Plain Text
  201. Duration                                 : 2 h 5 min
  202. Bit rate                                 : 33 b/s
  203. Count of elements                        : 1165
  204. Stream size                              : 30.7 KiB (0%)
  205. Language                                 : French
  206. Default                                  : No
  207. Forced                                   : No
  208. Text #14
  209. ID                                       : 16
  210. Format                                   : UTF-8
  211. Codec ID                                 : S_TEXT/UTF8
  212. Codec ID/Info                            : UTF-8 Plain Text
  213. Duration                                 : 2 h 6 min
  214. Bit rate                                 : 42 b/s
  215. Count of elements                        : 1460
  216. Stream size                              : 39.6 KiB (0%)
  217. Title                                    : SDH
  218. Language                                 : French
  219. Default                                  : No
  220. Forced                                   : No
  221. Text #15
  222. ID                                       : 17
  223. Format                                   : UTF-8
  224. Codec ID                                 : S_TEXT/UTF8
  225. Codec ID/Info                            : UTF-8 Plain Text
  226. Duration                                 : 2 h 5 min
  227. Bit rate                                 : 40 b/s
  228. Count of elements                        : 1282
  229. Stream size                              : 37.0 KiB (0%)
  230. Title                                    : Canadian
  231. Language                                 : French
  232. Default                                  : No
  233. Forced                                   : No
  234. Text #16
  235. ID                                       : 18
  236. Format                                   : UTF-8
  237. Codec ID                                 : S_TEXT/UTF8
  238. Codec ID/Info                            : UTF-8 Plain Text
  239. Duration                                 : 2 h 5 min
  240. Bit rate                                 : 57 b/s
  241. Count of elements                        : 1957
  242. Stream size                              : 53.0 KiB (0%)
  243. Title                                    : Canadian SDH
  244. Language                                 : French
  245. Default                                  : No
  246. Forced                                   : No
  247. Text #17
  248. ID                                       : 19
  249. Format                                   : UTF-8
  250. Codec ID                                 : S_TEXT/UTF8
  251. Codec ID/Info                            : UTF-8 Plain Text
  252. Duration                                 : 2 h 5 min
  253. Bit rate                                 : 33 b/s
  254. Count of elements                        : 1256
  255. Stream size                              : 30.6 KiB (0%)
  256. Language                                 : Hungarian
  257. Default                                  : No
  258. Forced                                   : No
  259. Text #18
  260. ID                                       : 20
  261. Format                                   : UTF-8
  262. Codec ID                                 : S_TEXT/UTF8
  263. Codec ID/Info                            : UTF-8 Plain Text
  264. Duration                                 : 2 h 5 min
  265. Bit rate                                 : 36 b/s
  266. Count of elements                        : 1258
  267. Stream size                              : 33.9 KiB (0%)
  268. Language                                 : Icelandic
  269. Default                                  : No
  270. Forced                                   : No
  271. Text #19
  272. ID                                       : 21
  273. Format                                   : UTF-8
  274. Codec ID                                 : S_TEXT/UTF8
  275. Codec ID/Info                            : UTF-8 Plain Text
  276. Duration                                 : 2 h 5 min
  277. Bit rate                                 : 38 b/s
  278. Count of elements                        : 1260
  279. Stream size                              : 35.3 KiB (0%)
  280. Language                                 : Italian
  281. Default                                  : No
  282. Forced                                   : No
  283. Text #20
  284. ID                                       : 22
  285. Format                                   : UTF-8
  286. Codec ID                                 : S_TEXT/UTF8
  287. Codec ID/Info                            : UTF-8 Plain Text
  288. Duration                                 : 2 h 5 min
  289. Bit rate                                 : 31 b/s
  290. Count of elements                        : 1177
  291. Stream size                              : 29.1 KiB (0%)
  292. Language                                 : Japanese
  293. Default                                  : No
  294. Forced                                   : No
  295. Text #21
  296. ID                                       : 23
  297. Format                                   : UTF-8
  298. Codec ID                                 : S_TEXT/UTF8
  299. Codec ID/Info                            : UTF-8 Plain Text
  300. Duration                                 : 2 h 5 min
  301. Bit rate                                 : 38 b/s
  302. Count of elements                        : 1255
  303. Stream size                              : 35.0 KiB (0%)
  304. Language                                 : Korean
  305. Default                                  : No
  306. Forced                                   : No
  307. Text #22
  308. ID                                       : 24
  309. Format                                   : UTF-8
  310. Codec ID                                 : S_TEXT/UTF8
  311. Codec ID/Info                            : UTF-8 Plain Text
  312. Duration                                 : 2 h 5 min
  313. Bit rate                                 : 35 b/s
  314. Count of elements                        : 1011
  315. Stream size                              : 32.8 KiB (0%)
  316. Language                                 : Dutch
  317. Default                                  : No
  318. Forced                                   : No
  319. Text #23
  320. ID                                       : 25
  321. Format                                   : UTF-8
  322. Codec ID                                 : S_TEXT/UTF8
  323. Codec ID/Info                            : UTF-8 Plain Text
  324. Duration                                 : 2 h 5 min
  325. Bit rate                                 : 33 b/s
  326. Count of elements                        : 1261
  327. Stream size                              : 31.1 KiB (0%)
  328. Language                                 : Norwegian
  329. Default                                  : No
  330. Forced                                   : No
  331. Text #24
  332. ID                                       : 26
  333. Format                                   : UTF-8
  334. Codec ID                                 : S_TEXT/UTF8
  335. Codec ID/Info                            : UTF-8 Plain Text
  336. Duration                                 : 2 h 5 min
  337. Bit rate                                 : 30 b/s
  338. Count of elements                        : 1249
  339. Stream size                              : 27.8 KiB (0%)
  340. Language                                 : Polish
  341. Default                                  : No
  342. Forced                                   : No
  343. Text #25
  344. ID                                       : 27
  345. Format                                   : UTF-8
  346. Codec ID                                 : S_TEXT/UTF8
  347. Codec ID/Info                            : UTF-8 Plain Text
  348. Duration                                 : 2 h 6 min
  349. Bit rate                                 : 36 b/s
  350. Count of elements                        : 1246
  351. Stream size                              : 33.8 KiB (0%)
  352. Language                                 : Portuguese
  353. Default                                  : No
  354. Forced                                   : No
  355. Text #26
  356. ID                                       : 28
  357. Format                                   : UTF-8
  358. Codec ID                                 : S_TEXT/UTF8
  359. Codec ID/Info                            : UTF-8 Plain Text
  360. Duration                                 : 2 h 5 min
  361. Bit rate                                 : 36 b/s
  362. Count of elements                        : 1253
  363. Stream size                              : 33.5 KiB (0%)
  364. Title                                    : Brazilian
  365. Language                                 : Portuguese
  366. Default                                  : No
  367. Forced                                   : No
  368. Text #27
  369. ID                                       : 29
  370. Format                                   : UTF-8
  371. Codec ID                                 : S_TEXT/UTF8
  372. Codec ID/Info                            : UTF-8 Plain Text
  373. Duration                                 : 2 h 6 min
  374. Bit rate                                 : 47 b/s
  375. Count of elements                        : 1621
  376. Stream size                              : 43.8 KiB (0%)
  377. Title                                    : Brazilian SDH
  378. Language                                 : Portuguese
  379. Default                                  : No
  380. Forced                                   : No
  381. Text #28
  382. ID                                       : 30
  383. Format                                   : UTF-8
  384. Codec ID                                 : S_TEXT/UTF8
  385. Codec ID/Info                            : UTF-8 Plain Text
  386. Duration                                 : 2 h 5 min
  387. Bit rate                                 : 38 b/s
  388. Count of elements                        : 1197
  389. Stream size                              : 35.0 KiB (0%)
  390. Language                                 : Romanian
  391. Default                                  : No
  392. Forced                                   : No
  393. Text #29
  394. ID                                       : 31
  395. Format                                   : UTF-8
  396. Codec ID                                 : S_TEXT/UTF8
  397. Codec ID/Info                            : UTF-8 Plain Text
  398. Duration                                 : 2 h 5 min
  399. Bit rate                                 : 32 b/s
  400. Count of elements                        : 1257
  401. Stream size                              : 29.4 KiB (0%)
  402. Language                                 : Slovak
  403. Default                                  : No
  404. Forced                                   : No
  405. Text #30
  406. ID                                       : 32
  407. Format                                   : UTF-8
  408. Codec ID                                 : S_TEXT/UTF8
  409. Codec ID/Info                            : UTF-8 Plain Text
  410. Duration                                 : 2 h 5 min
  411. Bit rate                                 : 35 b/s
  412. Count of elements                        : 949
  413. Stream size                              : 32.3 KiB (0%)
  414. Language                                 : Swedish
  415. Default                                  : No
  416. Forced                                   : No
  417. Text #31
  418. ID                                       : 33
  419. Format                                   : UTF-8
  420. Codec ID                                 : S_TEXT/UTF8
  421. Codec ID/Info                            : UTF-8 Plain Text
  422. Duration                                 : 2 h 5 min
  423. Bit rate                                 : 36 b/s
  424. Count of elements                        : 1254
  425. Stream size                              : 33.4 KiB (0%)
  426. Language                                 : Turkish
  427. Default                                  : No
  428. Forced                                   : No
  429. Text #32
  430. ID                                       : 34
  431. Format                                   : UTF-8
  432. Codec ID                                 : S_TEXT/UTF8
  433. Codec ID/Info                            : UTF-8 Plain Text
  434. Duration                                 : 2 h 5 min
  435. Bit rate                                 : 30 b/s
  436. Count of elements                        : 1259
  437. Stream size                              : 27.9 KiB (0%)
  438. Title                                    : Hong Kong
  439. Language                                 : Chinese
  440. Default                                  : No
  441. Forced                                   : No
  442. Text #33
  443. ID                                       : 35
  444. Format                                   : UTF-8
  445. Codec ID                                 : S_TEXT/UTF8
  446. Codec ID/Info                            : UTF-8 Plain Text
  447. Duration                                 : 2 h 5 min
  448. Bit rate                                 : 34 b/s
  449. Count of elements                        : 1261
  450. Stream size                              : 31.3 KiB (0%)
  451. Title                                    : Simplified
  452. Language                                 : Chinese
  453. Default                                  : No
  454. Forced                                   : No
  455. Text #34
  456. ID                                       : 36
  457. Format                                   : UTF-8
  458. Codec ID                                 : S_TEXT/UTF8
  459. Codec ID/Info                            : UTF-8 Plain Text
  460. Duration                                 : 2 h 5 min
  461. Bit rate                                 : 30 b/s
  462. Count of elements                        : 1273
  463. Stream size                              : 27.7 KiB (0%)
  464. Title                                    : Traditional
  465. Language                                 : Chinese
  466. Default                                  : No
  467. Forced                                   : No
  468. Menu
  469. 01:59:27.417                             : Credits
复制代码





                                       
                                       

                                       
                                       
                                       




奇异博士2:疯狂多元宇宙 Doctor.Strange.in.the.Multiverse.of.Madness.2022.IMAX.2160p.DSNP.WEB-DL.DDP5.1.Atmos.DV.MKV.x265-CM 15.43GB

Doctor.Strange.in.the.Multiverse.of.Madness.2022.IMAX.2160p.DSNP.WEB-DL.DDP5.1.A.torrent

20.01 KB, 下载次数: 19

回复

使用道具 举报

蓝光币
0 枚
QQ
发表于 6 天前 | 显示全部楼层

Q   10 5 2 2 2 3323 售  站~~街   会~~所  学  妹  各   种    类  型   资  料

Q   10 5 2 2 2 3323 售  站~~街   会~~所  学  妹  各   种    类  型   资  料

Q   10 5 2 2 2 3323 售  站~~街   会~~所  学  妹  各   种    类  型   资  料

Q   10 5 2 2 2 3323 售  站~~街   会~~所  学  妹  各   种    类  型   资  料
回复

使用道具 举报

蓝光币
102 枚
QQ
发表于 5 天前 | 显示全部楼层
美丽,今天晚上看
回复

使用道具 举报

懒得打字嘛,点击右侧快捷回复 【右侧内容,后台自定义】
您需要登录后才可以回帖 登录 | 立即注册

本版积分规则

Archiver|手机版|小黑屋| 中国高清网 |网站地图 

GMT+8, 2022-6-29 15:23 , Processed in 0.133086 second(s), 27 queries .

Powered by HDchina X3.4

Copyright 2017-2019©HDchina.All right reserved

返回顶部 联系我们