查看: 806|回复: 5

[8bit.SDR] 狼嚎/潜航核战 The.Wolfs.Call.2019.FRENCH.2160p.BluRay.x264.8bit.SDR.DTS-HD.MA.TrueHD.7.1.Atmos-SWTYBLZ 33.39GB

[复制链接]

已抛锚 成长值: 11955

级别:资源管理组

注册时间
2017-10-20
最后登录
2022-5-9
听众
1
收听
0
主题
108287
蓝光币
241495 枚
贡献
21715 点
发表于 2021-1-27 14:02:57 | 显示全部楼层 |阅读模式



译  名 狼嚎 / The Song of the Wolf / The Wolf's Call / 潜航核战(港) / 潜舰追缉(台) / 狼之歌
片  名 Le chant du loup
年  代 2019
产  地 法国
类  别 战争 / 灾难
语  言 法语
上映日期 2019-02-20(法国)
IMDb评分  6.9/10 from 11214 users
IMDb链接  https://www.imdb.com/title/tt7458762
豆瓣评分 7.2/10 from 6598 users
豆瓣链接 https://movie.douban.com/subject/27150283/
片  长 116分钟
导  演 阿贝尔·安扎克 Abel Lanzac
编  剧 阿贝尔·安扎克 Abel Lanzac
主  演 弗朗索瓦·西维尔 François Civil
       奥玛·希 Omar Sy
       马修·卡索维茨 Mathieu Kassovitz
       勒达·卡代布 Reda Kateb
       葆拉·贝尔 Paula Beer
       亚力克西斯·马沙利克 Alexis·Michalik
       让-伊夫·贝特鲁 Jean-Yves Berteloot
       达米安·勃纳尔 Damien Bonnard


标  签 战争 | 潜艇 | 法国 | 军事 | 2019 | 灾难 | 剧情 | 科幻

简  介  

  一个年轻人有一种罕有的礼物,可以识别他听到的每一个声音。在一艘法国核潜艇上,一切都依靠于他,金耳朵。
  看上去绝对牢靠,他犯了一个毛病,让船员处于灭亡的危险当中。他希望重新获得同道的信赖,但他的追求会让他们堕入加倍戏剧化的地步。
  在核威慑和毛病信息的天下中,他们发现自己被困在一个没法控制的装备中。

获奖情况  

  第45届法国凯撒电影奖(2020)
  最好童贞作(提名) Antonin Baudry
  最好音效
  最好布景(提名)
  1. Video
  2. ID                                       : 1
  3. Format                                   : AVC
  4. Format/Info                              : Advanced Video Codec
  5. Format profile                           : [email protected]
  6. Format settings                          : CABAC / 5 Ref Frames
  7. Format settings, CABAC                   : Yes
  8. Format settings, Reference frames        : 5 frames
  9. Codec ID                                 : V_MPEG4/ISO/AVC
  10. Duration                                 : 1 h 55 min
  11. Bit rate                                 : 32.6 Mb/s
  12. Width                                    : 3 840 pixels
  13. Height                                   : 1 608 pixels
  14. Display aspect ratio                     : 2.40:1
  15. Frame rate mode                          : Constant
  16. Frame rate                               : 23.976 (24000/1001/45775) FPS
  17. Color space                              : YUV
  18. Chroma subsampling                       : 4:2:0
  19. Bit depth                                : 8 bits
  20. Scan type                                : Progressive
  21. Bits/(Pixel*Frame)                       : 0.220
  22. Stream size                              : 26.4 GiB (79%)
  23. Writing liary                          : x264 core 157 r2935 545de2f
  24. Encoding settings                        : cabac=1 / ref=5 / deblock=1:-1:-1 / analyse=0x3:0x113 / me=umh / subme=10 / psy=1 / psy_rd=1.00:0.15 / mixed_ref=1 / me_range=48 / chroma_me=1 / trellis=2 / 8x8dct=1 / cqm=0 / deadzone=21,11 / fast_pskip=1 / chroma_qp_offset=-3 / threads=48 / lookahead_threads=4 / sliced_threads=0 / nr=0 / decimate=0 / interlaced=0 / NDU3NzU= / bluray_compat=0 / constrained_intra=0 / bframes=3 / b_pyramid=2 / b_adapt=2 / b_bias=0 / direct=3 / weightb=1 / open_gop=0 / weightp=2 / keyint=250 / keyint_min=23 / scenecut=40 / intra_refresh=0 / rc_lookahead=50 / rc=crf / mbtree=1 / crf=18.0 / qcomp=0.60 / qpmin=0 / qpmax=69 / qpstep=4 / NDU3NzU=feCb3SYgnbojFoo / ip_ratio=1.40 / aq=1:1.00
  25. Default                                  : Yes
  26. Forced                                   : No
  27. Audio #1
  28. ID                                       : 2
  29. ID in the original source medium         : 4352 (0x1100)
  30. Format                                   : MLP FBA 16-ch
  31. Format/Info                              : Meridian Lossless Packing FBA with 16-channel presentation
  32. Commercial name                          : Dolby TrueHD with Dolby Atmos
  33. Codec ID                                 : A_TRUEHD
  34. Duration                                 : 1 h 55 min
  35. Bit rate mode                            : Variable
  36. Bit rate                                 : 3 635 kb/s
  37. Maximum bit rate                         : 5 967 kb/s
  38. Channel(s)                               : 8 channels
  39. Channel layout                           : L R C LFE Ls Rs Lb Rb
  40. Sampling rate                            : 48.0 kHz
  41. Frame rate                               : 1 200.000 FPS (40 SPF)
  42. Compression mode                         : Lossless
  43. Stream size                              : 2.94 GiB (9%)
  44. Title                                    : TrueHD 7.1 Atmos
  45. Language                                 : French
  46. Default                                  : Yes
  47. Forced                                   : No
  48. Original source medium                   : Blu-ray
  49. Number of dynamic objects                : 11
  50. Bed channel count                        : 1 channel
  51. Bed channel configuration                : LFE
  52. Audio #2
  53. ID                                       : 3
  54. Format                                   : DTS XLL
  55. Format/Info                              : Digital Theater Systems
  56. Commercial name                          : DTS-HD Master Audio
  57. Codec ID                                 : A_DTS
  58. Duration                                 : 1 h 55 min
  59. Bit rate mode                            : Variable
  60. Bit rate                                 : 4 095 kb/s
  61. Channel(s)                               : 8 channels
  62. Channel layout                           : C L R LFE Lb Rb Lss Rss
  63. Sampling rate                            : 48.0 kHz
  64. Frame rate                               : 93.750 FPS (512 SPF)
  65. Bit depth                                : 24 bits
  66. Compression mode                         : Lossless
  67. Stream size                              : 3.32 GiB (10%)
  68. Title                                    : DTS-HD MA 7.1
  69. Language                                 : French
  70. Default                                  : No
  71. Forced                                   : No
  72. Audio #3
  73. ID                                       : 4
  74. ID in the original source medium         : 4352 (0x1100)
  75. Format                                   : AC-3
  76. Format/Info                              : Audio Coding 3
  77. Commercial name                          : Dolby Digital
  78. Codec ID                                 : A_AC3
  79. Duration                                 : 1 h 55 min
  80. Bit rate mode                            : Constant
  81. Bit rate                                 : 640 kb/s
  82. Channel(s)                               : 6 channels
  83. Channel layout                           : L R C LFE Ls Rs
  84. Sampling rate                            : 48.0 kHz
  85. Frame rate                               : 31.250 FPS (1536 SPF)
  86. Compression mode                         : Lossy
  87. Stream size                              : 531 MiB (2%)
  88. Title                                    : DD 5.1
  89. Language                                 : French
  90. Service kind                             : Complete Main
  91. Default                                  : No
  92. Forced                                   : No
  93. Original source medium                   : Blu-ray
  94. Text #1
  95. ID                                       : 5
  96. Format                                   : UTF-8
  97. Codec ID                                 : S_TEXT/UTF8
  98. Codec ID/Info                            : UTF-8 Plain Text
  99. Duration                                 : 1 h 54 min
  100. Bit rate                                 : 37 b/s
  101. Count of elements                        : 1167
  102. Stream size                              : 31.3 KiB (0%)
  103. Title                                    : English-SRT
  104. Language                                 : English
  105. Default                                  : Yes
  106. Forced                                   : No
  107. Text #2
  108. ID                                       : 6
  109. ID in the original source medium         : 4768 (0x12A0)
  110. Format                                   : PGS
  111. Muxing mode                              : zlib
  112. Codec ID                                 : S_HDMV/PGS
  113. Codec ID/Info                            : Picture based subtitle format used on BDs/HD-DVDs
  114. Duration                                 : 1 h 54 min
  115. Bit rate                                 : 30.8 kb/s
  116. Count of elements                        : 3258
  117. Stream size                              : 25.3 MiB (0%)
  118. Title                                    : French-PGS
  119. Language                                 : French
  120. Default                                  : No
  121. Forced                                   : No
  122. Original source medium                   : Blu-ray
  123. Menu
  124. 00:00:00.000                             : en:Chapter 01
  125. 00:12:02.096                             : en:Chapter 02
  126. 00:22:57.250                             : en:Chapter 03
  127. 00:32:05.048                             : en:Chapter 04
  128. 00:40:23.796                             : en:Chapter 05
  129. 00:51:37.552                             : en:Chapter 06
  130. 01:01:48.955                             : en:Chapter 07
  131. 01:12:54.620                             : en:Chapter 08
  132. 01:19:20.797                             : en:Chapter 09
  133. 01:28:48.906                             : en:Chapter 10
  134. 01:39:49.525                             : en:Chapter 11
  135. 01:49:54.421                             : en:Chapter 12
  136. 01:55:45.271                             : en:Chapter 13
复制代码








































本帖隐藏的下载地址需要VIP会员才可阅读,您需要升级才可阅读,点击这里升级VIP
回复

使用道具 举报

级别:初级观众 Lv.1

注册时间
2021-1-29
最后登录
2021-1-29
听众
0
收听
0
主题
0
蓝光币
3 枚
贡献
0 点
发表于 2021-1-29 19:00:23 | 显示全部楼层
楼主发贴辛苦了,谢谢楼主分享!我觉得中国高清电影网是注册对了!
回复

使用道具 举报

已抛锚 成长值: 5575

级别:初级观众 Lv.1

注册时间
2021-1-27
最后登录
2021-2-1
听众
0
收听
0
主题
0
蓝光币
3 枚
贡献
0 点
QQ
发表于 2021-1-30 18:39:32 | 显示全部楼层

这个帖子不回对不起自己!我想我是一天也不能离开中国高清电影网
回复

使用道具 举报

级别:初级观众 Lv.1

注册时间
2020-3-17
最后登录
2021-2-1
听众
2
收听
0
主题
0
蓝光币
2 枚
贡献
0 点
发表于 2021-2-1 15:13:52 | 显示全部楼层

楼主太厉害了!楼主,电影应该很好看我觉得中国高清电影网真是个好地方!
回复

使用道具 举报

级别:普通观众 Lv.2

注册时间
2020-8-21
最后登录
2021-2-24
听众
3
收听
0
主题
0
蓝光币
20 枚
贡献
0 点
发表于 2021-2-24 18:54:48 | 显示全部楼层

这个帖子不回对不起自己!我想我是一天也不能离开中国高清电影网
回复

使用道具 举报

级别:普通观众 Lv.2

注册时间
2019-9-24
最后登录
2022-5-16
听众
4
收听
0
主题
0
蓝光币
67 枚
贡献
0 点
发表于 前天 15:03 | 显示全部楼层

楼主太厉害了!楼主,电影应该很好看我觉得中国高清电影网真是个好地方!
回复

使用道具 举报

懒得打字嘛,点击右侧快捷回复 【右侧内容,后台自定义】
您需要登录后才可以回帖 登录 | 立即注册

本版积分规则

Archiver|手机版|小黑屋| 中国高清网 |网站地图 

GMT+8, 2022-5-18 04:34 , Processed in 0.108700 second(s), 29 queries .

Powered by HDchina X3.4

Copyright 2017-2019©HDchina.All right reserved

返回顶部 联系我们