查看: 201|回复: 3

[喜剧片] 异形魔怪/从地心窜出 Tremors.1990.REMASTERED.1080p.BluRay.x264.DTS-HD.MA.5.1-FGT 10.17GB

[复制链接]

已抛锚 成长值: 11955

级别:资源管理组

注册时间
2017-10-20
最后登录
2022-5-9
听众
1
收听
0
主题
108287
蓝光币
241495 枚
贡献
21715 点
发表于 2020-12-31 00:15:25 | 显示全部楼层 |阅读模式




译  名 异形魔怪 / 从地心窜出 / 来自地底深处 / 深渊异形 / 震颤
片  名 Tremors
年  代 1990
产  地 美国
类  别 笑剧 / 可骇
语  言 英语
上映日期 1990-01-19(美国)
IMDb评分  7.1/10 from 118785 users
IMDb链接  https://www.imdb.com/title/tt0100814
豆瓣评分 7.1/10 from 8905 users
豆瓣链接 https://movie.douban.com/subject/1292599/
片  长 96 分钟
导  演 罗恩·安德伍德 Ron Underwood
编  剧 布伦特·马多克 Brent Maddock / 罗恩·安德伍德 Ron Underwood / S·S·威尔逊 S.S. Wilson
主  演 凯文·贝肯 Kevin Bacon
       弗莱德·沃德 Fred Ward
       Finn Carter
       迈克尔·格罗斯 Michael Gross
       瑞芭·麦肯泰尔 Reba McEntire
       罗伯特·詹 Robert Jayne
       夏洛特·斯图尔特 Charlotte Stewart
       托尼·吉纳罗 Tony Genaro
       阿丽亚娜·理查兹 Ariana Richards
       黄自强 Victor Wong
       Sunshine Parker
       康拉德·巴赫曼 Conrad Bachmann
       比比·贝什 Bibi Besch
       汤姆·伍德鲁夫 Tom Woodruff Jr.


标  签 美国 | 怪物 | 可骇 | 科幻 | 惊悚 | 笑剧 | 1990 | 美国电影

简  介  

  在一个名为“完善”的安好小镇上,米奇(凯文·贝肯 Kevin Bacon 饰)和死党巴斯特(弗莱德·沃德 Fred Ward 饰)又度过了属于他们的安静一天。对于在这个无趣的小镇里处置着一份又一份没有前途,仅能生活的工作这一究竟,两个未老先衰的年轻人感应非常无法和困扰。终究,他们决议要走出完善镇,起头他们多姿多彩的新生活,而就在此时,通向镇外的唯逐一条公路莫名陷落了,某些不详的征象起头显现。早在数星期之前,镇上发生了六畜奥秘失落的可骇事务,同时,地质系门生蕾贝卡( 芬妮·卡特 Finn Carter 饰)发现小镇的地壳活动非常异常。现在,众人终究将这些缭乱的线索拼集到了一路,在大师的脚下,黑不见光的地底,究竟是什么在捋臂张拳?

  1. Video
  2. ID                                       : 1
  3. Format                                   : AVC
  4. Format/Info                              : Advanced Video Codec
  5. Format profile                           : [email protected]
  6. Format settings                          : CABAC / 4 Ref Frames
  7. Format settings, CABAC                   : Yes
  8. Format settings, Reference frames        : 4 frames
  9. Codec ID                                 : V_MPEG4/ISO/AVC
  10. Duration                                 : 1 h 36 min
  11. Bit rate                                 : 11.5 Mb/s
  12. Width                                    : 1 920 pixels
  13. Height                                   : 1 036 pixels
  14. Display aspect ratio                     : 1.85:1
  15. Frame rate mode                          : Constant
  16. Frame rate                               : 23.976 (24000/1001/45778) FPS
  17. Color space                              : YUV
  18. Chroma subsampling                       : 4:2:0
  19. Bit depth                                : 8 bits
  20. Scan type                                : Progressive
  21. Bits/(Pixel*Frame)                       : 0.241
  22. Stream size                              : 7.71 GiB (76%)
  23. Writing library                          : x264 core 148 r2748 97eaef2
  24. Encoding settings                        : cabac=1 / ref=4 / deblock=1:-2:-2 / analyse=0x3:0x113 / me=umh / subme=9 / psy=1 / psy_rd=1.00:0.15 / mixed_ref=1 / me_range=16 / chroma_me=1 / trellis=2 / 8x8dct=1 / cqm=0 / deadzone=21,11 / fast_pskip=1 / chroma_qp_offset=-3 / threads=72 / lookahead_threads=3 / sliced_threads=0 / nr=0 / decimate=1 / interlaced=0 / NDU3Nzg= / bluray_compat=0 / constrained_intra=0 / bframes=3 / b_pyramid=2 / b_adapt=1 / b_bias=0 / direct=3 / weightb=1 / open_gop=0 / weightp=2 / keyint=250 / keyint_min=25 / scenecut=40 / intra_refresh=0 / rc_lookahead=50 / rc=2pass / mbtree=1 / bitrate=11500 / ratetol=1.0 / qcomp=0.60 / qpmin=0 / qpmax=69 / qpstep=4 / cplxblur=20.0 / qblur=0.5 / vbv_maxrate=31250 / vbv_bufsize=31250 / nal_hrd=none / filler=0 / NDU3Nzg=feCb3SYgnbojFoo / ip_ratio=1.40 / aq=1:1.00
  25. Language                                 : English
  26. Default                                  : Yes
  27. Forced                                   : No

  28. Audio
  29. ID                                       : 2
  30. ID in the original source medium         : 4354 (0x1102)
  31. Format                                   : DTS XLL
  32. Format/Info                              : Digital Theater Systems
  33. Commercial name                          : DTS-HD Master Audio
  34. Codec ID                                 : A_DTS
  35. Duration                                 : 1 h 36 min
  36. Bit rate mode                            : Variable
  37. Bit rate                                 : 3 655 kb/s
  38. Channel(s)                               : 6 channels
  39. Channel layout                           : C L R Ls Rs LFE
  40. Sampling rate                            : 48.0 kHz
  41. Frame rate                               : 93.750 FPS (512 SPF)
  42. Bit depth                                : 24 bits
  43. Compression mode                         : Lossless
  44. Stream size                              : 2.45 GiB (24%)
  45. Title                                    : DTS-HD MA 5.1
  46. Language                                 : English
  47. Default                                  : Yes
  48. Forced                                   : No
  49. Original source medium                   : Blu-ray

  50. Text #1
  51. ID                                       : 3
  52. Format                                   : UTF-8
  53. Codec ID                                 : S_TEXT/UTF8
  54. Codec ID/Info                            : UTF-8 Plain Text
  55. Duration                                 : 1 h 34 min
  56. Bit rate                                 : 53 b/s
  57. Count of elements                        : 1157
  58. Stream size                              : 37.0 KiB (0%)
  59. Title                                    : English-SRT
  60. Language                                 : English
  61. Default                                  : Yes
  62. Forced                                   : No

  63. Text #2
  64. ID                                       : 4
  65. ID in the original source medium         : 4608 (0x1200)
  66. Format                                   : PGS
  67. Muxing mode                              : zlib
  68. Codec ID                                 : S_HDMV/PGS
  69. Codec ID/Info                            : Picture based subtitle format used on BDs/HD-DVDs
  70. Duration                                 : 1 h 35 min
  71. Bit rate                                 : 38.3 kb/s
  72. Count of elements                        : 2582
  73. Stream size                              : 26.0 MiB (0%)
  74. Title                                    : English-PGS
  75. Language                                 : English
  76. Default                                  : No
  77. Forced                                   : No
  78. Original source medium                   : Blu-ray

  79. Menu
  80. 00:00:00.000                             : en:Chapter 01
  81. 00:08:30.426                             : en:Chapter 02
  82. 00:15:49.156                             : en:Chapter 03
  83. 00:22:40.442                             : en:Chapter 04
  84. 00:31:33.641                             : en:Chapter 05
  85. 00:40:33.431                             : en:Chapter 06
  86. 00:47:51.326                             : en:Chapter 07
  87. 00:55:55.101                             : en:Chapter 08
  88. 01:01:34.482                             : en:Chapter 09
  89. 01:10:34.980                             : en:Chapter 10
  90. 01:21:12.284                             : en:Chapter 11
  91. 01:27:44.926                             : en:Chapter 12
复制代码























Tremors.1990.REMASTERED.1080p.BluRay.x264.DTS-HD.MA.5.1-FGT.torrent (51.4 KB, 下载次数: 13, 售价: 2 枚蓝光币)
回复

使用道具 举报

级别:初级观众 Lv.1

注册时间
2021-1-5
最后登录
2021-1-5
听众
0
收听
0
主题
0
蓝光币
1 枚
贡献
0 点
发表于 2021-1-5 22:19:26 | 显示全部楼层
感谢楼主分享
回复

使用道具 举报

级别:初级观众 Lv.1

注册时间
2020-6-24
最后登录
2021-2-1
听众
1
收听
0
主题
0
蓝光币
4 枚
贡献
0 点
发表于 2021-1-6 16:25:35 | 显示全部楼层
楼主发贴辛苦了,谢谢楼主分享!我觉得中国高清电影网是注册对了!
回复

使用道具 举报

级别:初级观众 Lv.1

注册时间
2020-2-19
最后登录
2022-5-17
听众
2
收听
0
主题
0
蓝光币
14 枚
贡献
0 点
发表于 2022-5-9 10:06:17 | 显示全部楼层

这东西我收了!谢谢楼主!中国高清电影网真好!
回复

使用道具 举报

懒得打字嘛,点击右侧快捷回复 【右侧内容,后台自定义】
您需要登录后才可以回帖 登录 | 立即注册

本版积分规则

Archiver|手机版|小黑屋| 中国高清网 |网站地图 

GMT+8, 2022-5-18 05:26 , Processed in 0.105181 second(s), 28 queries .

Powered by HDchina X3.4

Copyright 2017-2019©HDchina.All right reserved

返回顶部 联系我们