查看: 593|回复: 3

[8bit.SDR] 末日逃生/地球陷落 Greenland.2020.2160p.BluRay.x264.8bit.SDR.DTS-HD.MA.TrueHD.7.1.Atmos-SWTYBLZ 36.18GB

[复制链接]
蓝光币
241831 枚
发表于 2020-12-21 00:00:26 | 显示全部楼层 |阅读模式




译  名 末日逃生 / 地球沦陷(豆友译名) / 天劫倒数(台) / 末世绿洲(港) / 格陵兰 / 格陵兰沦陷
片  名 Greenland
年  代 2020
产  地 美国 / 英国
类  别 剧情 / 科幻 / 灾难
语  言 英语
上映日期 2020-07-29(比利时) / 2020-11-20(中国大陆) / 2020-12-18(美国收集)
IMDb评分  6.5/10 from 5764 users
IMDb链接  https://www.imdb.com/title/tt7737786
豆瓣评分 6.3/10 from 718 users
豆瓣链接 https://movie.douban.com/subject/30220799/
片  长 119分钟
导  演 里克·罗曼·沃夫 Ric Roman Waugh
编  剧 克里斯·斯帕林 Chris Sparling
主  演 杰拉德·巴特勒 Gerard Butler
       莫蕾娜·巴卡琳 Morena Baccarin
       大卫·丹曼 David Denman
       霍普·戴维斯 Hope Davis
       罗杰·戴尔·弗洛伊德 Roger Dale Floyd
       安德鲁·巴切勒 Andrew Bachelor
       梅琳·当吉 Merrin Dungey
       霍特·麦克卡兰尼 Holt McCallany
       斯科特·格伦 Scott Glenn
       里克·帕斯夸隆 Rick Pasqualone
       阿兰·皮特鲁塞泽维斯基 Alan Pietruszewski
       斯科特·波伊思雷斯 Scott Poythress
       加里·维克斯 Gary Weeks
       特雷西·邦纳 Tracey Bonner
       海耶斯·梅居尔 Hayes Mercure
       库尔特·岳 Kurt Yue
       克米特·罗里森 Kermit Rolison
       布兰登奎因 Brandon Quinn
       约书亚·米克尔 Joshua Mikel
       詹姆斯·罗根 James Logan
       兰达尔·阿切尔 Randall Archer
       凯特·琼斯 Cate Jones
       肯德里克·克罗斯 Kendrick Cross
       Leeann Tweeden
       阿·米切尔 Al Mitchell
       Adam Cronan
       艾琳·法萨诺 Erin Fasano
       迈克·加萨威 Mike Gassaway
       帕蒂·舍尔哈斯 Patti Schellhaas


标  签 灾难 | 科幻 | 2020 | 美国 | 美国电影 | 杰拉德·巴特勒 | 惊悚 | 剧情

简  介  

  两颗彗星正执政地球活动,人类行将在 24 小时内面临扑灭性撞击,但是政府封锁了内部消息,在格陵兰建造了堡垒,只答应部分人类进入。修建工程师John获得了进入堡垒的机遇,带着一家三口踏上了去往格陵兰的末日逃生路。但是,在流亡的进程中,军队得知自己已经被政府抛弃,起头落空控制,劫持了去往格陵兰的飞机,John的妻子与儿子也是以失散。John只能去约定好的地方期待妻子与儿子,期望会合后一并开车前往目标地格陵兰。这一路惊心动魄,历经重重困难,他们一家人终极能否可以会合,平安到达格陵兰……

  1. Video
  2. ID                                       : 1
  3. Format                                   : AVC
  4. Format/Info                              : Advanced Video Codec
  5. Format profile                           : [email protected]
  6. Format settings                          : CABAC / 5 Ref Frames
  7. Format settings, CABAC                   : Yes
  8. Format settings, Reference frames        : 5 frames
  9. Codec ID                                 : V_MPEG4/ISO/AVC
  10. Duration                                 : 1 h 59 min
  11. Bit rate                                 : 34.5 Mb/s
  12. Width                                    : 3 840 pixels
  13. Height                                   : 1 606 pixels
  14. Display aspect ratio                     : 2.40:1
  15. Frame rate mode                          : Constant
  16. Frame rate                               : 23.976 (24000/1001/45378) FPS
  17. Color space                              : YUV
  18. Chroma subsampling                       : 4:2:0
  19. Bit depth                                : 8 bits
  20. Scan type                                : Progressive
  21. Bits/(Pixel*Frame)                       : 0.234
  22. Stream size                              : 28.8 GiB (80%)
  23. Writing library                          : x264 core 157 r2935 545de2f
  24. Encoding settings                        : cabac=1 / ref=5 / deblock=1:-1:-1 / analyse=0x3:0x113 / me=umh / subme=10 / psy=1 / psy_rd=1.00:0.15 / mixed_ref=1 / me_range=48 / chroma_me=1 / trellis=2 / 8x8dct=1 / cqm=0 / deadzone=21,11 / fast_pskip=1 / chroma_qp_offset=-3 / threads=48 / lookahead_threads=4 / sliced_threads=0 / nr=0 / decimate=0 / interlaced=0 / bluray_compat=0 / constrained_intra=0 / bframes=3 / b_pyramid=2 / b_adapt=2 / b_bias=0 / direct=3 / weightb=1 / open_gop=0 / weightp=2 / keyint=250 / keyint_min=23 / scenecut=40 / intra_refresh=0 / rc_lookahead=50 / rc=crf / mbtree=1 / crf=18.0 / qcomp=0.60 / qpmin=0 / qpmax=69 / qpstep=4 / ip_ratio=1.40 / aq=1:1.00
  25. Language                                 : English
  26. Default                                  : Yes
  27. Forced                                   : No

  28. Audio #1
  29. ID                                       : 2
  30. ID in the original source medium         : 4353 (0x1101)
  31. Format                                   : MLP FBA 16-ch
  32. Format/Info                              : Meridian Lossless Packing FBA with 16-channel presentation
  33. Commercial name                          : Dolby TrueHD with Dolby Atmos
  34. Codec ID                                 : A_TRUEHD
  35. Duration                                 : 1 h 59 min
  36. Bit rate mode                            : Variable
  37. Bit rate                                 : 3 960 kb/s
  38. Maximum bit rate                         : 7 086 kb/s
  39. Channel(s)                               : 8 channels
  40. Channel layout                           : L R C LFE Ls Rs Lb Rb
  41. Sampling rate                            : 48.0 kHz
  42. Frame rate                               : 1 200.000 FPS (40 SPF)
  43. Compression mode                         : Lossless
  44. Stream size                              : 3.31 GiB (9%)
  45. Title                                    : TrueHD 7.1. Atmos
  46. Language                                 : English
  47. Default                                  : Yes
  48. Forced                                   : No
  49. Original source medium                   : Blu-ray
  50. Number of dynamic objects                : 11
  51. Bed channel count                        : 1 channel
  52. Bed channel configuration                : LFE

  53. Audio #2
  54. ID                                       : 3
  55. Format                                   : DTS XLL
  56. Format/Info                              : Digital Theater Systems
  57. Commercial name                          : DTS-HD Master Audio
  58. Codec ID                                 : A_DTS
  59. Duration                                 : 1 h 59 min
  60. Bit rate mode                            : Variable
  61. Bit rate                                 : 3 934 kb/s
  62. Channel(s)                               : 8 channels
  63. Channel layout                           : C L R LFE Lb Rb Lss Rss
  64. Sampling rate                            : 48.0 kHz
  65. Frame rate                               : 93.750 FPS (512 SPF)
  66. Bit depth                                : 24 bits
  67. Compression mode                         : Lossless
  68. Delay relative to video                  : 3 ms
  69. Stream size                              : 3.29 GiB (9%)
  70. Title                                    : DTS-HD MA 7.1
  71. Language                                 : English
  72. Default                                  : No
  73. Forced                                   : No

  74. Audio #3
  75. ID                                       : 4
  76. ID in the original source medium         : 4353 (0x1101)
  77. Format                                   : AC-3
  78. Format/Info                              : Audio Coding 3
  79. Commercial name                          : Dolby Digital
  80. Codec ID                                 : A_AC3
  81. Duration                                 : 1 h 59 min
  82. Bit rate mode                            : Constant
  83. Bit rate                                 : 640 kb/s
  84. Channel(s)                               : 6 channels
  85. Channel layout                           : L R C LFE Ls Rs
  86. Sampling rate                            : 48.0 kHz
  87. Frame rate                               : 31.250 FPS (1536 SPF)
  88. Compression mode                         : Lossy
  89. Delay relative to video                  : 14 ms
  90. Stream size                              : 547 MiB (1%)
  91. Title                                    : AC3 5.1
  92. Language                                 : English
  93. Service kind                             : Complete Main
  94. Default                                  : No
  95. Forced                                   : No
  96. Original source medium                   : Blu-ray

  97. Text #1
  98. ID                                       : 5
  99. Format                                   : UTF-8
  100. Codec ID                                 : S_TEXT/UTF8
  101. Codec ID/Info                            : UTF-8 Plain Text
  102. Duration                                 : 1 h 52 min
  103. Bit rate                                 : 59 b/s
  104. Count of elements                        : 1496
  105. Stream size                              : 48.7 KiB (0%)
  106. Title                                    : English-SRT
  107. Language                                 : English
  108. Default                                  : Yes
  109. Forced                                   : No

  110. Text #2
  111. ID                                       : 6
  112. Format                                   : UTF-8
  113. Codec ID                                 : S_TEXT/UTF8
  114. Codec ID/Info                            : UTF-8 Plain Text
  115. Duration                                 : 1 h 52 min
  116. Bit rate                                 : 68 b/s
  117. Count of elements                        : 1758
  118. Stream size                              : 56.6 KiB (0%)
  119. Title                                    : English-SDH-SRT
  120. Language                                 : English
  121. Default                                  : No
  122. Forced                                   : No

  123. Text #3
  124. ID                                       : 7
  125. ID in the original source medium         : 4768 (0x12A0)
  126. Format                                   : PGS
  127. Muxing mode                              : zlib
  128. Codec ID                                 : S_HDMV/PGS
  129. Codec ID/Info                            : Picture based subtitle format used on BDs/HD-DVDs
  130. Duration                                 : 1 h 52 min
  131. Bit rate                                 : 25.9 kb/s
  132. Count of elements                        : 1814
  133. Stream size                              : 20.9 MiB (0%)
  134. Title                                    : Danish-PGS
  135. Language                                 : Danish
  136. Default                                  : No
  137. Forced                                   : No
  138. Original source medium                   : Blu-ray

  139. Text #4
  140. ID                                       : 8
  141. ID in the original source medium         : 4769 (0x12A1)
  142. Format                                   : PGS
  143. Muxing mode                              : zlib
  144. Codec ID                                 : S_HDMV/PGS
  145. Codec ID/Info                            : Picture based subtitle format used on BDs/HD-DVDs
  146. Duration                                 : 1 h 52 min
  147. Bit rate                                 : 28.2 kb/s
  148. Count of elements                        : 1834
  149. Stream size                              : 22.7 MiB (0%)
  150. Title                                    : Finnish-PGS
  151. Language                                 : Finnish
  152. Default                                  : No
  153. Forced                                   : No
  154. Original source medium                   : Blu-ray

  155. Text #5
  156. ID                                       : 9
  157. ID in the original source medium         : 4770 (0x12A2)
  158. Format                                   : PGS
  159. Muxing mode                              : zlib
  160. Codec ID                                 : S_HDMV/PGS
  161. Codec ID/Info                            : Picture based subtitle format used on BDs/HD-DVDs
  162. Duration                                 : 1 h 52 min
  163. Bit rate                                 : 24.6 kb/s
  164. Count of elements                        : 1820
  165. Stream size                              : 19.8 MiB (0%)
  166. Title                                    : Norwegian-PGS
  167. Language                                 : Norwegian
  168. Default                                  : No
  169. Forced                                   : No
  170. Original source medium                   : Blu-ray

  171. Text #6
  172. ID                                       : 10
  173. ID in the original source medium         : 4771 (0x12A3)
  174. Format                                   : PGS
  175. Muxing mode                              : zlib
  176. Codec ID                                 : S_HDMV/PGS
  177. Codec ID/Info                            : Picture based subtitle format used on BDs/HD-DVDs
  178. Duration                                 : 1 h 52 min
  179. Bit rate                                 : 26.8 kb/s
  180. Count of elements                        : 1842
  181. Stream size                              : 21.6 MiB (0%)
  182. Title                                    : Swedish-PGS
  183. Language                                 : Swedish
  184. Default                                  : No
  185. Forced                                   : No
  186. Original source medium                   : Blu-ray

  187. Menu
  188. 00:00:00.000                             : en:Chapter 01
  189. 00:14:35.875                             : en:Chapter 02
  190. 00:30:41.881                             : en:Chapter 03
  191. 00:45:21.719                             : en:Chapter 04
  192. 00:59:22.684                             : en:Chapter 05
  193. 01:14:57.201                             : en:Chapter 06
  194. 01:30:32.635                             : en:Chapter 07
  195. 01:45:14.224                             : en:Chapter 08
复制代码





























   




本帖隐藏的下载地址需要VIP会员才可阅读,您需要升级才可阅读,点击这里升级VIP
回复

使用道具 举报

蓝光币
2 枚
发表于 2021-1-1 19:40:20 | 显示全部楼层

楼主太厉害了!楼主,电影应该很好看我觉得中国高清电影网真是个好地方!
回复

使用道具 举报

蓝光币
1 枚
发表于 2021-1-2 17:35:31 | 显示全部楼层
真的很好看啊 谢谢楼主
回复

使用道具 举报

蓝光币
19 枚
发表于 2021-1-4 11:51:38 | 显示全部楼层

既然你诚信诚意的推荐了,那我就勉为其难的看看吧!中国高清电影网不走平凡路。
回复

使用道具 举报

懒得打字嘛,点击右侧快捷回复 【右侧内容,后台自定义】
您需要登录后才可以回帖 登录 | 立即注册

本版积分规则

Archiver|手机版|小黑屋| 中国高清网 |网站地图 

GMT+8, 2022-6-27 14:21 , Processed in 0.117143 second(s), 27 queries .

Powered by HDchina X3.4

Copyright 2017-2019©HDchina.All right reserved

返回顶部 联系我们