查看: 229|回复: 0

[8bit.SDR] 街头黑帮 Vigilante.1982.2160p.BluRay.x264.8bit.SDR.DTS-HD.MA.TrueHD.7.1.Atmos-SWTYBLZ 47.83GB

[复制链接]
蓝光币
241831 枚
发表于 2020-12-21 00:00:23 | 显示全部楼层 |阅读模式




译  名 陌头黑帮 / Street Gang
片  名 Vigilante
年  代 1983
产  地 美国
类  别 剧情 / 行动 / 犯罪
语  言 英语
上映日期 1983
IMDb评分  6.5/10 from 2809 users
IMDb链接  https://www.imdb.com/title/tt0084867
豆瓣评分 0/10 from 0 users
豆瓣链接 https://movie.douban.com/subject/3637711/
片  长 90 分钟
导  演 威廉·拉斯蒂格 William Lustig
编  剧 Richard Vetere
主  演 罗伯特·福斯特 Robert Forster
       弗雷德·威廉森 Fred Williamson
       理查德·布赖特 Richard Bright
       拉特安亚·阿尔达 Rutanya Alda
       卡洛尔·琳蕾 Carol Lynley
       伍迪·斯特罗德 Woody Strode
       乔·斯皮内尔 Joe Spinell
       史蒂夫·詹姆斯 Steve James
       Willie Colón
       Bo Rucker
       Raymond Serra
       Vincent Russo
       Filomena Spagnuolo
       Sal Carollo
       Joseph Carberry
       文森特贝克 Vincent Beck
       彼得·萨瓦奇 Peter Savage
       威廉·拉斯蒂格 William Lustig


标  签 1983 | 犯罪 | 美国电影 | 80s | 美国 | William_Lustig | BDISO | 80年月

简  介  

  暂无相关剧情先容

  1. Video
  2. ID                                       : 1
  3. Format                                   : AVC
  4. Format/Info                              : Advanced Video Codec
  5. Format profile                           : [email protected]
  6. Format settings                          : CABAC / 5 Ref Frames
  7. Format settings, CABAC                   : Yes
  8. Format settings, Reference frames        : 5 frames
  9. Codec ID                                 : V_MPEG4/ISO/AVC
  10. Duration                                 : 1 h 29 min
  11. Bit rate                                 : 67.6 Mb/s
  12. Width                                    : 3 840 pixels
  13. Height                                   : 1 606 pixels
  14. Display aspect ratio                     : 2.40:1
  15. Frame rate mode                          : Constant
  16. Frame rate                               : 23.976 (24000/1001/45378) FPS
  17. Color space                              : YUV
  18. Chroma subsampling                       : 4:2:0
  19. Bit depth                                : 8 bits
  20. Scan type                                : Progressive
  21. Bits/(Pixel*Frame)                       : 0.457
  22. Stream size                              : 42.2 GiB (89%)
  23. Writing library                          : x264 core 157 r2935 545de2f
  24. Encoding settings                        : cabac=1 / ref=5 / deblock=1:-1:-1 / analyse=0x3:0x113 / me=umh / subme=10 / psy=1 / psy_rd=1.00:0.15 / mixed_ref=1 / me_range=48 / chroma_me=1 / trellis=2 / 8x8dct=1 / cqm=0 / deadzone=21,11 / fast_pskip=1 / chroma_qp_offset=-3 / threads=48 / lookahead_threads=4 / sliced_threads=0 / nr=0 / decimate=0 / interlaced=0 / bluray_compat=0 / constrained_intra=0 / bframes=3 / b_pyramid=2 / b_adapt=2 / b_bias=0 / direct=3 / weightb=1 / open_gop=0 / weightp=2 / keyint=250 / keyint_min=23 / scenecut=40 / intra_refresh=0 / rc_lookahead=50 / rc=crf / mbtree=1 / crf=23.0 / qcomp=0.60 / qpmin=0 / qpmax=69 / qpstep=4 / ip_ratio=1.40 / aq=1:1.00
  25. Default                                  : Yes
  26. Forced                                   : No

  27. Audio #1
  28. ID                                       : 2
  29. ID in the original source medium         : 4352 (0x1100)
  30. Format                                   : MLP FBA 16-ch
  31. Format/Info                              : Meridian Lossless Packing FBA with 16-channel presentation
  32. Commercial name                          : Dolby TrueHD with Dolby Atmos
  33. Codec ID                                 : A_TRUEHD
  34. Duration                                 : 1 h 29 min
  35. Bit rate mode                            : Variable
  36. Bit rate                                 : 3 778 kb/s
  37. Maximum bit rate                         : 5 697 kb/s
  38. Channel(s)                               : 8 channels
  39. Channel layout                           : L R C LFE Ls Rs Lb Rb
  40. Sampling rate                            : 48.0 kHz
  41. Frame rate                               : 1 200.000 FPS (40 SPF)
  42. Compression mode                         : Lossless
  43. Stream size                              : 2.36 GiB (5%)
  44. Title                                    : TrueHD 7.1 Atmos
  45. Language                                 : English
  46. Default                                  : Yes
  47. Forced                                   : No
  48. Original source medium                   : Blu-ray
  49. Number of dynamic objects                : 11
  50. Bed channel count                        : 1 channel
  51. Bed channel configuration                : LFE

  52. Audio #2
  53. ID                                       : 3
  54. Format                                   : DTS XLL
  55. Format/Info                              : Digital Theater Systems
  56. Commercial name                          : DTS-HD Master Audio
  57. Codec ID                                 : A_DTS
  58. Duration                                 : 1 h 29 min
  59. Bit rate mode                            : Variable
  60. Bit rate                                 : 3 812 kb/s
  61. Channel(s)                               : 8 channels
  62. Channel layout                           : C L R LFE Lb Rb Lss Rss
  63. Sampling rate                            : 48.0 kHz
  64. Frame rate                               : 93.750 FPS (512 SPF)
  65. Bit depth                                : 24 bits
  66. Compression mode                         : Lossless
  67. Stream size                              : 2.38 GiB (5%)
  68. Title                                    : DTS-HD MA 7.1
  69. Language                                 : English
  70. Default                                  : No
  71. Forced                                   : No

  72. Audio #3
  73. ID                                       : 4
  74. ID in the original source medium         : 4352 (0x1100)
  75. Format                                   : AC-3
  76. Format/Info                              : Audio Coding 3
  77. Commercial name                          : Dolby Digital
  78. Codec ID                                 : A_AC3
  79. Duration                                 : 1 h 29 min
  80. Bit rate mode                            : Constant
  81. Bit rate                                 : 640 kb/s
  82. Channel(s)                               : 6 channels
  83. Channel layout                           : L R C LFE Ls Rs
  84. Sampling rate                            : 48.0 kHz
  85. Frame rate                               : 31.250 FPS (1536 SPF)
  86. Compression mode                         : Lossy
  87. Stream size                              : 410 MiB (1%)
  88. Title                                    : DD 5.1
  89. Language                                 : English
  90. Service kind                             : Complete Main
  91. Default                                  : No
  92. Forced                                   : No
  93. Original source medium                   : Blu-ray

  94. Text #1
  95. ID                                       : 5
  96. Format                                   : UTF-8
  97. Codec ID                                 : S_TEXT/UTF8
  98. Codec ID/Info                            : UTF-8 Plain Text
  99. Duration                                 : 1 h 24 min
  100. Bit rate                                 : 40 b/s
  101. Count of elements                        : 717
  102. Stream size                              : 25.2 KiB (0%)
  103. Title                                    : English-SRT
  104. Language                                 : English
  105. Default                                  : Yes
  106. Forced                                   : No

  107. Text #2
  108. ID                                       : 6
  109. ID in the original source medium         : 4768 (0x12A0)
  110. Format                                   : PGS
  111. Muxing mode                              : zlib
  112. Codec ID                                 : S_HDMV/PGS
  113. Codec ID/Info                            : Picture based subtitle format used on BDs/HD-DVDs
  114. Duration                                 : 1 h 24 min
  115. Bit rate                                 : 30.2 kb/s
  116. Count of elements                        : 1668
  117. Stream size                              : 18.3 MiB (0%)
  118. Title                                    : English-PGS
  119. Language                                 : English
  120. Default                                  : No
  121. Forced                                   : No
  122. Original source medium                   : Blu-ray

  123. Text #3
  124. ID                                       : 7
  125. ID in the original source medium         : 4769 (0x12A1)
  126. Format                                   : PGS
  127. Muxing mode                              : zlib
  128. Codec ID                                 : S_HDMV/PGS
  129. Codec ID/Info                            : Picture based subtitle format used on BDs/HD-DVDs
  130. Duration                                 : 1 h 24 min
  131. Bit rate                                 : 26.8 kb/s
  132. Count of elements                        : 1408
  133. Stream size                              : 16.3 MiB (0%)
  134. Title                                    : French-PGS
  135. Language                                 : French
  136. Default                                  : No
  137. Forced                                   : No
  138. Original source medium                   : Blu-ray

  139. Text #4
  140. ID                                       : 8
  141. ID in the original source medium         : 4770 (0x12A2)
  142. Format                                   : PGS
  143. Muxing mode                              : zlib
  144. Codec ID                                 : S_HDMV/PGS
  145. Codec ID/Info                            : Picture based subtitle format used on BDs/HD-DVDs
  146. Duration                                 : 1 h 24 min
  147. Bit rate                                 : 26.4 kb/s
  148. Count of elements                        : 1384
  149. Stream size                              : 16.0 MiB (0%)
  150. Title                                    : Spanish-PGS
  151. Language                                 : Spanish
  152. Default                                  : No
  153. Forced                                   : No
  154. Original source medium                   : Blu-ray

  155. Text #5
  156. ID                                       : 9
  157. ID in the original source medium         : 4771 (0x12A3)
  158. Format                                   : PGS
  159. Muxing mode                              : zlib
  160. Codec ID                                 : S_HDMV/PGS
  161. Codec ID/Info                            : Picture based subtitle format used on BDs/HD-DVDs
  162. Duration                                 : 1 h 24 min
  163. Bit rate                                 : 23.8 kb/s
  164. Count of elements                        : 1404
  165. Stream size                              : 14.4 MiB (0%)
  166. Title                                    : Portuguese-PGS
  167. Language                                 : Portuguese
  168. Default                                  : No
  169. Forced                                   : No
  170. Original source medium                   : Blu-ray

  171. Menu
  172. 00:00:00.000                             : en:Chapter 01
  173. 00:01:47.065                             : en:Chapter 02
  174. 00:03:30.084                             : en:Chapter 03
  175. 00:07:58.186                             : en:Chapter 04
  176. 00:12:30.750                             : en:Chapter 05
  177. 00:18:45.749                             : en:Chapter 06
  178. 00:24:30.469                             : en:Chapter 07
  179. 00:30:22.821                             : en:Chapter 08
  180. 00:35:46.352                             : en:Chapter 09
  181. 00:43:02.580                             : en:Chapter 10
  182. 00:51:38.095                             : en:Chapter 11
  183. 00:55:45.258                             : en:Chapter 12
  184. 01:01:56.713                             : en:Chapter 13
  185. 01:11:08.264                             : en:Chapter 14
  186. 01:16:38.176                             : en:Chapter 15
  187. 01:21:58.872                             : en:Chapter 16
  188. 01:25:54.149                             : en:Chapter 17
复制代码


























   




本帖隐藏的下载地址需要VIP会员才可阅读,您需要升级才可阅读,点击这里升级VIP
回复

使用道具 举报

懒得打字嘛,点击右侧快捷回复 【右侧内容,后台自定义】
您需要登录后才可以回帖 登录 | 立即注册

本版积分规则

Archiver|手机版|小黑屋| 中国高清网 |网站地图 

GMT+8, 2022-6-27 13:42 , Processed in 0.100272 second(s), 27 queries .

Powered by HDchina X3.4

Copyright 2017-2019©HDchina.All right reserved

返回顶部 联系我们