查看: 248|回复: 0

[8bit.SDR] 指环王2:双塔奇兵/指环王II:双塔 The.Lord.of.the.Rings.The.Two.Towers.2002.DISC1.EXTENDED.2160p.BluRay.x264.8bit.SDR.DTS-HD.MA.TrueHD.7.1.Atmos-SWTYBLZ 26.17GB

[复制链接]
蓝光币
241831 枚
发表于 2020-12-5 23:31:12 | 显示全部楼层 |阅读模式




译  名 指环王2:双塔奇兵 / 指环王II:双塔 / 魔戒2:双塔奇谋 / 魔戒二部曲:双城奇谋
片  名 The Lord of the Rings: The Two Towers
年  代 2002
产  地 美国 / 新西兰
类  别 剧情 / 行动 / 奇异 / 冒险
语  言 英语 / 辛达林语 / 现代英语
上映日期 2002-12-05(纽约首映) / 2002-12-18(美国) / 2003-04-25(中国大陆)
IMDb评分  8.7/10 from 1430066 users
IMDb链接  https://www.imdb.com/title/tt0167261
豆瓣评分 9.1/10 from 490105 users
豆瓣链接 https://movie.douban.com/subject/1291572/
片  长 179分钟
导  演 彼得·杰克逊 Peter Jackson
编  剧 弗兰·威尔士 Fran Walsh / Philippa Boyens / Stephen Sinclair / 彼得·杰克逊 Peter Jackson / 托尔金 J.R.R. Tolkien
主  演 伊利亚·伍德 Elijah Wood
       西恩·奥斯汀 Sean Astin
       多米尼克·莫纳汉 Dominic Monaghan
       奥兰多·布鲁姆 Orlando Bloom
       维果·莫腾森 Viggo Mortensen
       伊恩·麦克莱恩 Ian McKellen
       凯特·布兰切特 Cate Blanchett
       比利·博伊德 Billy Boyd
       杰德·布罗菲 Jed Brophy
       丽芙·泰勒 Liv Tyler
       安迪·瑟金斯 Andy Serkis
       米兰达·奥图 Miranda Otto
       雨果·维文 Hugo Weaving
       布拉德·道里夫 Brad Dourif
       卡卢姆·吉廷斯 Calum Gittins
       伯纳德·希尔 Bernard Hill
       布鲁斯·霍普金斯 Bruce Hopkins
       克里斯托弗·李 Christopher Lee
       纳撒尼尔·利斯 Nathaniel Lees
       罗宾·马尔科姆 Robyn Malcolm
       约翰·贝西 John Bach
       萨拉·贝克 Sala Baker
       克雷格·帕克 Craig Parker
       布鲁斯·菲利普斯 Bruce Phillips
       Robert Pollock
       约翰·瑞斯-戴维斯 John Rhys-Davies
       奥利维亚·田內 Olivia Tennet
       卡尔·厄本 Karl Urban
       史蒂芬·乌瑞 Stephen Ure
       大卫·文翰 David Wenham
       菲利普·格里夫 Philip Grieve
       肖恩·宾 Sean Bean
       约翰·诺贝尔 John Noble
       Jarl Benzon
       J?rn Benzon
       Ben Britton
       阿利斯泰尔·布朗宁 Alistair Browning
       Sean Button
       Robert Catto
       罗德尼·库克 Rodney Cook
       卡尔洛斯德林克沃特 Karlos Drinkwater
       西奥沙福瓦 Siosa Fonua
       本·弗兰舍姆 Ben Fransham
       Jonathan Harding
       Lucas Hayward
       丹·汉纳 Dan Hennah
       Paul Holmes
       杰森霍德 Jason Hood
       彼得·杰克逊 Peter Jackson
       Sam Kelly
       Sandro Kopp


标  签 魔幻 | 史诗 | 典范 | 美国 | 战争 | 大片 | 新西兰 | 2002

简  介  

  第二部在延续第一部气概的同时,故事显现出多线成长的格式,情节有了更高的观赏性。
  第一部结尾,博罗米尔被强兽人杀死以后,两个哈比族人皮和蔼梅利也被强兽人绑架,阿拉贡、精灵莱戈拉斯(奥兰多?布鲁姆 饰)、侏儒金利一路追踪强兽人,救援皮和蔼梅利,碰到了“新生”的白袍巫师甘道夫(伊恩?麦凯伦 饰)。此时,投诚索伦的白袍巫师萨鲁曼控制了人类洛汉王国的国王,并派出大量的强兽人军队,预备消灭人类。阿拉贡、莱戈拉斯和金利在甘道夫的率领下,帮助洛汉王国匹敌邪恶气力的入侵。
  荣幸的皮和蔼梅利被会措辞的树精救了出来,而且碰到“新生”的甘道夫,在甘道夫的授意下,树精庇护了两人的平安,而且带他们加入树精大会,大会上,树精们会商看待中土大战的态度:是继续傍边立者,唾面自干,还是奋起抵挡?
  身负重任的佛罗多(伊莱贾?伍德 饰)和山姆继续向末日山脉进步,一路上被咕噜跟踪,弗罗多依靠至尊魔戒的气力,成为了咕噜的仆人,在咕噜的率领下,他们到了末日山脉的进口,黑门。就在他们预备进入之时,博罗米尔的弟弟法莫尔出现,将他们带回了刚铎。弗罗多又遇上了新的危机:法莫尔想操纵至尊魔戒的气力匹敌萨鲁曼的进犯……

获奖情况  

  第75届奥斯卡金像奖(2003)
  最好影片(提名) 巴里·M·奥斯本 / 彼得·杰克逊 / 弗兰·威尔士
  最好剪辑(提名) 迈克·霍顿
  最好视觉结果 吉姆·瑞吉尔 / 兰德尔·威廉·库克 / 乔·莱特瑞 / Alex Funke
  最好音效剪辑 迈克·霍普金斯 / 伊桑·范德莱恩
  最好声响(提名) 迈克·亨吉斯 / 哈蒙德·匹克 / 克里斯托弗·博伊斯 / 迈克尔·斯曼外科
  最好艺术指导(提名) 格兰特·梅杰 / 丹·汉纳 / 艾伦·李

  第60届金球奖(2003)
  电影类 最好剧情片(提名)
  电影类 最好导演(提名) 彼得·杰克逊

  第56届英国电影学院奖(2003)
  电影奖 最好影片(提名) 巴里·M·奥斯本 / 彼得·杰克逊 / 弗兰·威尔士
  电影奖 最好导演(提名) 彼得·杰克逊
  电影奖 最好摄影(提名) 安德鲁·莱斯尼
  电影奖 最好剪辑(提名) 迈克·霍顿 / Jabez Olssen
  电影奖 最好化装/发型(提名) Peter Owen / 彼得·金 / 理查德·泰勒
  电影奖 最好打扮设想 恩吉拉·迪克森 / 理查德·泰勒
  电影奖 最好艺术指导(提名) 格兰特·梅杰
  电影奖 最好特别视觉结果 吉姆·瑞吉尔 / 兰德尔·威廉·库克 / 乔·莱特瑞 / Alex Funke
  电影奖 最好音效(提名) 迈克·亨吉斯 / 迈克·霍普金斯 / 迈克尔·斯曼外科 / 克里斯托弗·博伊斯 / 哈蒙德·匹克 / David Farmer / 伊桑·范德莱恩
  电影奖 观众挑选奖

  第27届日本电影学院奖(2004)
  最好外语片(提名)

  第3届美国电影学会奖(2002)
  年度佳片

  1. Video
  2. ID                                       : 1
  3. Format                                   : AVC
  4. Format/Info                              : Advanced Video Codec
  5. Format profile                           : [email protected]
  6. Format settings                          : CABAC / 5 Ref Frames
  7. Format settings, CABAC                   : Yes
  8. Format settings, Reference frames        : 5 frames
  9. Codec ID                                 : V_MPEG4/ISO/AVC
  10. Duration                                 : 1 h 46 min
  11. Bit rate                                 : 27.4 Mb/s
  12. Width                                    : 3 840 pixels
  13. Height                                   : 1 608 pixels
  14. Display aspect ratio                     : 2.40:1
  15. Frame rate mode                          : Constant
  16. Frame rate                               : 23.976 (24000/1001/45378) FPS
  17. Color space                              : YUV
  18. Chroma subsampling                       : 4:2:0
  19. Bit depth                                : 8 bits
  20. Scan type                                : Progressive
  21. Bits/(Pixel*Frame)                       : 0.185
  22. Stream size                              : 20.4 GiB (78%)
  23. Title                                    : The.Lord.of.the.Rings.The.Two.Towers.2002.DISC1.EXTENDED.2160p.BluRay.x264.8bit.SDR.DTS-HD.MA.TrueHD.7.1.Atmos-SWTYBLZ
  24. Writing library                          : x264 core 157 r2935 545de2f
  25. Encoding settings                        : cabac=1 / ref=5 / deblock=1:-1:-1 / analyse=0x3:0x113 / me=umh / subme=10 / psy=1 / psy_rd=1.00:0.15 / mixed_ref=1 / me_range=48 / chroma_me=1 / trellis=2 / 8x8dct=1 / cqm=0 / deadzone=21,11 / fast_pskip=1 / chroma_qp_offset=-3 / threads=50 / lookahead_threads=4 / sliced_threads=0 / nr=0 / decimate=0 / interlaced=0 / bluray_compat=0 / constrained_intra=0 / bframes=3 / b_pyramid=2 / b_adapt=2 / b_bias=0 / direct=3 / weightb=1 / open_gop=0 / weightp=2 / keyint=250 / keyint_min=23 / scenecut=40 / intra_refresh=0 / rc_lookahead=50 / rc=crf / mbtree=1 / crf=18.0 / qcomp=0.60 / qpmin=0 / qpmax=69 / qpstep=4 / ip_ratio=1.40 / aq=1:1.00
  26. Default                                  : Yes
  27. Forced                                   : No

  28. Audio #1
  29. ID                                       : 2
  30. ID in the original source medium         : 4352 (0x1100)
  31. Format                                   : MLP FBA 16-ch
  32. Format/Info                              : Meridian Lossless Packing FBA with 16-channel presentation
  33. Commercial name                          : Dolby TrueHD with Dolby Atmos
  34. Codec ID                                 : A_TRUEHD
  35. Duration                                 : 1 h 46 min
  36. Bit rate mode                            : Variable
  37. Bit rate                                 : 3 089 kb/s
  38. Maximum bit rate                         : 4 668 kb/s
  39. Channel(s)                               : 8 channels
  40. Channel layout                           : L R C LFE Ls Rs Lb Rb
  41. Sampling rate                            : 48.0 kHz
  42. Frame rate                               : 1 200.000 FPS (40 SPF)
  43. Compression mode                         : Lossless
  44. Stream size                              : 2.30 GiB (9%)
  45. Title                                    : The.Lord.of.the.Rings.The.Two.Towers.2002.DISC1.EXTENDED.2160p.BluRay.x264.8bit.SDR.DTS-HD.MA.TrueHD.7.1.Atmos-SWTYBLZ
  46. Language                                 : English
  47. Default                                  : Yes
  48. Forced                                   : No
  49. Original source medium                   : Blu-ray
  50. Number of dynamic objects                : 11
  51. Bed channel count                        : 1 channel
  52. Bed channel configuration                : LFE

  53. Audio #2
  54. ID                                       : 3
  55. Format                                   : DTS XLL
  56. Format/Info                              : Digital Theater Systems
  57. Commercial name                          : DTS-HD Master Audio
  58. Codec ID                                 : A_DTS
  59. Duration                                 : 1 h 46 min
  60. Bit rate mode                            : Variable
  61. Bit rate                                 : 3 752 kb/s
  62. Channel(s)                               : 8 channels
  63. Channel layout                           : C L R LFE Lb Rb Lss Rss
  64. Sampling rate                            : 48.0 kHz
  65. Frame rate                               : 93.750 FPS (512 SPF)
  66. Bit depth                                : 24 bits
  67. Compression mode                         : Lossless
  68. Stream size                              : 2.80 GiB (11%)
  69. Title                                    : The.Lord.of.the.Rings.The.Two.Towers.2002.DISC1.EXTENDED.2160p.BluRay.x264.8bit.SDR.DTS-HD.MA.TrueHD.7.1.Atmos-SWTYBLZ
  70. Language                                 : English
  71. Default                                  : No
  72. Forced                                   : No

  73. Audio #3
  74. ID                                       : 4
  75. ID in the original source medium         : 4352 (0x1100)
  76. Format                                   : AC-3
  77. Format/Info                              : Audio Coding 3
  78. Commercial name                          : Dolby Digital
  79. Codec ID                                 : A_AC3
  80. Duration                                 : 1 h 46 min
  81. Bit rate mode                            : Constant
  82. Bit rate                                 : 448 kb/s
  83. Channel(s)                               : 6 channels
  84. Channel layout                           : L R C LFE Ls Rs
  85. Sampling rate                            : 48.0 kHz
  86. Frame rate                               : 31.250 FPS (1536 SPF)
  87. Compression mode                         : Lossy
  88. Stream size                              : 342 MiB (1%)
  89. Title                                    : The.Lord.of.the.Rings.The.Two.Towers.2002.DISC1.EXTENDED.2160p.BluRay.x264.8bit.SDR.DTS-HD.MA.TrueHD.7.1.Atmos-SWTYBLZ
  90. Language                                 : English
  91. Service kind                             : Complete Main
  92. Default                                  : No
  93. Forced                                   : No
  94. Original source medium                   : Blu-ray

  95. Text #1
  96. ID                                       : 5
  97. Format                                   : UTF-8
  98. Codec ID                                 : S_TEXT/UTF8
  99. Codec ID/Info                            : UTF-8 Plain Text
  100. Duration                                 : 1 h 45 min
  101. Bit rate                                 : 38 b/s
  102. Count of elements                        : 1042
  103. Stream size                              : 29.6 KiB (0%)
  104. Title                                    : English-SRT
  105. Language                                 : English
  106. Default                                  : Yes
  107. Forced                                   : No

  108. Text #2
  109. ID                                       : 6
  110. ID in the original source medium         : 4768 (0x12A0)
  111. Format                                   : PGS
  112. Muxing mode                              : zlib
  113. Codec ID                                 : S_HDMV/PGS
  114. Codec ID/Info                            : Picture based subtitle format used on BDs/HD-DVDs
  115. Duration                                 : 1 h 45 min
  116. Bit rate                                 : 24.4 kb/s
  117. Count of elements                        : 2266
  118. Stream size                              : 18.4 MiB (0%)
  119. Title                                    : English-PGS
  120. Language                                 : English
  121. Default                                  : No
  122. Forced                                   : No
  123. Original source medium                   : Blu-ray

  124. Text #3
  125. ID                                       : 7
  126. ID in the original source medium         : 4769 (0x12A1)
  127. Format                                   : PGS
  128. Muxing mode                              : zlib
  129. Codec ID                                 : S_HDMV/PGS
  130. Codec ID/Info                            : Picture based subtitle format used on BDs/HD-DVDs
  131. Duration                                 : 1 h 45 min
  132. Bit rate                                 : 22.0 kb/s
  133. Count of elements                        : 2210
  134. Stream size                              : 16.7 MiB (0%)
  135. Title                                    : French-PGS
  136. Language                                 : French
  137. Default                                  : No
  138. Forced                                   : No
  139. Original source medium                   : Blu-ray

  140. Text #4
  141. ID                                       : 8
  142. ID in the original source medium         : 4770 (0x12A2)
  143. Format                                   : PGS
  144. Muxing mode                              : zlib
  145. Codec ID                                 : S_HDMV/PGS
  146. Codec ID/Info                            : Picture based subtitle format used on BDs/HD-DVDs
  147. Duration                                 : 1 h 45 min
  148. Bit rate                                 : 29.0 kb/s
  149. Count of elements                        : 2188
  150. Stream size                              : 21.8 MiB (0%)
  151. Title                                    : German-PGS
  152. Language                                 : German
  153. Default                                  : No
  154. Forced                                   : No
  155. Original source medium                   : Blu-ray

  156. Text #5
  157. ID                                       : 9
  158. ID in the original source medium         : 4771 (0x12A3)
  159. Format                                   : PGS
  160. Muxing mode                              : zlib
  161. Codec ID                                 : S_HDMV/PGS
  162. Codec ID/Info                            : Picture based subtitle format used on BDs/HD-DVDs
  163. Duration                                 : 1 h 45 min
  164. Bit rate                                 : 24.5 kb/s
  165. Count of elements                        : 2266
  166. Stream size                              : 18.4 MiB (0%)
  167. Title                                    : Italian-PGS
  168. Language                                 : Italian
  169. Default                                  : No
  170. Forced                                   : No
  171. Original source medium                   : Blu-ray

  172. Text #6
  173. ID                                       : 10
  174. ID in the original source medium         : 4772 (0x12A4)
  175. Format                                   : PGS
  176. Muxing mode                              : zlib
  177. Codec ID                                 : S_HDMV/PGS
  178. Codec ID/Info                            : Picture based subtitle format used on BDs/HD-DVDs
  179. Duration                                 : 1 h 45 min
  180. Bit rate                                 : 22.5 kb/s
  181. Count of elements                        : 2100
  182. Stream size                              : 16.9 MiB (0%)
  183. Title                                    : Spanish-PGS
  184. Language                                 : Spanish
  185. Default                                  : No
  186. Forced                                   : No
  187. Original source medium                   : Blu-ray

  188. Text #7
  189. ID                                       : 11
  190. ID in the original source medium         : 4773 (0x12A5)
  191. Format                                   : PGS
  192. Muxing mode                              : zlib
  193. Codec ID                                 : S_HDMV/PGS
  194. Codec ID/Info                            : Picture based subtitle format used on BDs/HD-DVDs
  195. Duration                                 : 1 h 45 min
  196. Bit rate                                 : 23.1 kb/s
  197. Count of elements                        : 1736
  198. Stream size                              : 17.4 MiB (0%)
  199. Title                                    : Dutch-PGS
  200. Language                                 : Dutch
  201. Default                                  : No
  202. Forced                                   : No
  203. Original source medium                   : Blu-ray

  204. Text #8
  205. ID                                       : 12
  206. ID in the original source medium         : 4774 (0x12A6)
  207. Format                                   : PGS
  208. Muxing mode                              : zlib
  209. Codec ID                                 : S_HDMV/PGS
  210. Codec ID/Info                            : Picture based subtitle format used on BDs/HD-DVDs
  211. Duration                                 : 1 h 45 min
  212. Bit rate                                 : 19.6 kb/s
  213. Count of elements                        : 2098
  214. Stream size                              : 14.9 MiB (0%)
  215. Title                                    : Chinese-PGS
  216. Language                                 : Chinese
  217. Default                                  : No
  218. Forced                                   : No
  219. Original source medium                   : Blu-ray

  220. Text #9
  221. ID                                       : 13
  222. ID in the original source medium         : 4775 (0x12A7)
  223. Format                                   : PGS
  224. Muxing mode                              : zlib
  225. Codec ID                                 : S_HDMV/PGS
  226. Codec ID/Info                            : Picture based subtitle format used on BDs/HD-DVDs
  227. Duration                                 : 1 h 45 min
  228. Bit rate                                 : 18.1 kb/s
  229. Count of elements                        : 2098
  230. Stream size                              : 13.7 MiB (0%)
  231. Title                                    : Chinese-PGS
  232. Language                                 : Chinese
  233. Default                                  : No
  234. Forced                                   : No
  235. Original source medium                   : Blu-ray

  236. Text #10
  237. ID                                       : 14
  238. ID in the original source medium         : 4776 (0x12A8)
  239. Format                                   : PGS
  240. Muxing mode                              : zlib
  241. Codec ID                                 : S_HDMV/PGS
  242. Codec ID/Info                            : Picture based subtitle format used on BDs/HD-DVDs
  243. Duration                                 : 1 h 45 min
  244. Bit rate                                 : 18.3 kb/s
  245. Count of elements                        : 2098
  246. Stream size                              : 13.8 MiB (0%)
  247. Title                                    : Korean-PGS
  248. Language                                 : Korean
  249. Default                                  : No
  250. Forced                                   : No
  251. Original source medium                   : Blu-ray

  252. Text #11
  253. ID                                       : 15
  254. ID in the original source medium         : 4777 (0x12A9)
  255. Format                                   : PGS
  256. Muxing mode                              : zlib
  257. Codec ID                                 : S_HDMV/PGS
  258. Codec ID/Info                            : Picture based subtitle format used on BDs/HD-DVDs
  259. Duration                                 : 1 h 45 min
  260. Bit rate                                 : 23.0 kb/s
  261. Count of elements                        : 2098
  262. Stream size                              : 17.4 MiB (0%)
  263. Title                                    : Spanish-PGS
  264. Language                                 : Spanish
  265. Default                                  : No
  266. Forced                                   : No
  267. Original source medium                   : Blu-ray

  268. Text #12
  269. ID                                       : 16
  270. ID in the original source medium         : 4778 (0x12AA)
  271. Format                                   : PGS
  272. Muxing mode                              : zlib
  273. Codec ID                                 : S_HDMV/PGS
  274. Codec ID/Info                            : Picture based subtitle format used on BDs/HD-DVDs
  275. Duration                                 : 1 h 45 min
  276. Bit rate                                 : 20.2 kb/s
  277. Count of elements                        : 2068
  278. Stream size                              : 15.3 MiB (0%)
  279. Title                                    : Czech-PGS
  280. Language                                 : Czech
  281. Default                                  : No
  282. Forced                                   : No
  283. Original source medium                   : Blu-ray

  284. Text #13
  285. ID                                       : 17
  286. ID in the original source medium         : 4779 (0x12AB)
  287. Format                                   : PGS
  288. Muxing mode                              : zlib
  289. Codec ID                                 : S_HDMV/PGS
  290. Codec ID/Info                            : Picture based subtitle format used on BDs/HD-DVDs
  291. Duration                                 : 1 h 45 min
  292. Bit rate                                 : 20.6 kb/s
  293. Count of elements                        : 1640
  294. Stream size                              : 15.6 MiB (0%)
  295. Title                                    : Danish-PGS
  296. Language                                 : Danish
  297. Default                                  : No
  298. Forced                                   : No
  299. Original source medium                   : Blu-ray

  300. Text #14
  301. ID                                       : 18
  302. ID in the original source medium         : 4780 (0x12AC)
  303. Format                                   : PGS
  304. Muxing mode                              : zlib
  305. Codec ID                                 : S_HDMV/PGS
  306. Codec ID/Info                            : Picture based subtitle format used on BDs/HD-DVDs
  307. Duration                                 : 1 h 45 min
  308. Bit rate                                 : 21.1 kb/s
  309. Count of elements                        : 1748
  310. Stream size                              : 16.0 MiB (0%)
  311. Title                                    : Finnish-PGS
  312. Language                                 : Finnish
  313. Default                                  : No
  314. Forced                                   : No
  315. Original source medium                   : Blu-ray

  316. Text #15
  317. ID                                       : 19
  318. ID in the original source medium         : 4781 (0x12AD)
  319. Format                                   : PGS
  320. Muxing mode                              : zlib
  321. Codec ID                                 : S_HDMV/PGS
  322. Codec ID/Info                            : Picture based subtitle format used on BDs/HD-DVDs
  323. Duration                                 : 1 h 45 min
  324. Bit rate                                 : 24.2 kb/s
  325. Count of elements                        : 2088
  326. Stream size                              : 18.4 MiB (0%)
  327. Title                                    : Greek-PGS
  328. Language                                 : Greek
  329. Default                                  : No
  330. Forced                                   : No
  331. Original source medium                   : Blu-ray

  332. Text #16
  333. ID                                       : 20
  334. ID in the original source medium         : 4782 (0x12AE)
  335. Format                                   : PGS
  336. Muxing mode                              : zlib
  337. Codec ID                                 : S_HDMV/PGS
  338. Codec ID/Info                            : Picture based subtitle format used on BDs/HD-DVDs
  339. Duration                                 : 1 h 45 min
  340. Bit rate                                 : 20.5 kb/s
  341. Count of elements                        : 1590
  342. Stream size                              : 15.5 MiB (0%)
  343. Title                                    : Norwegian-PGS
  344. Language                                 : Norwegian
  345. Default                                  : No
  346. Forced                                   : No
  347. Original source medium                   : Blu-ray

  348. Text #17
  349. ID                                       : 21
  350. ID in the original source medium         : 4783 (0x12AF)
  351. Format                                   : PGS
  352. Muxing mode                              : zlib
  353. Codec ID                                 : S_HDMV/PGS
  354. Codec ID/Info                            : Picture based subtitle format used on BDs/HD-DVDs
  355. Duration                                 : 1 h 45 min
  356. Bit rate                                 : 19.8 kb/s
  357. Count of elements                        : 2098
  358. Stream size                              : 15.0 MiB (0%)
  359. Title                                    : Polish-PGS
  360. Language                                 : Polish
  361. Default                                  : No
  362. Forced                                   : No
  363. Original source medium                   : Blu-ray

  364. Text #18
  365. ID                                       : 22
  366. ID in the original source medium         : 4784 (0x12B0)
  367. Format                                   : PGS
  368. Muxing mode                              : zlib
  369. Codec ID                                 : S_HDMV/PGS
  370. Codec ID/Info                            : Picture based subtitle format used on BDs/HD-DVDs
  371. Duration                                 : 1 h 45 min
  372. Bit rate                                 : 21.7 kb/s
  373. Count of elements                        : 1584
  374. Stream size                              : 16.4 MiB (0%)
  375. Title                                    : Swedish-PGS
  376. Language                                 : Swedish
  377. Default                                  : No
  378. Forced                                   : No
  379. Original source medium                   : Blu-ray

  380. Text #19
  381. ID                                       : 23
  382. ID in the original source medium         : 4785 (0x12B1)
  383. Format                                   : PGS
  384. Muxing mode                              : zlib
  385. Codec ID                                 : S_HDMV/PGS
  386. Codec ID/Info                            : Picture based subtitle format used on BDs/HD-DVDs
  387. Duration                                 : 1 h 45 min
  388. Bit rate                                 : 20.6 kb/s
  389. Count of elements                        : 2096
  390. Stream size                              : 15.6 MiB (0%)
  391. Title                                    : Thai-PGS
  392. Language                                 : Thai
  393. Default                                  : No
  394. Forced                                   : No
  395. Original source medium                   : Blu-ray

  396. Text #20
  397. ID                                       : 24
  398. ID in the original source medium         : 4790 (0x12B6)
  399. Format                                   : PGS
  400. Muxing mode                              : zlib
  401. Codec ID                                 : S_HDMV/PGS
  402. Codec ID/Info                            : Picture based subtitle format used on BDs/HD-DVDs
  403. Duration                                 : 1 h 45 min
  404. Bit rate                                 : 20.7 kb/s
  405. Count of elements                        : 2064
  406. Stream size                              : 15.6 MiB (0%)
  407. Title                                    : Japanese-PGS
  408. Language                                 : Japanese
  409. Default                                  : No
  410. Forced                                   : No
  411. Original source medium                   : Blu-ray

  412. Menu
  413. 00:00:00.000                             : en:Chapter 01
  414. 00:04:08.373                             : en:Chapter 02
  415. 00:06:10.703                             : en:Chapter 03
  416. 00:14:44.925                             : en:Chapter 04
  417. 00:17:06.567                             : en:Chapter 05
  418. 00:19:17.823                             : en:Chapter 06
  419. 00:23:03.715                             : en:Chapter 07
  420. 00:23:58.186                             : en:Chapter 08
  421. 00:27:09.002                             : en:Chapter 09
  422. 00:28:02.972                             : en:Chapter 10
  423. 00:31:38.062                             : en:Chapter 11
  424. 00:35:45.351                             : en:Chapter 12
  425. 00:38:17.545                             : en:Chapter 13
  426. 00:41:47.171                             : en:Chapter 14
  427. 00:50:49.296                             : en:Chapter 15
  428. 00:58:19.370                             : en:Chapter 16
  429. 01:00:40.136                             : en:Chapter 17
  430. 01:02:48.264                             : en:Chapter 18
  431. 01:08:05.956                             : en:Chapter 19
  432. 01:12:41.315                             : en:Chapter 20
  433. 01:24:17.302                             : en:Chapter 21
  434. 01:25:42.053                             : en:Chapter 22
  435. 01:27:34.290                             : en:Chapter 23
  436. 01:30:44.772                             : en:Chapter 24
  437. 01:32:30.545                             : en:Chapter 25
  438. 01:34:30.790                             : en:Chapter 26
  439. 01:35:56.751                             : en:Chapter 27
  440. 01:37:01.232                             : en:Chapter 28
  441. 01:38:43.918                             : en:Chapter 29
  442. 01:41:15.235                             : en:Chapter 30
复制代码
































   




本帖隐藏的下载地址需要VIP会员才可阅读,您需要升级才可阅读,点击这里升级VIP
回复

使用道具 举报

懒得打字嘛,点击右侧快捷回复 【右侧内容,后台自定义】
您需要登录后才可以回帖 登录 | 立即注册

本版积分规则

Archiver|手机版|小黑屋| 中国高清网 |网站地图 

GMT+8, 2022-6-27 13:55 , Processed in 0.152330 second(s), 27 queries .

Powered by HDchina X3.4

Copyright 2017-2019©HDchina.All right reserved

返回顶部 联系我们