查看: 244|回复: 0

[8bit.SDR] 指环王3:王者无敌 The.Lord.of.the.Rings.The.Return.of.the.King.2003.DISC2.EXTENDED.2160p.BluRay.x264.8bit.SDR.DTS-HD.MA.TrueHD.7.1.Atmos-SWTYBLZ 40.78GB

[复制链接]
蓝光币
241831 枚
发表于 2020-12-5 23:31:09 | 显示全部楼层 |阅读模式




译  名 指环王3:王者无敌 / 指环王3:国王归来 / 指环王3:皇上回宫(豆友译名) / 指环王III:王者无敌 / 魔戒3:王者归来 / 魔戒三部曲:王者再临(台 / 港)
片  名 The Lord of the Rings: The Return of the King
年  代 2003
产  地 美国 / 新西兰
类  别 剧情 / 行动 / 奇异 / 冒险
语  言 英语 / 昆雅语 / 古英语 / 辛达林语
上映日期 2003-12-17(美国) / 2004-03-12(中国大陆)
IMDb评分  8.9/10 from 1611522 users
IMDb链接  https://www.imdb.com/title/tt0167260
豆瓣评分 9.2/10 from 572565 users
豆瓣链接 https://movie.douban.com/subject/1291552/
片  长 201分钟
导  演 彼得·杰克逊 Peter Jackson
编  剧 弗兰·威尔士 Fran Walsh / 菲利帕·鲍恩斯 Philippa Boyens / 彼得·杰克逊 Peter Jackson / J·R·R·托尔金 J.R.R. Tolkien
主  演 伊利亚·伍德 Elijah Wood
       西恩·奥斯汀 Sean Astin
       维果·莫腾森 Viggo Mortensen
       奥兰多·布鲁姆 Orlando Bloom
       伊恩·麦克莱恩 Ian McKellen
       肖恩·宾 Sean Bean
       多米尼克·莫纳汉 Dominic Monaghan
       丽芙·泰勒 Liv Tyler
       约翰·贝西 John Bach
       凯特·布兰切特 Cate Blanchett
       比利·博伊德 Billy Boyd
       萨德文·布罗菲 Sadwyn Brophy
       阿利斯泰尔·布朗宁 Alistair Browning
       马尔顿·索克斯 Marton Csokas
       伯纳德·希尔 Bernard Hill
       伊安·霍姆 Ian Holm
       布鲁斯·霍普金斯 Bruce Hopkins
       Ian Hughes
       劳伦斯·马克奥雷 Lawrence Makoare
       Noel Appleby
       布雷特·麦肯齐 Bret McKenzie
       Alexandra Astin
       Sarah McLeod
       Maisy McLeod-Riera
       约翰·诺贝尔 John Noble
       Paul Norell
       米兰达·奥图 Miranda Otto
       布鲁斯·菲利普斯 Bruce Phillips
       沙恩·朗吉 Shane Rangi
       约翰·瑞斯-戴维斯 John Rhys-Davies
       Todd Rippon
       安迪·瑟金斯 Andy Serkis
       Harry Sinclair
       乔尔·托贝克 Joel Tobeck
       卡尔·厄本 Karl Urban
       史蒂芬·乌瑞 Stephen Ure
       雨果·维文 Hugo Weaving
       大卫·文翰 David Wenham
       阿兰·霍华德 Alan Howard
       萨拉·贝克 Sala Baker
       Robert Pollock
       佩特·史姑娘 Pete Smith
       杰德·布罗菲 Jed Brophy
       菲利普·格里夫 Philip Grieve
       布拉德·道里夫 Brad Dourif
       克里斯托弗·李 Christopher Lee
       布鲁斯·斯宾斯 Bruce Spence
       吉诺·阿赛维多 Gino Acevedo
       Jarl Benzon
       J?rn Benzon
       Robert Catto
       Michael Elsworth
       彼得·杰克逊 Peter Jackson
       Sandro Kopp
       安德鲁·莱斯尼 Andrew Lesnie
       约瑟夫·米卡-亨特 Joseph Mika-Hunt
       亨利·莫腾森 Henry Mortensen
       克雷格·帕克 Craig Parker
       克里斯蒂安·瑞沃斯 Christian Rivers
       迈克尔·斯曼外科  Michael Semanick
       霍华德·肖 Howard Shore
       约翰·斯蒂芬森 John Stephenson
       理查德·泰勒 Richard Taylor
       金永钢 Yonggang Jin
       张磊 Lei Zhang
       姜广涛 Guangtao Jiang


标  签 魔幻 | 史诗 | 典范 | 美国 | 战争 | 奥斯卡 | 新西兰 | 剧情

简  介  

  魔幻战争逐步进入飞腾阶段。霍比特人弗拉多(伊利亚·伍德 Elijah Wood 饰)照顾着魔戒,与伙伴山姆(Sean Astin 饰)以及狡猾阴晦的咕噜等前往末日山,一路上艰难险阻不竭,魔君索伦为阻止魔戒被烧毁用尽尽力阻止。另一方面,白袍巫师甘道夫(伊安·麦克莱恩 Ian McKellen 饰)率中土勇士们镇守刚铎都城——白城米那斯提里斯。魔兽雄师压境,黑暗与光亮的决战行未到临……本片是“指环王三部曲”的终结篇,按照英国作家J.R.R.托尔金(J.R.R. Tolkien)同名魔幻巨著《指环王》(The Lord of the Rings)改编,并荣获2004年第76届奥斯卡最好影片、最好导演、最好改编剧本、最好剪辑、最好艺术指导、最好打扮设想、最好化装、最好视觉结果、最好音效、最好配乐和最好歌曲等11项大奖。

获奖情况  

  第76届奥斯卡金像奖(2004)
  最好影片 巴里·M·奥斯本 / 弗兰·威尔士 / 彼得·杰克逊
  最好导演 彼得·杰克逊
  最好改编剧本 弗兰·威尔士 / 彼得·杰克逊 / 菲利帕·鲍恩斯
  最好剪辑 杰米·塞尔柯克
  最好视觉结果 亚历克斯·方克 / 吉姆·瑞吉尔 / 乔·莱特瑞 / 兰德尔·威廉·库克
  最好混音 迈克·亨吉斯 / 哈蒙德·匹克 / 克里斯托弗·博伊斯 / 迈克尔·斯曼外科
  最好艺术指导 丹·汉纳 / 格兰特·梅杰 / 艾伦·李
  最好打扮设想 恩吉拉·迪克森 / 理查德·泰勒
  最好化装 理查德·泰勒 / 彼得·金
  最好原创配乐 霍华德·肖
  最好原创歌曲 霍华德·肖 / 安妮·蓝妮克丝 / 弗兰·威尔士

  第61届金球奖(2004)
  电影类 最好剧情片
  电影类 最好导演 彼得·杰克逊
  电影类 最好原创配乐 霍华德·肖
  电影类 最好原创歌曲 弗兰·威尔士 / 安妮·蓝妮克丝 / 霍华德·肖

  第57届英国电影学院奖(2004)
  电影奖 最好影片 巴里·M·奥斯本 / 彼得·杰克逊 / 弗兰·威尔士
  电影奖 最好导演(提名) 彼得·杰克逊
  电影奖 最好男配角(提名) 伊恩·麦克莱恩
  电影奖 最好改编剧本 菲利帕·鲍恩斯 / 彼得·杰克逊 / 弗兰·威尔士
  电影奖 最好摄影 安德鲁·莱斯尼
  电影奖 最好剪辑(提名) 杰米·塞尔柯克
  电影奖 最好化装/发型(提名) 彼得·金 / 彼得·欧文 / 理查德·泰勒
  电影奖 最好打扮设想(提名) 恩吉拉·迪克森 / 理查德·泰勒 / 恩吉拉·迪克森 / 理查德·泰勒
  电影奖 最好艺术指导(提名) 格兰特·梅杰
  电影奖 最好特别视觉结果 吉姆·瑞吉尔 / 兰德尔·威廉·库克 / 乔·莱特瑞 / 亚历克斯·方克
  电影奖 最好原创音乐(提名) 霍华德·肖
  电影奖 最好音效(提名) 迈克·亨吉斯 / 大卫·法默 / 迈克尔·斯曼外科 / 克里斯托弗·博伊斯 / 哈蒙德·匹克 / 迈克·霍普金斯 / 伊桑·范德莱恩
  电影奖 观众挑选奖

  第28届日本电影学院奖(2005)
  最好外语片(提名)

  第4届美国电影学会奖(2003)
  年度佳片

  1. Video
  2. ID                                       : 1
  3. Format                                   : AVC
  4. Format/Info                              : Advanced Video Codec
  5. Format profile                           : [email protected]
  6. Format settings                          : CABAC / 5 Ref Frames
  7. Format settings, CABAC                   : Yes
  8. Format settings, Reference frames        : 5 frames
  9. Codec ID                                 : V_MPEG4/ISO/AVC
  10. Duration                                 : 2 h 15 min
  11. Bit rate                                 : 35.7 Mb/s
  12. Width                                    : 3 840 pixels
  13. Height                                   : 1 608 pixels
  14. Display aspect ratio                     : 2.40:1
  15. Frame rate mode                          : Constant
  16. Frame rate                               : 23.976 (24000/1001/11208/45378) FPS
  17. Color space                              : YUV
  18. Chroma subsampling                       : 4:2:0
  19. Bit depth                                : 8 bits
  20. Scan type                                : Progressive
  21. Bits/(Pixel*Frame)                       : 0.241
  22. Stream size                              : 33.8 GiB (83%)
  23. Title                                    : The.Lord.of.the.Rings.The.Return.of.the.King.2003.DISC2.EXTENDED.2160p.BluRay.x264.8bit.SDR.DTS-HD.MA.TrueHD.7.1.Atmos-SWTYBLZ
  24. Writing library                          : x264 core 157 r2935 545de2f
  25. Encoding settings                        : cabac=1 / ref=5 / deblock=1:-1:-1 / analyse=0x3:0x113 / me=umh / subme=10 / psy=1 / psy_rd=1.00:0.15 / mixed_ref=1 / me_range=48 / chroma_me=1 / trellis=2 / 8x8dct=1 / cqm=0 / deadzone=21,11 / fast_pskip=1 / chroma_qp_offset=-3 / threads=48 / lookahead_threads=4 / sliced_threads=0 / nr=0 / decimate=0 / interlaced=0 / bluray_compat=0 / constrained_intra=0 / bframes=3 / b_pyramid=2 / b_adapt=2 / b_bias=0 / direct=3 / weightb=1 / open_gop=0 / weightp=2 / keyint=250 / keyint_min=23 / scenecut=40 / intra_refresh=0 / rc_lookahead=50 / rc=crf / mbtree=1 / crf=18.0 / qcomp=0.60 / qpmin=0 / qpmax=69 / qpstep=4 / ip_ratio=1.40 / aq=1:1.00
  26. Default                                  : Yes
  27. Forced                                   : No

  28. Audio #1
  29. ID                                       : 2
  30. ID in the original source medium         : 4352 (0x1100)
  31. Format                                   : MLP FBA 16-ch
  32. Format/Info                              : Meridian Lossless Packing FBA with 16-channel presentation
  33. Commercial name                          : Dolby TrueHD with Dolby Atmos
  34. Codec ID                                 : A_TRUEHD
  35. Duration                                 : 2 h 15 min
  36. Bit rate mode                            : Variable
  37. Bit rate                                 : 2 957 kb/s
  38. Maximum bit rate                         : 4 770 kb/s
  39. Channel(s)                               : 8 channels
  40. Channel layout                           : L R C LFE Ls Rs Lb Rb
  41. Sampling rate                            : 48.0 kHz
  42. Frame rate                               : 1 200.000 FPS (40 SPF)
  43. Compression mode                         : Lossless
  44. Stream size                              : 2.80 GiB (7%)
  45. Title                                    : The.Lord.of.the.Rings.The.Return.of.the.King.2003.DISC2.EXTENDED.2160p.BluRay.x264.8bit.SDR.DTS-HD.MA.TrueHD.7.1.Atmos-SWTYBLZ
  46. Language                                 : English
  47. Default                                  : Yes
  48. Forced                                   : No
  49. Original source medium                   : Blu-ray
  50. Number of dynamic objects                : 11
  51. Bed channel count                        : 1 channel
  52. Bed channel configuration                : LFE

  53. Audio #2
  54. ID                                       : 3
  55. Format                                   : DTS XLL
  56. Format/Info                              : Digital Theater Systems
  57. Commercial name                          : DTS-HD Master Audio
  58. Codec ID                                 : A_DTS
  59. Duration                                 : 2 h 15 min
  60. Bit rate mode                            : Variable
  61. Bit rate                                 : 3 549 kb/s
  62. Channel(s)                               : 8 channels
  63. Channel layout                           : C L R LFE Lb Rb Lss Rss
  64. Sampling rate                            : 48.0 kHz
  65. Frame rate                               : 93.750 FPS (512 SPF)
  66. Bit depth                                : 24 bits
  67. Compression mode                         : Lossless
  68. Stream size                              : 3.36 GiB (8%)
  69. Title                                    : The.Lord.of.the.Rings.The.Return.of.the.King.2003.DISC2.EXTENDED.2160p.BluRay.x264.8bit.SDR.DTS-HD.MA.TrueHD.7.1.Atmos-SWTYBLZ
  70. Language                                 : English
  71. Default                                  : No
  72. Forced                                   : No

  73. Audio #3
  74. ID                                       : 4
  75. ID in the original source medium         : 4352 (0x1100)
  76. Format                                   : AC-3
  77. Format/Info                              : Audio Coding 3
  78. Commercial name                          : Dolby Digital
  79. Codec ID                                 : A_AC3
  80. Duration                                 : 2 h 15 min
  81. Bit rate mode                            : Constant
  82. Bit rate                                 : 448 kb/s
  83. Channel(s)                               : 6 channels
  84. Channel layout                           : L R C LFE Ls Rs
  85. Sampling rate                            : 48.0 kHz
  86. Frame rate                               : 31.250 FPS (1536 SPF)
  87. Compression mode                         : Lossy
  88. Stream size                              : 435 MiB (1%)
  89. Title                                    : The.Lord.of.the.Rings.The.Return.of.the.King.2003.DISC2.EXTENDED.2160p.BluRay.x264.8bit.SDR.DTS-HD.MA.TrueHD.7.1.Atmos-SWTYBLZ
  90. Language                                 : English
  91. Service kind                             : Complete Main
  92. Default                                  : No
  93. Forced                                   : No
  94. Original source medium                   : Blu-ray

  95. Text #1
  96. ID                                       : 5
  97. Format                                   : UTF-8
  98. Codec ID                                 : S_TEXT/UTF8
  99. Codec ID/Info                            : UTF-8 Plain Text
  100. Duration                                 : 1 h 58 min
  101. Bit rate                                 : 18 b/s
  102. Count of elements                        : 693
  103. Stream size                              : 16.3 KiB (0%)
  104. Title                                    : English-SRT
  105. Language                                 : English
  106. Default                                  : Yes
  107. Forced                                   : No

  108. Text #2
  109. ID                                       : 6
  110. ID in the original source medium         : 4768 (0x12A0)
  111. Format                                   : PGS
  112. Muxing mode                              : zlib
  113. Codec ID                                 : S_HDMV/PGS
  114. Codec ID/Info                            : Picture based subtitle format used on BDs/HD-DVDs
  115. Duration                                 : 1 h 58 min
  116. Bit rate                                 : 13.6 kb/s
  117. Count of elements                        : 1730
  118. Stream size                              : 11.6 MiB (0%)
  119. Title                                    : English-PGS
  120. Language                                 : English
  121. Default                                  : No
  122. Forced                                   : No
  123. Original source medium                   : Blu-ray

  124. Text #3
  125. ID                                       : 7
  126. ID in the original source medium         : 4769 (0x12A1)
  127. Format                                   : PGS
  128. Muxing mode                              : zlib
  129. Codec ID                                 : S_HDMV/PGS
  130. Codec ID/Info                            : Picture based subtitle format used on BDs/HD-DVDs
  131. Duration                                 : 2 h 15 min
  132. Bit rate                                 : 8 663 b/s
  133. Count of elements                        : 1214
  134. Stream size                              : 8.38 MiB (0%)
  135. Title                                    : French-PGS
  136. Language                                 : French
  137. Default                                  : No
  138. Forced                                   : No
  139. Original source medium                   : Blu-ray

  140. Text #4
  141. ID                                       : 8
  142. ID in the original source medium         : 4770 (0x12A2)
  143. Format                                   : PGS
  144. Muxing mode                              : zlib
  145. Codec ID                                 : S_HDMV/PGS
  146. Codec ID/Info                            : Picture based subtitle format used on BDs/HD-DVDs
  147. Duration                                 : 1 h 59 min
  148. Bit rate                                 : 17.2 kb/s
  149. Count of elements                        : 1674
  150. Stream size                              : 14.7 MiB (0%)
  151. Title                                    : German-PGS
  152. Language                                 : German
  153. Default                                  : No
  154. Forced                                   : No
  155. Original source medium                   : Blu-ray

  156. Text #5
  157. ID                                       : 9
  158. ID in the original source medium         : 4771 (0x12A3)
  159. Format                                   : PGS
  160. Muxing mode                              : zlib
  161. Codec ID                                 : S_HDMV/PGS
  162. Codec ID/Info                            : Picture based subtitle format used on BDs/HD-DVDs
  163. Duration                                 : 1 h 58 min
  164. Bit rate                                 : 14.2 kb/s
  165. Count of elements                        : 1748
  166. Stream size                              : 12.1 MiB (0%)
  167. Title                                    : Italian-PGS
  168. Language                                 : Italian
  169. Default                                  : No
  170. Forced                                   : No
  171. Original source medium                   : Blu-ray

  172. Text #6
  173. ID                                       : 10
  174. ID in the original source medium         : 4772 (0x12A4)
  175. Format                                   : PGS
  176. Muxing mode                              : zlib
  177. Codec ID                                 : S_HDMV/PGS
  178. Codec ID/Info                            : Picture based subtitle format used on BDs/HD-DVDs
  179. Duration                                 : 2 h 15 min
  180. Bit rate                                 : 10.1 kb/s
  181. Count of elements                        : 1412
  182. Stream size                              : 9.75 MiB (0%)
  183. Title                                    : Spanish-PGS
  184. Language                                 : Spanish
  185. Default                                  : No
  186. Forced                                   : No
  187. Original source medium                   : Blu-ray

  188. Text #7
  189. ID                                       : 11
  190. ID in the original source medium         : 4773 (0x12A5)
  191. Format                                   : PGS
  192. Muxing mode                              : zlib
  193. Codec ID                                 : S_HDMV/PGS
  194. Codec ID/Info                            : Picture based subtitle format used on BDs/HD-DVDs
  195. Duration                                 : 1 h 52 min
  196. Bit rate                                 : 11.1 kb/s
  197. Count of elements                        : 1184
  198. Stream size                              : 8.94 MiB (0%)
  199. Title                                    : Dutch-PGS
  200. Language                                 : Dutch
  201. Default                                  : No
  202. Forced                                   : No
  203. Original source medium                   : Blu-ray

  204. Text #8
  205. ID                                       : 12
  206. ID in the original source medium         : 4774 (0x12A6)
  207. Format                                   : PGS
  208. Muxing mode                              : zlib
  209. Codec ID                                 : S_HDMV/PGS
  210. Codec ID/Info                            : Picture based subtitle format used on BDs/HD-DVDs
  211. Duration                                 : 1 h 58 min
  212. Bit rate                                 : 10.1 kb/s
  213. Count of elements                        : 1406
  214. Stream size                              : 8.57 MiB (0%)
  215. Title                                    : Chinese-PGS
  216. Language                                 : Chinese
  217. Default                                  : No
  218. Forced                                   : No
  219. Original source medium                   : Blu-ray

  220. Text #9
  221. ID                                       : 13
  222. ID in the original source medium         : 4775 (0x12A7)
  223. Format                                   : PGS
  224. Muxing mode                              : zlib
  225. Codec ID                                 : S_HDMV/PGS
  226. Codec ID/Info                            : Picture based subtitle format used on BDs/HD-DVDs
  227. Duration                                 : 1 h 58 min
  228. Bit rate                                 : 10.3 kb/s
  229. Count of elements                        : 1406
  230. Stream size                              : 8.74 MiB (0%)
  231. Title                                    : Chinese-PGS
  232. Language                                 : Chinese
  233. Default                                  : No
  234. Forced                                   : No
  235. Original source medium                   : Blu-ray

  236. Text #10
  237. ID                                       : 14
  238. ID in the original source medium         : 4776 (0x12A8)
  239. Format                                   : PGS
  240. Muxing mode                              : zlib
  241. Codec ID                                 : S_HDMV/PGS
  242. Codec ID/Info                            : Picture based subtitle format used on BDs/HD-DVDs
  243. Duration                                 : 1 h 58 min
  244. Bit rate                                 : 9 667 b/s
  245. Count of elements                        : 1406
  246. Stream size                              : 8.22 MiB (0%)
  247. Title                                    : Korean-PGS
  248. Language                                 : Korean
  249. Default                                  : No
  250. Forced                                   : No
  251. Original source medium                   : Blu-ray

  252. Text #11
  253. ID                                       : 15
  254. ID in the original source medium         : 4777 (0x12A9)
  255. Format                                   : PGS
  256. Muxing mode                              : zlib
  257. Codec ID                                 : S_HDMV/PGS
  258. Codec ID/Info                            : Picture based subtitle format used on BDs/HD-DVDs
  259. Duration                                 : 2 h 15 min
  260. Bit rate                                 : 9 490 b/s
  261. Count of elements                        : 1264
  262. Stream size                              : 9.18 MiB (0%)
  263. Title                                    : Spanish-PGS
  264. Language                                 : Spanish
  265. Default                                  : No
  266. Forced                                   : No
  267. Original source medium                   : Blu-ray

  268. Text #12
  269. ID                                       : 16
  270. ID in the original source medium         : 4778 (0x12AA)
  271. Format                                   : PGS
  272. Muxing mode                              : zlib
  273. Codec ID                                 : S_HDMV/PGS
  274. Codec ID/Info                            : Picture based subtitle format used on BDs/HD-DVDs
  275. Duration                                 : 1 h 58 min
  276. Bit rate                                 : 10.3 kb/s
  277. Count of elements                        : 1398
  278. Stream size                              : 8.76 MiB (0%)
  279. Title                                    : Czech-PGS
  280. Language                                 : Czech
  281. Default                                  : No
  282. Forced                                   : No
  283. Original source medium                   : Blu-ray

  284. Text #13
  285. ID                                       : 17
  286. ID in the original source medium         : 4779 (0x12AB)
  287. Format                                   : PGS
  288. Muxing mode                              : zlib
  289. Codec ID                                 : S_HDMV/PGS
  290. Codec ID/Info                            : Picture based subtitle format used on BDs/HD-DVDs
  291. Duration                                 : 2 h 15 min
  292. Bit rate                                 : 8 625 b/s
  293. Count of elements                        : 998
  294. Stream size                              : 8.35 MiB (0%)
  295. Title                                    : Danish-PGS
  296. Language                                 : Danish
  297. Default                                  : No
  298. Forced                                   : No
  299. Original source medium                   : Blu-ray

  300. Text #14
  301. ID                                       : 18
  302. ID in the original source medium         : 4780 (0x12AC)
  303. Format                                   : PGS
  304. Muxing mode                              : zlib
  305. Codec ID                                 : S_HDMV/PGS
  306. Codec ID/Info                            : Picture based subtitle format used on BDs/HD-DVDs
  307. Duration                                 : 2 h 15 min
  308. Bit rate                                 : 9 066 b/s
  309. Count of elements                        : 1286
  310. Stream size                              : 8.77 MiB (0%)
  311. Title                                    : Finnnish-PGS
  312. Language                                 : Finnish
  313. Default                                  : No
  314. Forced                                   : No
  315. Original source medium                   : Blu-ray

  316. Text #15
  317. ID                                       : 19
  318. ID in the original source medium         : 4781 (0x12AD)
  319. Format                                   : PGS
  320. Muxing mode                              : zlib
  321. Codec ID                                 : S_HDMV/PGS
  322. Codec ID/Info                            : Picture based subtitle format used on BDs/HD-DVDs
  323. Duration                                 : 2 h 15 min
  324. Bit rate                                 : 10.9 kb/s
  325. Count of elements                        : 1408
  326. Stream size                              : 10.5 MiB (0%)
  327. Title                                    : Greek-PGS
  328. Language                                 : Greek
  329. Default                                  : No
  330. Forced                                   : No
  331. Original source medium                   : Blu-ray

  332. Text #16
  333. ID                                       : 20
  334. ID in the original source medium         : 4782 (0x12AE)
  335. Format                                   : PGS
  336. Muxing mode                              : zlib
  337. Codec ID                                 : S_HDMV/PGS
  338. Codec ID/Info                            : Picture based subtitle format used on BDs/HD-DVDs
  339. Duration                                 : 2 h 15 min
  340. Bit rate                                 : 8 194 b/s
  341. Count of elements                        : 950
  342. Stream size                              : 7.93 MiB (0%)
  343. Title                                    : Norwegian-PGS
  344. Language                                 : Norwegian
  345. Default                                  : No
  346. Forced                                   : No
  347. Original source medium                   : Blu-ray

  348. Text #17
  349. ID                                       : 21
  350. ID in the original source medium         : 4783 (0x12AF)
  351. Format                                   : PGS
  352. Muxing mode                              : zlib
  353. Codec ID                                 : S_HDMV/PGS
  354. Codec ID/Info                            : Picture based subtitle format used on BDs/HD-DVDs
  355. Duration                                 : 1 h 58 min
  356. Bit rate                                 : 10.5 kb/s
  357. Count of elements                        : 1332
  358. Stream size                              : 8.92 MiB (0%)
  359. Title                                    : Polish-PGS
  360. Language                                 : Polish
  361. Default                                  : No
  362. Forced                                   : No
  363. Original source medium                   : Blu-ray

  364. Text #18
  365. ID                                       : 22
  366. ID in the original source medium         : 4784 (0x12B0)
  367. Format                                   : PGS
  368. Muxing mode                              : zlib
  369. Codec ID                                 : S_HDMV/PGS
  370. Codec ID/Info                            : Picture based subtitle format used on BDs/HD-DVDs
  371. Duration                                 : 2 h 15 min
  372. Bit rate                                 : 8 798 b/s
  373. Count of elements                        : 966
  374. Stream size                              : 8.51 MiB (0%)
  375. Title                                    : Swedish-PGS
  376. Language                                 : Swedish
  377. Default                                  : No
  378. Forced                                   : No
  379. Original source medium                   : Blu-ray

  380. Text #19
  381. ID                                       : 23
  382. ID in the original source medium         : 4785 (0x12B1)
  383. Format                                   : PGS
  384. Muxing mode                              : zlib
  385. Codec ID                                 : S_HDMV/PGS
  386. Codec ID/Info                            : Picture based subtitle format used on BDs/HD-DVDs
  387. Duration                                 : 1 h 52 min
  388. Bit rate                                 : 9 746 b/s
  389. Count of elements                        : 1278
  390. Stream size                              : 7.87 MiB (0%)
  391. Title                                    : Thai-PGS
  392. Language                                 : Thai
  393. Default                                  : No
  394. Forced                                   : No
  395. Original source medium                   : Blu-ray

  396. Text #20
  397. ID                                       : 24
  398. ID in the original source medium         : 4790 (0x12B6)
  399. Format                                   : PGS
  400. Muxing mode                              : zlib
  401. Codec ID                                 : S_HDMV/PGS
  402. Codec ID/Info                            : Picture based subtitle format used on BDs/HD-DVDs
  403. Duration                                 : 1 h 58 min
  404. Bit rate                                 : 10.9 kb/s
  405. Count of elements                        : 1316
  406. Stream size                              : 9.30 MiB (0%)
  407. Title                                    : Japanese-PGS
  408. Language                                 : Japanese
  409. Default                                  : No
  410. Forced                                   : No
  411. Original source medium                   : Blu-ray

  412. Menu
  413. 00:00:00.000                             : en:Chapter 01
  414. 00:01:03.480                             : en:Chapter 02
  415. 00:10:11.110                             : en:Chapter 03
  416. 00:12:01.220                             : en:Chapter 04
  417. 00:12:37.631                             : en:Chapter 05
  418. 00:14:11.058                             : en:Chapter 06
  419. 00:15:18.083                             : en:Chapter 07
  420. 00:21:19.945                             : en:Chapter 08
  421. 00:22:25.302                             : en:Chapter 09
  422. 00:24:50.322                             : en:Chapter 10
  423. 00:29:04.367                             : en:Chapter 11
  424. 00:31:11.828                             : en:Chapter 12
  425. 00:36:06.998                             : en:Chapter 13
  426. 00:37:37.421                             : en:Chapter 14
  427. 00:39:23.569                             : en:Chapter 15
  428. 00:40:16.163                             : en:Chapter 16
  429. 00:41:00.416                             : en:Chapter 17
  430. 00:43:36.113                             : en:Chapter 18
  431. 00:45:38.694                             : en:Chapter 19
  432. 00:46:45.761                             : en:Chapter 20
  433. 00:49:01.730                             : en:Chapter 21
  434. 00:49:53.824                             : en:Chapter 22
  435. 00:56:49.364                             : en:Chapter 23
  436. 00:58:32.091                             : en:Chapter 24
  437. 01:00:00.888                             : en:Chapter 25
  438. 01:00:51.105                             : en:Chapter 26
  439. 01:04:32.785                             : en:Chapter 27
  440. 01:08:44.411                             : en:Chapter 28
  441. 01:12:00.149                             : en:Chapter 29
  442. 01:15:34.071                             : en:Chapter 30
  443. 01:17:47.287                             : en:Chapter 31
  444. 01:18:49.641                             : en:Chapter 32
  445. 01:20:46.091                             : en:Chapter 33
  446. 01:21:19.916                             : en:Chapter 34
  447. 01:26:58.671                             : en:Chapter 35
  448. 01:29:12.055                             : en:Chapter 36
  449. 01:32:41.430                             : en:Chapter 37
  450. 01:35:04.490                             : en:Chapter 38
  451. 01:39:57.157                             : en:Chapter 39
  452. 01:44:39.106                             : en:Chapter 40
  453. 01:53:58.081                             : en:Chapter 41
  454. 02:05:05.247                             : en:Chapter 42
复制代码
































   




本帖隐藏的下载地址需要VIP会员才可阅读,您需要升级才可阅读,点击这里升级VIP
回复

使用道具 举报

懒得打字嘛,点击右侧快捷回复 【右侧内容,后台自定义】
您需要登录后才可以回帖 登录 | 立即注册

本版积分规则

Archiver|手机版|小黑屋| 中国高清网 |网站地图 

GMT+8, 2022-6-27 14:34 , Processed in 0.168204 second(s), 27 queries .

Powered by HDchina X3.4

Copyright 2017-2019©HDchina.All right reserved

返回顶部 联系我们