查看: 200|回复: 0

[8bit.SDR] 精神错乱/爆怒时速 Unhinged.2020.2160p.BluRay.x264.8bit.SDR.DTS-HD.MA.TrueHD.7.1.Atmos-SWTYBLZ 18.79GB

[复制链接]
蓝光币
241831 枚
发表于 2020-12-2 18:43:01 | 显示全部楼层 |阅读模式




译  名 精神庞杂 / 爆怒时速(港) / 精神变态 / 超危险驾驶(台)
片  名 Unhinged
年  代 2020
产  地 美国
类  别 惊悚
语  言 英语
上映日期 2020-07-31(澳大利亚) / 2020-08-21(美国)
IMDb评分  6.2/10 from 7628 users
IMDb链接  https://www.imdb.com/title/tt10059518
豆瓣评分 6.1/10 from 209 users
豆瓣链接 https://movie.douban.com/subject/33442707/
片  长 90分钟
导  演 德瑞克·伯特 Derrick Borte
编  剧 卡尔·埃尔斯沃斯 Carl Ellsworth
主  演 罗素·克劳 Russell Crowe
       吉米·辛普森 Jimmi Simpson
       加布里埃尔·贝特曼 Gabriel Bateman
       凯伦·皮斯托里斯 Caren Pistorius
       迈克尔·帕帕约翰 Michael Papajohn
       安妮·雷登 Anne Leighton
       西尔维娅·格雷丝·克里姆 Sylvia Grace Crim
       露西·浮士德 Lucy Faust
       奥斯汀·麦肯齐 Austin P. McKenzie
       萨曼莎·博利厄 Samantha Beaulieu
       唐娜·杜普兰提尔 Donna Duplantier
       戈登·德克海默 Gordon Dexheimer
       Brett Smrz


标  签 惊悚 | 犯罪 | 罗素·克劳 | 罗素克劳 | 美国 | 2020 | 悬疑 | 美国电影

简  介  

  报告两辆车路上发生磨擦,“公路泄愤”升级:克劳饰演的男人抑制不住愤慨发飙了,拿着锤子和刀追到了对方母子家里,破坏、跟踪、撞车、纠缠身旁人……

  1. Video
  2. ID                                       : 1
  3. Format                                   : AVC
  4. Format/Info                              : Advanced Video Codec
  5. Format profile                           : [email protected]
  6. Format settings                          : CABAC / 5 Ref Frames
  7. Format settings, CABAC                   : Yes
  8. Format settings, Reference frames        : 5 frames
  9. Codec ID                                 : V_MPEG4/ISO/AVC
  10. Duration                                 : 1 h 31 min
  11. Bit rate                                 : 21.7 Mb/s
  12. Width                                    : 3 840 pixels
  13. Height                                   : 1 600 pixels
  14. Display aspect ratio                     : 2.40:1
  15. Frame rate mode                          : Constant
  16. Frame rate                               : 24.000 FPS
  17. Color space                              : YUV
  18. Chroma subsampling                       : 4:2:0
  19. Bit depth                                : 8 bits
  20. Scan type                                : Progressive
  21. Bits/(Pixel*Frame)                       : 0.147
  22. Stream size                              : 13.8 GiB (74%)
  23. Title                                    : Unhinged.2020.2160p.BluRay.x264.8bit.SDR.DTS-HD.MA.TrueHD.7.1.Atmos-SWTYBLZ
  24. Writing library                          : x264 core 157 r2935 545de2f
  25. Encoding settings                        : cabac=1 / ref=5 / deblock=1:-1:-1 / analyse=0x3:0x113 / me=umh / subme=10 / psy=1 / psy_rd=1.00:0.15 / mixed_ref=1 / me_range=48 / chroma_me=1 / trellis=2 / 8x8dct=1 / cqm=0 / deadzone=21,11 / fast_pskip=1 / chroma_qp_offset=-3 / threads=48 / lookahead_threads=4 / sliced_threads=0 / nr=0 / decimate=0 / interlaced=0 / bluray_compat=0 / constrained_intra=0 / bframes=3 / b_pyramid=2 / b_adapt=2 / b_bias=0 / direct=3 / weightb=1 / open_gop=0 / weightp=2 / keyint=250 / keyint_min=24 / scenecut=40 / intra_refresh=0 / rc_lookahead=50 / rc=crf / mbtree=1 / crf=18.0 / qcomp=0.60 / qpmin=0 / qpmax=69 / qpstep=4 / ip_ratio=1.40 / aq=1:1.00
  26. Default                                  : Yes
  27. Forced                                   : No

  28. Audio #1
  29. ID                                       : 2
  30. ID in the original source medium         : 4353 (0x1101)
  31. Format                                   : MLP FBA 16-ch
  32. Format/Info                              : Meridian Lossless Packing FBA with 16-channel presentation
  33. Commercial name                          : Dolby TrueHD with Dolby Atmos
  34. Codec ID                                 : A_TRUEHD
  35. Duration                                 : 1 h 31 min
  36. Bit rate mode                            : Variable
  37. Bit rate                                 : 3 348 kb/s
  38. Maximum bit rate                         : 5 904 kb/s
  39. Channel(s)                               : 8 channels
  40. Channel layout                           : L R C LFE Ls Rs Lb Rb
  41. Sampling rate                            : 48.0 kHz
  42. Frame rate                               : 1 200.000 FPS (40 SPF)
  43. Compression mode                         : Lossless
  44. Stream size                              : 2.13 GiB (11%)
  45. Title                                    : Unhinged.2020.2160p.BluRay.x264.8bit.SDR.DTS-HD.MA.TrueHD.7.1.Atmos-SWTYBLZ
  46. Language                                 : English
  47. Default                                  : Yes
  48. Forced                                   : No
  49. Original source medium                   : Blu-ray
  50. Number of dynamic objects                : 13
  51. Bed channel count                        : 1 channel
  52. Bed channel configuration                : LFE

  53. Audio #2
  54. ID                                       : 3
  55. Format                                   : DTS XLL
  56. Format/Info                              : Digital Theater Systems
  57. Commercial name                          : DTS-HD Master Audio
  58. Codec ID                                 : A_DTS
  59. Duration                                 : 1 h 31 min
  60. Bit rate mode                            : Variable
  61. Bit rate                                 : 3 662 kb/s
  62. Channel(s)                               : 8 channels
  63. Channel layout                           : C L R LFE Lb Rb Lss Rss
  64. Sampling rate                            : 48.0 kHz
  65. Frame rate                               : 93.750 FPS (512 SPF)
  66. Bit depth                                : 24 bits
  67. Compression mode                         : Lossless
  68. Stream size                              : 2.33 GiB (12%)
  69. Title                                    : Unhinged.2020.2160p.BluRay.x264.8bit.SDR.DTS-HD.MA.TrueHD.7.1.Atmos-SWTYBLZ
  70. Language                                 : English
  71. Default                                  : No
  72. Forced                                   : No

  73. Audio #3
  74. ID                                       : 4
  75. Format                                   : AC-3
  76. Format/Info                              : Audio Coding 3
  77. Commercial name                          : Dolby Digital
  78. Codec ID                                 : A_AC3
  79. Duration                                 : 1 h 31 min
  80. Bit rate mode                            : Constant
  81. Bit rate                                 : 640 kb/s
  82. Channel(s)                               : 6 channels
  83. Channel layout                           : L R C LFE Ls Rs
  84. Sampling rate                            : 48.0 kHz
  85. Frame rate                               : 31.250 FPS (1536 SPF)
  86. Compression mode                         : Lossy
  87. Stream size                              : 417 MiB (2%)
  88. Title                                    : Unhinged.2020.2160p.BluRay.x264.8bit.SDR.DTS-HD.MA.TrueHD.7.1.Atmos-SWTYBLZ
  89. Language                                 : English
  90. Service kind                             : Complete Main
  91. Default                                  : No
  92. Forced                                   : No

  93. Text #1
  94. ID                                       : 5
  95. Format                                   : UTF-8
  96. Codec ID                                 : S_TEXT/UTF8
  97. Codec ID/Info                            : UTF-8 Plain Text
  98. Duration                                 : 1 h 23 min
  99. Bit rate                                 : 50 b/s
  100. Count of elements                        : 1042
  101. Stream size                              : 30.8 KiB (0%)
  102. Title                                    : English-SRT
  103. Language                                 : English
  104. Default                                  : Yes
  105. Forced                                   : No

  106. Text #2
  107. ID                                       : 6
  108. ID in the original source medium         : 4768 (0x12A0)
  109. Format                                   : PGS
  110. Muxing mode                              : zlib
  111. Codec ID                                 : S_HDMV/PGS
  112. Codec ID/Info                            : Picture based subtitle format used on BDs/HD-DVDs
  113. Duration                                 : 1 h 26 min
  114. Bit rate                                 : 21.5 kb/s
  115. Count of elements                        : 1634
  116. Stream size                              : 13.3 MiB (0%)
  117. Title                                    : German-PGS
  118. Language                                 : German
  119. Default                                  : No
  120. Forced                                   : No
  121. Original source medium                   : Blu-ray

  122. Text #3
  123. ID                                       : 7
  124. ID in the original source medium         : 4769 (0x12A1)
  125. Format                                   : PGS
  126. Muxing mode                              : zlib
  127. Codec ID                                 : S_HDMV/PGS
  128. Codec ID/Info                            : Picture based subtitle format used on BDs/HD-DVDs
  129. Duration                                 : 1 h 3 min
  130. Bit rate                                 : 328 b/s
  131. Count of elements                        : 18
  132. Stream size                              : 153 KiB (0%)
  133. Title                                    : German-FORCED-PGS
  134. Language                                 : German
  135. Default                                  : No
  136. Forced                                   : No
  137. Original source medium                   : Blu-ray

  138. Menu
  139. 00:00:00.000                             : en:Chapter 01
  140. 00:08:11.375                             : en:Chapter 02
  141. 00:16:39.583                             : en:Chapter 03
  142. 00:28:42.083                             : en:Chapter 04
  143. 00:40:05.083                             : en:Chapter 05
  144. 00:49:51.958                             : en:Chapter 06
  145. 01:02:08.041                             : en:Chapter 07
  146. 01:12:07.791                             : en:Chapter 08
  147. 01:21:50.875                             : en:Chapter 09
复制代码





























   




本帖隐藏的下载地址需要VIP会员才可阅读,您需要升级才可阅读,点击这里升级VIP
回复

使用道具 举报

懒得打字嘛,点击右侧快捷回复 【右侧内容,后台自定义】
您需要登录后才可以回帖 登录 | 立即注册

本版积分规则

Archiver|手机版|小黑屋| 中国高清网 |网站地图 

GMT+8, 2022-6-27 14:12 , Processed in 0.105297 second(s), 27 queries .

Powered by HDchina X3.4

Copyright 2017-2019©HDchina.All right reserved

返回顶部 联系我们