查看: 245|回复: 1

[10bit.HDR] 生化危机2:启示录/恶灵古堡II:启示录 Resident.Evil.Apocalypse.2004.THEATRICAL.2160p.UHD.BluRay.x265.10bit.HDR.TrueHD.7.1.Atmos-FLAME 20.41GB

[复制链接]

 成长值: 8350

级别:资源管理组

注册时间
2017-10-20
最后登录
2020-11-29
听众
1
收听
0
主题
106079
蓝光币
219225 枚
贡献
21715 点
发表于 2020-11-21 23:35:08 | 显示全部楼层 |阅读模式




译  名 生化危机2:启迪录 / 恶灵古堡II:启迪录 / 生化危机之消灭生还者
片  名 Resident Evil: Apocalypse
年  代 2004
产  地 德国 / 法国 / 英国 / 加拿大 / 美国
类  别 行动 / 科幻 / 可骇
语  言 英语
上映日期 2004-09-10(加拿大/美国)
IMDb评分  6.2/10 from 182618 users
IMDb链接  https://www.imdb.com/title/tt0318627
豆瓣评分 7.8/10 from 171567 users
豆瓣链接 https://movie.douban.com/subject/1308752/
片  长 94分钟
导  演 亚历山大·维特 Alexander Witt
编  剧 保罗·安德森 Paul W.S. Anderson
主  演 米拉·乔沃维奇 Milla Jovovich
       西耶娜·盖尔利 Sienna Guillory
       奥德·菲尔 Oded Fehr
       托马斯·克莱舒曼 Thomas Kretschmann
       Sophie Vavasseur
       何家蓓 Sandrine Holt


标  签 科幻 | 生化危机 | 美国 | 行动 | 惊悚 | 可骇 | 丧尸 | 游戏改编

简  介  

  T病毒在蜂巢中肆虐并很快打破了空中上浣熊市的安静,丧尸起头在人群中出现,安布雷拉公司将全部城市封锁,计划利用核兵器摧毁城市以袒护病毒外泄的究竟。被安布雷拉注射T病毒使身材才能远超凡人的爱丽丝(米拉·乔沃维奇 Milla Jovovich 饰)由昏睡中醒来,她在紊乱的浣熊市与防卫队员瓦伦汀(Sienna Guillory 饰)、记者泰莉等人组成队伍,试图找到脱身之法。另一方面,安布雷拉公司的科学家艾肯佛博士为搭救被公司抛弃在城中的女儿安琪拉,以供给逃生方式为价格请求爱丽丝和防卫职员卡洛斯(Oded Fehr 饰)两组人马帮助。而安布雷拉公司派出了由环保份子麦特所革新成的“复仇邪神”阻止这一切……
  本片获2005年加拿大吉尼奖最好音效剪辑奖、金盘奖。是生化危机系列电影的第二部。

  1. Video
  2. ID                                       : 1
  3. Format                                   : HEVC
  4. Format/Info                              : High Efficiency Video Coding
  5. Format profile                           : Main 10@L5.1@High
  6. HDR format                               : SMPTE ST 2086, HDR10 compatible
  7. Codec ID                                 : V_MPEGH/ISO/HEVC
  8. Duration                                 : 1 h 33 min
  9. Bit rate                                 : 26.2 Mb/s
  10. Width                                    : 3 840 pixels
  11. Height                                   : 1 606 pixels
  12. Display aspect ratio                     : 2.40:1
  13. Frame rate mode                          : Constant
  14. Frame rate                               : 23.976 (24000/1001/45378) FPS
  15. Color space                              : YUV
  16. Chroma subsampling                       : 4:2:0 (Type 2)
  17. Bit depth                                : 10 bits
  18. Bits/(Pixel*Frame)                       : 0.177
  19. Stream size                              : 17.2 GiB (85%)
  20. Writing library                          : x265 3.4+26-ga82c6c7a7:[Windows][MSVC 1927][64 bit] 10bit
  21. Encoding settings                        : cpuid=1111039 / frame-threads=4 / numa-pools=24 / wpp / no-pmode / no-pme / no-psnr / no-ssim / log-level=2 / input-csp=1 / input-res=3840x1606 / interlace=0 / total-frames=134928 / level-idc=51 / high-tier=1 / uhd-bd=0 / ref=4 / no-allow-non-conformance / repeat-headers / annexb / aud / hrd / info / hash=0 / no-temporal-layers / no-open-gop / min-keyint=23 / keyint=250 / gop-lookahead=0 / bframes=4 / b-adapt=2 / b-pyramid / bframe-bias=0 / rc-lookahead=25 / lookahead-slices=4 / scenecut=40 / hist-scenecut=0 / radl=0 / no-splice / no-intra-refresh / ctu=64 / min-cu-size=8 / rect / no-amp / max-tu-size=32 / tu-inter-depth=1 / tu-intra-depth=1 / limit-tu=0 / rdoq-level=2 / dynamic-rd=0.00 / no-ssim-rd / signhide / no-tskip / nr-intra=0 / nr-inter=0 / no-constrained-intra / strong-intra-smoothing / max-merge=3 / limit-refs=3 / limit-modes / me=3 / subme=3 / merange=57 / temporal-mvp / no-frame-dup / no-hme / weightp / no-weightb / no-analyze-src-pics / deblock=-3:-3 / no-sao / no-sao-non-deblock / rd=4 / selective-sao=0 / no-early-skip / rskip / no-fast-intra / no-tskip-fast / no-cu-lossless / no-b-intra / no-splitrd-skip / rdpenalty=0 / psy-rd=2.00 / psy-rdoq=1.00 / no-rd-refine / no-lossless / cbqpoffs=0 / crqpoffs=0 / rc=crf / crf=14.0 / qcomp=0.60 / qpstep=4 / stats-write=0 / stats-read=0 / vbv-maxrate=160000 / vbv-bufsize=160000 / vbv-init=0.9 / min-vbv-fullness=50.0 / max-vbv-fullness=80.0 / crf-max=0.0 / crf-min=0.0 / ipratio=1.40 / pbratio=1.30 / aq-mode=2 / aq-strength=1.00 / cutree / zone-count=0 / no-strict-cbr / qg-size=32 / no-rc-grain / qpmax=69 / qpmin=0 / no-const-vbv / sar=1 / overscan=0 / videoformat=5 / range=0 / colorprim=9 / transfer=16 / colormatrix=9 / chromaloc=1 / chromaloc-top=2 / chromaloc-bottom=2 / display-window=0 / master-display=G(13250,34500)B(7500,3000)R(34000,16000)WP(15635,16450)L(40000000,50) / cll=992,781 / min-luma=0 / max-luma=1023 / log2-max-poc-lsb=8 / vui-timing-info / vui-hrd-info / slices=1 / no-opt-qp-pps / no-opt-ref-list-length-pps / no-multi-pass-opt-rps / scenecut-bias=0.05 / hist-threshold=0.03 / no-opt-cu-delta-qp / no-aq-motion / hdr10 / hdr10-opt / no-dhdr10-opt / no-idr-recovery-sei / analysis-reuse-level=0 / analysis-save-reuse-level=0 / analysis-load-reuse-level=0 / scale-factor=0 / refine-intra=0 / refine-inter=0 / refine-mv=1 / refine-ctu-distortion=0 / no-limit-sao / ctu-info=0 / no-lowpass-dct / refine-analysis-type=0 / copy-pic=1 / max-ausize-factor=1.0 / no-dynamic-refine / no-single-sei / no-hevc-aq / no-svt / no-field / qp-adaptation-range=1.00 / no-scenecut-aware-qpconformance-window-offsets / right=0 / bottom=0 / decoder-max-rate=0 / no-vbv-live-multi-pass
  22. Default                                  : Yes
  23. Forced                                   : No
  24. Color range                              : Limited
  25. Color primaries                          : BT.2020
  26. Transfer characteristics                 : PQ
  27. Matrix coefficients                      : BT.2020 non-constant
  28. Mastering display color primaries        : Display P3
  29. Mastering display luminance              : min: 0.0050 cd/m2, max: 4000 cd/m2
  30. Maximum Content Light Level              : 992 cd/m2
  31. Maximum Frame-Average Light Level        : 781 cd/m2
  32. Audio #1
  33. ID                                       : 2
  34. Format                                   : MLP FBA 16-ch
  35. Format/Info                              : Meridian Lossless Packing FBA with 16-channel presentation
  36. Commercial name                          : Dolby TrueHD with Dolby Atmos
  37. Codec ID                                 : A_TRUEHD
  38. Duration                                 : 1 h 33 min
  39. Bit rate mode                            : Variable
  40. Bit rate                                 : 3 480 kb/s
  41. Maximum bit rate                         : 6 033 kb/s
  42. Channel(s)                               : 8 channels
  43. Channel layout                           : L R C LFE Ls Rs Lb Rb
  44. Sampling rate                            : 48.0 kHz
  45. Frame rate                               : 1 200.000 FPS (40 SPF)
  46. Compression mode                         : Lossless
  47. Stream size                              : 2.28 GiB (11%)
  48. Title                                    : English Dolby Atmos 3480 kbps
  49. Language                                 : English
  50. Default                                  : Yes
  51. Forced                                   : No
  52. Number of dynamic objects                : 11
  53. Bed channel count                        : 1 channel
  54. Bed channel configuration                : LFE
  55. Audio #2
  56. ID                                       : 3
  57. Format                                   : AC-3
  58. Format/Info                              : Audio Coding 3
  59. Commercial name                          : Dolby Digital
  60. Codec ID                                 : A_AC3
  61. Duration                                 : 1 h 33 min
  62. Bit rate mode                            : Constant
  63. Bit rate                                 : 640 kb/s
  64. Channel(s)                               : 6 channels
  65. Channel layout                           : L R C LFE Ls Rs
  66. Sampling rate                            : 48.0 kHz
  67. Frame rate                               : 31.250 FPS (1536 SPF)
  68. Compression mode                         : Lossy
  69. Stream size                              : 429 MiB (2%)
  70. Title                                    : English AC3 640 kbps
  71. Language                                 : English
  72. Service kind                             : Complete Main
  73. Default                                  : No
  74. Forced                                   : No
  75. Text #1
  76. ID                                       : 4
  77. Format                                   : PGS
  78. Codec ID                                 : S_HDMV/PGS
  79. Codec ID/Info                            : Picture based subtitle format used on BDs/HD-DVDs
  80. Duration                                 : 1 h 27 min
  81. Bit rate                                 : 17.7 kb/s
  82. Count of elements                        : 1296
  83. Stream size                              : 11.2 MiB (0%)
  84. Title                                    : English
  85. Language                                 : English
  86. Default                                  : No
  87. Forced                                   : No
  88. Text #2
  89. ID                                       : 5
  90. Format                                   : PGS
  91. Codec ID                                 : S_HDMV/PGS
  92. Codec ID/Info                            : Picture based subtitle format used on BDs/HD-DVDs
  93. Duration                                 : 1 h 32 min
  94. Bit rate                                 : 21.4 kb/s
  95. Count of elements                        : 1719
  96. Stream size                              : 14.2 MiB (0%)
  97. Title                                    : English SDH
  98. Language                                 : English
  99. Default                                  : No
  100. Forced                                   : No
  101. Text #3
  102. ID                                       : 6
  103. Format                                   : PGS
  104. Codec ID                                 : S_HDMV/PGS
  105. Codec ID/Info                            : Picture based subtitle format used on BDs/HD-DVDs
  106. Duration                                 : 1 h 27 min
  107. Bit rate                                 : 17.7 kb/s
  108. Count of elements                        : 1296
  109. Stream size                              : 11.2 MiB (0%)
  110. Title                                    : English
  111. Language                                 : English
  112. Default                                  : No
  113. Forced                                   : No
  114. Text #4
  115. ID                                       : 7
  116. Format                                   : PGS
  117. Codec ID                                 : S_HDMV/PGS
  118. Codec ID/Info                            : Picture based subtitle format used on BDs/HD-DVDs
  119. Duration                                 : 1 h 32 min
  120. Bit rate                                 : 21.4 kb/s
  121. Count of elements                        : 1719
  122. Stream size                              : 14.2 MiB (0%)
  123. Title                                    : English SDH
  124. Language                                 : English
  125. Default                                  : No
  126. Forced                                   : No
  127. Text #5
  128. ID                                       : 8
  129. Format                                   : PGS
  130. Codec ID                                 : S_HDMV/PGS
  131. Codec ID/Info                            : Picture based subtitle format used on BDs/HD-DVDs
  132. Duration                                 : 1 h 32 min
  133. Bit rate                                 : 10.2 kb/s
  134. Count of elements                        : 1422
  135. Stream size                              : 6.78 MiB (0%)
  136. Title                                    : Arabic
  137. Language                                 : Arabic
  138. Default                                  : No
  139. Forced                                   : No
  140. Text #6
  141. ID                                       : 9
  142. Format                                   : PGS
  143. Codec ID                                 : S_HDMV/PGS
  144. Codec ID/Info                            : Picture based subtitle format used on BDs/HD-DVDs
  145. Duration                                 : 1 h 27 min
  146. Bit rate                                 : 16.7 kb/s
  147. Count of elements                        : 1428
  148. Stream size                              : 10.5 MiB (0%)
  149. Title                                    : Chinese
  150. Language                                 : Chinese
  151. Default                                  : No
  152. Forced                                   : No
  153. Text #7
  154. ID                                       : 10
  155. Format                                   : PGS
  156. Codec ID                                 : S_HDMV/PGS
  157. Codec ID/Info                            : Picture based subtitle format used on BDs/HD-DVDs
  158. Duration                                 : 1 h 33 min
  159. Bit rate                                 : 15.5 kb/s
  160. Count of elements                        : 1434
  161. Stream size                              : 10.3 MiB (0%)
  162. Title                                    : Chinese
  163. Language                                 : Chinese
  164. Default                                  : No
  165. Forced                                   : No
  166. Text #8
  167. ID                                       : 11
  168. Format                                   : PGS
  169. Codec ID                                 : S_HDMV/PGS
  170. Codec ID/Info                            : Picture based subtitle format used on BDs/HD-DVDs
  171. Duration                                 : 1 h 33 min
  172. Bit rate                                 : 14.4 kb/s
  173. Count of elements                        : 1128
  174. Stream size                              : 9.60 MiB (0%)
  175. Title                                    : Danish
  176. Language                                 : Danish
  177. Default                                  : No
  178. Forced                                   : No
  179. Text #9
  180. ID                                       : 12
  181. Format                                   : PGS
  182. Codec ID                                 : S_HDMV/PGS
  183. Codec ID/Info                            : Picture based subtitle format used on BDs/HD-DVDs
  184. Duration                                 : 1 h 33 min
  185. Bit rate                                 : 17.4 kb/s
  186. Count of elements                        : 1382
  187. Stream size                              : 11.5 MiB (0%)
  188. Title                                    : Dutch
  189. Language                                 : Dutch
  190. Default                                  : No
  191. Forced                                   : No
  192. Text #10
  193. ID                                       : 13
  194. Format                                   : PGS
  195. Codec ID                                 : S_HDMV/PGS
  196. Codec ID/Info                            : Picture based subtitle format used on BDs/HD-DVDs
  197. Duration                                 : 1 h 27 min
  198. Bit rate                                 : 15.5 kb/s
  199. Count of elements                        : 1206
  200. Stream size                              : 9.75 MiB (0%)
  201. Title                                    : Finnish
  202. Language                                 : Finnish
  203. Default                                  : No
  204. Forced                                   : No
  205. Text #11
  206. ID                                       : 14
  207. Format                                   : PGS
  208. Codec ID                                 : S_HDMV/PGS
  209. Codec ID/Info                            : Picture based subtitle format used on BDs/HD-DVDs
  210. Duration                                 : 1 h 33 min
  211. Bit rate                                 : 19.0 kb/s
  212. Count of elements                        : 1456
  213. Stream size                              : 12.6 MiB (0%)
  214. Title                                    : French
  215. Language                                 : French
  216. Default                                  : No
  217. Forced                                   : No
  218. Text #12
  219. ID                                       : 15
  220. Format                                   : PGS
  221. Codec ID                                 : S_HDMV/PGS
  222. Codec ID/Info                            : Picture based subtitle format used on BDs/HD-DVDs
  223. Duration                                 : 1 h 28 min
  224. Bit rate                                 : 19.5 kb/s
  225. Count of elements                        : 1289
  226. Stream size                              : 12.3 MiB (0%)
  227. Title                                    : Greek
  228. Language                                 : Greek
  229. Default                                  : No
  230. Forced                                   : No
  231. Text #13
  232. ID                                       : 16
  233. Format                                   : PGS
  234. Codec ID                                 : S_HDMV/PGS
  235. Codec ID/Info                            : Picture based subtitle format used on BDs/HD-DVDs
  236. Duration                                 : 1 h 27 min
  237. Bit rate                                 : 14.2 kb/s
  238. Count of elements                        : 1426
  239. Stream size                              : 8.95 MiB (0%)
  240. Title                                    : Hindi
  241. Language                                 : Hindi
  242. Default                                  : No
  243. Forced                                   : No
  244. Text #14
  245. ID                                       : 17
  246. Format                                   : PGS
  247. Codec ID                                 : S_HDMV/PGS
  248. Codec ID/Info                            : Picture based subtitle format used on BDs/HD-DVDs
  249. Duration                                 : 1 h 33 min
  250. Bit rate                                 : 18.9 kb/s
  251. Count of elements                        : 1292
  252. Stream size                              : 12.5 MiB (0%)
  253. Title                                    : Indonesian
  254. Language                                 : Indonesian
  255. Default                                  : No
  256. Forced                                   : No
  257. Text #15
  258. ID                                       : 18
  259. Format                                   : PGS
  260. Codec ID                                 : S_HDMV/PGS
  261. Codec ID/Info                            : Picture based subtitle format used on BDs/HD-DVDs
  262. Duration                                 : 1 h 27 min
  263. Bit rate                                 : 19.6 kb/s
  264. Count of elements                        : 1428
  265. Stream size                              : 12.3 MiB (0%)
  266. Title                                    : Italian
  267. Language                                 : Italian
  268. Default                                  : No
  269. Forced                                   : No
  270. Text #16
  271. ID                                       : 19
  272. Format                                   : PGS
  273. Codec ID                                 : S_HDMV/PGS
  274. Codec ID/Info                            : Picture based subtitle format used on BDs/HD-DVDs
  275. Duration                                 : 1 h 27 min
  276. Bit rate                                 : 12.7 kb/s
  277. Count of elements                        : 1406
  278. Stream size                              : 7.97 MiB (0%)
  279. Title                                    : Japanese
  280. Language                                 : Japanese
  281. Default                                  : No
  282. Forced                                   : No
  283. Text #17
  284. ID                                       : 20
  285. Format                                   : PGS
  286. Codec ID                                 : S_HDMV/PGS
  287. Codec ID/Info                            : Picture based subtitle format used on BDs/HD-DVDs
  288. Duration                                 : 1 h 33 min
  289. Bit rate                                 : 13.8 kb/s
  290. Count of elements                        : 1426
  291. Stream size                              : 9.16 MiB (0%)
  292. Title                                    : Korean
  293. Language                                 : Korean
  294. Default                                  : No
  295. Forced                                   : No
  296. Text #18
  297. ID                                       : 21
  298. Format                                   : PGS
  299. Codec ID                                 : S_HDMV/PGS
  300. Codec ID/Info                            : Picture based subtitle format used on BDs/HD-DVDs
  301. Duration                                 : 1 h 27 min
  302. Bit rate                                 : 16.3 kb/s
  303. Count of elements                        : 1268
  304. Stream size                              : 10.2 MiB (0%)
  305. Title                                    : Norwegian
  306. Language                                 : Norwegian
  307. Default                                  : No
  308. Forced                                   : No
  309. Text #19
  310. ID                                       : 22
  311. Format                                   : PGS
  312. Codec ID                                 : S_HDMV/PGS
  313. Codec ID/Info                            : Picture based subtitle format used on BDs/HD-DVDs
  314. Duration                                 : 1 h 33 min
  315. Bit rate                                 : 17.2 kb/s
  316. Count of elements                        : 1420
  317. Stream size                              : 11.5 MiB (0%)
  318. Title                                    : Polish
  319. Language                                 : Polish
  320. Default                                  : No
  321. Forced                                   : No
  322. Text #20
  323. ID                                       : 23
  324. Format                                   : PGS
  325. Codec ID                                 : S_HDMV/PGS
  326. Codec ID/Info                            : Picture based subtitle format used on BDs/HD-DVDs
  327. Duration                                 : 1 h 33 min
  328. Bit rate                                 : 17.1 kb/s
  329. Count of elements                        : 1412
  330. Stream size                              : 11.3 MiB (0%)
  331. Title                                    : Portuguese
  332. Language                                 : Portuguese
  333. Default                                  : No
  334. Forced                                   : No
  335. Text #21
  336. ID                                       : 24
  337. Format                                   : PGS
  338. Codec ID                                 : S_HDMV/PGS
  339. Codec ID/Info                            : Picture based subtitle format used on BDs/HD-DVDs
  340. Duration                                 : 1 h 33 min
  341. Bit rate                                 : 18.7 kb/s
  342. Count of elements                        : 1428
  343. Stream size                              : 12.4 MiB (0%)
  344. Title                                    : Portuguese
  345. Language                                 : Portuguese
  346. Default                                  : No
  347. Forced                                   : No
  348. Text #22
  349. ID                                       : 25
  350. Format                                   : PGS
  351. Codec ID                                 : S_HDMV/PGS
  352. Codec ID/Info                            : Picture based subtitle format used on BDs/HD-DVDs
  353. Duration                                 : 1 h 33 min
  354. Bit rate                                 : 18.2 kb/s
  355. Count of elements                        : 1428
  356. Stream size                              : 12.1 MiB (0%)
  357. Title                                    : Russian
  358. Language                                 : Russian
  359. Default                                  : No
  360. Forced                                   : No
  361. Text #23
  362. ID                                       : 26
  363. Format                                   : PGS
  364. Codec ID                                 : S_HDMV/PGS
  365. Codec ID/Info                            : Picture based subtitle format used on BDs/HD-DVDs
  366. Duration                                 : 1 h 33 min
  367. Bit rate                                 : 17.1 kb/s
  368. Count of elements                        : 1428
  369. Stream size                              : 11.4 MiB (0%)
  370. Title                                    : Spanish
  371. Language                                 : Spanish
  372. Default                                  : No
  373. Forced                                   : No
  374. Text #24
  375. ID                                       : 27
  376. Format                                   : PGS
  377. Codec ID                                 : S_HDMV/PGS
  378. Codec ID/Info                            : Picture based subtitle format used on BDs/HD-DVDs
  379. Duration                                 : 1 h 27 min
  380. Bit rate                                 : 19.3 kb/s
  381. Count of elements                        : 1432
  382. Stream size                              : 12.1 MiB (0%)
  383. Title                                    : Spanish
  384. Language                                 : Spanish
  385. Default                                  : No
  386. Forced                                   : No
  387. Text #25
  388. ID                                       : 28
  389. Format                                   : PGS
  390. Codec ID                                 : S_HDMV/PGS
  391. Codec ID/Info                            : Picture based subtitle format used on BDs/HD-DVDs
  392. Duration                                 : 1 h 33 min
  393. Bit rate                                 : 14.9 kb/s
  394. Count of elements                        : 1040
  395. Stream size                              : 9.89 MiB (0%)
  396. Title                                    : Swedish
  397. Language                                 : Swedish
  398. Default                                  : No
  399. Forced                                   : No
  400. Text #26
  401. ID                                       : 29
  402. Format                                   : PGS
  403. Codec ID                                 : S_HDMV/PGS
  404. Codec ID/Info                            : Picture based subtitle format used on BDs/HD-DVDs
  405. Duration                                 : 1 h 33 min
  406. Bit rate                                 : 19.8 kb/s
  407. Count of elements                        : 1426
  408. Stream size                              : 13.2 MiB (0%)
  409. Title                                    : Thai
  410. Language                                 : Thai
  411. Default                                  : No
  412. Forced                                   : No
  413. Menu
  414. 00:00:00.000                             : :
  415. 00:05:56.064                             : :
  416. 00:14:52.057                             : :
  417. 00:19:37.843                             : :
  418. 00:24:07.946                             : :
  419. 00:30:44.634                             : :
  420. 00:36:18.926                             : :
  421. 00:42:48.315                             : :
  422. 00:49:02.564                             : :
  423. 00:56:26.508                             : :
  424. 01:00:40.970                             : :
  425. 01:07:08.524                             : :
  426. 01:13:12.721                             : :
  427. 01:18:06.932                             : :
  428. 01:22:26.608                             : :
  429. 01:24:27.854                             : :
复制代码

















   




本帖隐藏的下载地址需要VIP会员才可阅读,您需要升级才可阅读,点击这里升级VIP
回复

使用道具 举报

级别:初级观众 Lv.1

注册时间
2020-11-23
最后登录
2020-11-24
听众
3
收听
0
主题
0
蓝光币
2 枚
贡献
0 点
发表于 5 天前 | 显示全部楼层
精品 生化危机童年噩梦
回复

使用道具 举报

懒得打字嘛,点击右侧快捷回复 【右侧内容,后台自定义】
您需要登录后才可以回帖 登录 | 立即注册

本版积分规则

Archiver|手机版|小黑屋| 中国高清网 ( ICP备17007870号-2 ) |网站地图 

GMT+8, 2020-11-29 19:18 , Processed in 0.228288 second(s), 40 queries .

Powered by HDchina X3.4

Copyright 2017-2019©HDchina.All right reserved

返回顶部 联系我们