查看: 153|回复: 0

[REMUX.HEVC] 冲突/急先锋横扫罪恶城 Serpico.1973.2160p.BluRay.REMUX.HEVC.DTS-HD.MA.5.1-FGT 76.38GB

[复制链接]

 成长值: 8350

级别:资源管理组

注册时间
2017-10-20
最后登录
2020-11-29
听众
1
收听
0
主题
106079
蓝光币
219223 枚
贡献
21715 点
发表于 2020-11-21 23:35:07 | 显示全部楼层 |阅读模式




译  名 抵触 / 急先锋横扫罪行城 / 谢皮科
片  名 Serpico
年  代 1973
产  地 意大利 / 美国
类  别 剧情 / 列传 / 犯罪
语  言 英语 / 西班牙语 / 意大利语
上映日期 1973-12-05
IMDb评分  7.7/10 from 106997 users
IMDb链接  https://www.imdb.com/title/tt0070666
豆瓣评分 7.7/10 from 2369 users
豆瓣链接 https://movie.douban.com/subject/1292857/
片  长 130 分钟
导  演 西德尼·吕美特 Sidney Lumet
编  剧 瓦尔度·绍特 Waldo Salt / 诺曼·韦克斯勒 Norman Wexler
主  演 阿尔·帕西诺 Al Pacino
       约翰·兰道夫 John Randolph
       杰克·基欧 Jack Kehoe
       比夫·麦奎尔 Biff McGuire
       艾伦·瑞奇 Allan Rich


标  签 阿尔·帕西诺 | 美国 | 犯罪 | AlPacino | 1973 | 美国电影 | SidneyLumet | 剧情

简  介  

  法兰克是一个年轻而富有理想的差人,他从巡警起头做起,后来成为卧底差人,虽然他的破案率很高,但他不愿意象其他差人那样收受行贿,这使他显得和其他品德格不入。这类做法也使他身陷危机,由于他的同事们都与他为敌,且不时地谗谄他。当检察组起头观察警局内部的受贿内幕时,他又出头作证,是以更堕入危险当中……

获奖情况  

  第46届奥斯卡金像奖(1974)
  最好男配角(提名) 阿尔·帕西诺
  最好改编剧本(提名) 诺曼·韦克斯勒 / 瓦尔度·绍特

  1. Video #1
  2. ID                                       : 1
  3. ID in the original source medium         : 4113 (0x1011)
  4. Format                                   : HEVC
  5. Format/Info                              : High Efficiency Video Coding
  6. Format profile                           : Main 10@L5.1@High
  7. HDR format                               : SMPTE ST 2086, HDR10 compatible
  8. Codec ID                                 : V_MPEGH/ISO/HEVC
  9. Duration                                 : 2 h 10 min
  10. Bit rate                                 : 66.7 Mb/s
  11. Width                                    : 3 840 pixels
  12. Height                                   : 2 160 pixels
  13. Display aspect ratio                     : 16:9
  14. Frame rate mode                          : Constant
  15. Frame rate                               : 24.000 FPS
  16. Color space                              : YUV
  17. Chroma subsampling                       : 4:2:0 (Type 2)
  18. Bit depth                                : 10 bits
  19. Bits/(Pixel*Frame)                       : 0.335
  20. Stream size                              : 60.6 GiB (79%)
  21. Title                                    : Serpico.1973.2160p.BluRay.REMUX.HEVC.DTS-HD.MA.5.1-FGT
  22. Language                                 : English
  23. Default                                  : Yes
  24. Forced                                   : No
  25. Color range                              : Limited
  26. Color primaries                          : BT.2020
  27. Transfer characteristics                 : PQ
  28. Matrix coefficients                      : BT.2020 non-constant
  29. Mastering display color primaries        : BT.2020
  30. Mastering display luminance              : min: 0.0001 cd/m2, max: 1000 cd/m2
  31. Original source medium                   : Blu-ray

  32. Video #2
  33. ID                                       : 2
  34. ID in the original source medium         : 4117 (0x1015)
  35. Format                                   : HEVC
  36. Format/Info                              : High Efficiency Video Coding
  37. Format profile                           : Main 10@L5.1@High
  38. HDR format                               : SMPTE ST 2086, HDR10 compatible
  39. Codec ID                                 : V_MPEGH/ISO/HEVC
  40. Duration                                 : 2 h 10 min
  41. Bit rate                                 : 6 925 kb/s
  42. Width                                    : 1 920 pixels
  43. Height                                   : 1 080 pixels
  44. Display aspect ratio                     : 16:9
  45. Frame rate mode                          : Constant
  46. Frame rate                               : 24.000 FPS
  47. Color space                              : YUV
  48. Chroma subsampling                       : 4:2:0 (Type 2)
  49. Bit depth                                : 10 bits
  50. Bits/(Pixel*Frame)                       : 0.139
  51. Stream size                              : 6.30 GiB (8%)
  52. Title                                    : Serpico.1973.2160p.BluRay.REMUX.HEVC.DTS-HD.MA.5.1-FGT
  53. Language                                 : English
  54. Default                                  : No
  55. Forced                                   : No
  56. Color range                              : Limited
  57. Color primaries                          : BT.2020
  58. Transfer characteristics                 : PQ
  59. Matrix coefficients                      : BT.2020 non-constant
  60. Mastering display color primaries        : BT.2020
  61. Mastering display luminance              : min: 0.0001 cd/m2, max: 1000 cd/m2
  62. Original source medium                   : Blu-ray

  63. Audio #1
  64. ID                                       : 3
  65. Format                                   : DTS XLL
  66. Format/Info                              : Digital Theater Systems
  67. Commercial name                          : DTS-HD Master Audio
  68. Codec ID                                 : A_DTS
  69. Duration                                 : 2 h 10 min
  70. Bit rate mode                            : Variable
  71. Bit rate                                 : 3 440 kb/s
  72. Channel(s)                               : 6 channels
  73. Channel layout                           : C L R Ls Rs LFE
  74. Sampling rate                            : 48.0 kHz
  75. Frame rate                               : 93.750 FPS (512 SPF)
  76. Bit depth                                : 24 bits
  77. Compression mode                         : Lossless
  78. Stream size                              : 3.13 GiB (4%)
  79. Title                                    : Serpico.1973.2160p.BluRay.REMUX.HEVC.DTS-HD.MA.5.1-FGT
  80. Language                                 : English
  81. Default                                  : Yes
  82. Forced                                   : No

  83. Audio #2
  84. ID                                       : 4
  85. ID in the original source medium         : 4353 (0x1101)
  86. Format                                   : PCM
  87. Format settings                          : Little / Signed
  88. Codec ID                                 : A_PCM/INT/LIT
  89. Duration                                 : 2 h 10 min
  90. Bit rate mode                            : Constant
  91. Bit rate                                 : 2 304 kb/s
  92. Channel(s)                               : 2 channels
  93. Sampling rate                            : 48.0 kHz
  94. Frame rate                               : 30.000 FPS (1600 SPF)
  95. Bit depth                                : 24 bits
  96. Stream size                              : 2.10 GiB (3%)
  97. Title                                    : Serpico.1973.2160p.BluRay.REMUX.HEVC.DTS-HD.MA.5.1-FGT
  98. Language                                 : English
  99. Default                                  : No
  100. Forced                                   : No
  101. Original source medium                   : Blu-ray

  102. Audio #3
  103. ID                                       : 5
  104. ID in the original source medium         : 4352 (0x1100)
  105. Format                                   : PCM
  106. Format settings                          : Little / Signed
  107. Codec ID                                 : A_PCM/INT/LIT
  108. Duration                                 : 2 h 10 min
  109. Bit rate mode                            : Constant
  110. Bit rate                                 : 2 304 kb/s
  111. Channel(s)                               : 2 channels
  112. Sampling rate                            : 48.0 kHz
  113. Frame rate                               : 30.000 FPS (1600 SPF)
  114. Bit depth                                : 24 bits
  115. Stream size                              : 2.10 GiB (3%)
  116. Title                                    : Serpico.1973.2160p.BluRay.REMUX.HEVC.DTS-HD.MA.5.1-FGT
  117. Language                                 : German
  118. Default                                  : No
  119. Forced                                   : No
  120. Original source medium                   : Blu-ray

  121. Audio #4
  122. ID                                       : 6
  123. ID in the original source medium         : 4354 (0x1102)
  124. Format                                   : PCM
  125. Format settings                          : Little / Signed
  126. Codec ID                                 : A_PCM/INT/LIT
  127. Duration                                 : 2 h 10 min
  128. Bit rate mode                            : Constant
  129. Bit rate                                 : 2 304 kb/s
  130. Channel(s)                               : 2 channels
  131. Sampling rate                            : 48.0 kHz
  132. Frame rate                               : 30.000 FPS (1600 SPF)
  133. Bit depth                                : 24 bits
  134. Stream size                              : 2.10 GiB (3%)
  135. Title                                    : Serpico.1973.2160p.BluRay.REMUX.HEVC.DTS-HD.MA.5.1-FGT
  136. Language                                 : French
  137. Default                                  : No
  138. Forced                                   : No
  139. Original source medium                   : Blu-ray

  140. Text #1
  141. ID                                       : 7
  142. Format                                   : UTF-8
  143. Codec ID                                 : S_TEXT/UTF8
  144. Codec ID/Info                            : UTF-8 Plain Text
  145. Duration                                 : 2 h 6 min
  146. Bit rate                                 : 61 b/s
  147. Count of elements                        : 1519
  148. Stream size                              : 56.9 KiB (0%)
  149. Title                                    : English-SRT
  150. Language                                 : English
  151. Default                                  : Yes
  152. Forced                                   : No

  153. Text #2
  154. ID                                       : 8
  155. ID in the original source medium         : 4768 (0x12A0)
  156. Format                                   : PGS
  157. Muxing mode                              : zlib
  158. Codec ID                                 : S_HDMV/PGS
  159. Codec ID/Info                            : Picture based subtitle format used on BDs/HD-DVDs
  160. Duration                                 : 2 h 7 min
  161. Bit rate                                 : 30.2 kb/s
  162. Count of elements                        : 1910
  163. Stream size                              : 27.5 MiB (0%)
  164. Title                                    : German-PGS
  165. Language                                 : German
  166. Default                                  : No
  167. Forced                                   : No
  168. Original source medium                   : Blu-ray

  169. Text #3
  170. ID                                       : 9
  171. ID in the original source medium         : 4769 (0x12A1)
  172. Format                                   : PGS
  173. Muxing mode                              : zlib
  174. Codec ID                                 : S_HDMV/PGS
  175. Codec ID/Info                            : Picture based subtitle format used on BDs/HD-DVDs
  176. Duration                                 : 2 h 8 min
  177. Bit rate                                 : 25.4 kb/s
  178. Count of elements                        : 2640
  179. Stream size                              : 23.4 MiB (0%)
  180. Title                                    : French-PGS
  181. Language                                 : French
  182. Default                                  : No
  183. Forced                                   : No
  184. Original source medium                   : Blu-ray

  185. Text #4
  186. ID                                       : 10
  187. ID in the original source medium         : 4770 (0x12A2)
  188. Format                                   : PGS
  189. Muxing mode                              : zlib
  190. Codec ID                                 : S_HDMV/PGS
  191. Codec ID/Info                            : Picture based subtitle format used on BDs/HD-DVDs
  192. Duration                                 : 2 h 0 min
  193. Bit rate                                 : 295 b/s
  194. Count of elements                        : 18
  195. Stream size                              : 261 KiB (0%)
  196. Title                                    : German-FORCED-PGS
  197. Language                                 : German
  198. Default                                  : No
  199. Forced                                   : No
  200. Original source medium                   : Blu-ray

  201. Text #5
  202. ID                                       : 11
  203. ID in the original source medium         : 4771 (0x12A3)
  204. Format                                   : PGS
  205. Muxing mode                              : zlib
  206. Codec ID                                 : S_HDMV/PGS
  207. Codec ID/Info                            : Picture based subtitle format used on BDs/HD-DVDs
  208. Duration                                 : 2 h 0 min
  209. Bit rate                                 : 349 b/s
  210. Count of elements                        : 36
  211. Stream size                              : 308 KiB (0%)
  212. Title                                    : French-FORCED-PGS
  213. Language                                 : French
  214. Default                                  : No
  215. Forced                                   : No
  216. Original source medium                   : Blu-ray

  217. Menu
  218. 00:00:00.000                             : en:Chapter 01
  219. 00:06:36.000                             : en:Chapter 02
  220. 00:20:57.000                             : en:Chapter 03
  221. 00:30:30.000                             : en:Chapter 04
  222. 00:39:22.000                             : en:Chapter 05
  223. 00:51:30.000                             : en:Chapter 06
  224. 00:58:44.000                             : en:Chapter 07
  225. 01:10:44.000                             : en:Chapter 08
  226. 01:24:51.000                             : en:Chapter 09
  227. 01:36:02.000                             : en:Chapter 10
  228. 01:50:17.000                             : en:Chapter 11
  229. 02:02:26.000                             : en:Chapter 12
复制代码

















   




本帖隐藏的下载地址需要VIP会员才可阅读,您需要升级才可阅读,点击这里升级VIP
回复

使用道具 举报

懒得打字嘛,点击右侧快捷回复 【右侧内容,后台自定义】
您需要登录后才可以回帖 登录 | 立即注册

本版积分规则

Archiver|手机版|小黑屋| 中国高清网 ( ICP备17007870号-2 ) |网站地图 

GMT+8, 2020-11-29 19:01 , Processed in 0.223169 second(s), 40 queries .

Powered by HDchina X3.4

Copyright 2017-2019©HDchina.All right reserved

返回顶部 联系我们