查看: 103|回复: 0

[REMUX.HEVC] 秃鹰七十二小时/秃鹰72小时 Three.Days.of.the.Condor.1975.2160p.BluRay.REMUX.HEVC.DTS-HD.MA.5.1-FGT 72.18GB

[复制链接]

 成长值: 8350

级别:资源管理组

注册时间
2017-10-20
最后登录
2020-11-29
听众
1
收听
0
主题
106079
蓝光币
219219 枚
贡献
21715 点
发表于 2020-11-21 23:35:06 | 显示全部楼层 |阅读模式




译  名 秃鹰七十二小时 / 秃鹰72小时 / 秃鹰的三天 / 豪杰不流泪 / 追杀
片  名 Three Days of the Condor
年  代 1975
产  地 美国
类  别 剧情 / 行动 / 惊悚
语  言 英语 / 法语
上映日期 1975-09-24(美国)
IMDb评分  7.4/10 from 46913 users
IMDb链接  https://www.imdb.com/title/tt0073802
豆瓣评分 6.9/10 from 1060 users
豆瓣链接 https://movie.douban.com/subject/1299170/
片  长 117分钟
导  演 西德尼·波拉克 Sydney Pollack / 彼特·克林逊 Peter Collinson
编  剧 詹姆斯·格雷迪 James Grady / 洛伦佐·森普尔 Lorenzo Semple Jr. / 大卫·雷菲尔德 David Rayfiel / 大卫·D·奥斯本 David D. Osborn
主  演 罗伯特·雷德福 Robert Redford
       费·唐纳薇 Faye Dunaway
       克里夫·罗伯逊 Cliff Robertson
       马克斯·冯·叙多夫 Max von Sydow
       约翰·豪斯曼 John Houseman
       艾迪生·鲍威尔 Addison Powell
       沃尔特·麦金恩 Walter McGinn
       蒂娜·陈 Tina Chen
       唐麦克亨利 Don McHenry
       杰斯·奥苏纳 Jess Osuna
       迪诺·纳里扎诺 Dino Narizzano
       理查德·林奇 Richard Lynch
       彼得·方达 Peter Fonda
       西蒙·安德鲁 Simón Andreu
       Concha Cuetos
       弗兰克·布拉尼亚 Frank Bra?a
       阿尔维托·德·门多萨 Alberto de Mendoza
       William Layton
       赫尔佳·丽列 Helga Liné
       Gudrun McCleary
       科妮莉娅·夏普 Cornelia Sharpe
       Loreta Tovar
       约翰·菲利浦·劳 John Phillip Law
       威廉·霍尔登 William Holden


标  签 美国 | 悬疑 | 特务 | 美国电影 | 1975 | 西德尼·波拉克 | RobertRedford | 1970s

简  介  

  美国中心情报局观察员透纳,自从发现局内不成告人的活动,就此身陷连续串灾难事务。一日,两名男人冲进办公室,狙杀一切的员工,惟有透纳有幸逃走。

获奖情况  

  第48届奥斯卡金像奖(1976)
  最好剪辑(提名) Fredric Steinkamp / Don Guidice

  1. Video #1
  2. ID                                       : 1
  3. ID in the original source medium         : 4113 (0x1011)
  4. Format                                   : HEVC
  5. Format/Info                              : High Efficiency Video Coding
  6. Format profile                           : Main 10@L5.1@High
  7. HDR format                               : SMPTE ST 2086, HDR10 compatible
  8. Codec ID                                 : V_MPEGH/ISO/HEVC
  9. Duration                                 : 1 h 57 min
  10. Bit rate                                 : 69.9 Mb/s
  11. Width                                    : 3 840 pixels
  12. Height                                   : 2 160 pixels
  13. Display aspect ratio                     : 16:9
  14. Frame rate mode                          : Constant
  15. Frame rate                               : 24.000 FPS
  16. Color space                              : YUV
  17. Chroma subsampling                       : 4:2:0 (Type 2)
  18. Bit depth                                : 10 bits
  19. Bits/(Pixel*Frame)                       : 0.351
  20. Stream size                              : 57.3 GiB (79%)
  21. Title                                    : Three.Days.of.the.Condor.1975.2160p.BluRay.REMUX.HEVC.DTS-HD.MA.5.1-FGT
  22. Language                                 : English
  23. Default                                  : Yes
  24. Forced                                   : No
  25. Color range                              : Limited
  26. Color primaries                          : BT.2020
  27. Transfer characteristics                 : PQ
  28. Matrix coefficients                      : BT.2020 non-constant
  29. Mastering display color primaries        : BT.2020
  30. Mastering display luminance              : min: 0.0001 cd/m2, max: 1000 cd/m2
  31. Original source medium                   : Blu-ray


  32. Video #2
  33. ID                                       : 2
  34. ID in the original source medium         : 4117 (0x1015)
  35. Format                                   : HEVC
  36. Format/Info                              : High Efficiency Video Coding
  37. Format profile                           : Main 10@L5.1@High
  38. HDR format                               : SMPTE ST 2086, HDR10 compatible
  39. Codec ID                                 : V_MPEGH/ISO/HEVC
  40. Duration                                 : 1 h 57 min
  41. Bit rate                                 : 7 431 kb/s
  42. Width                                    : 1 920 pixels
  43. Height                                   : 1 080 pixels
  44. Display aspect ratio                     : 16:9
  45. Frame rate mode                          : Constant
  46. Frame rate                               : 24.000 FPS
  47. Color space                              : YUV
  48. Chroma subsampling                       : 4:2:0 (Type 2)
  49. Bit depth                                : 10 bits
  50. Bits/(Pixel*Frame)                       : 0.149
  51. Stream size                              : 6.10 GiB (8%)
  52. Title                                    : Three.Days.of.the.Condor.1975.2160p.BluRay.REMUX.HEVC.DTS-HD.MA.5.1-FGT
  53. Language                                 : English
  54. Default                                  : No
  55. Forced                                   : No
  56. Color range                              : Limited
  57. Color primaries                          : BT.2020
  58. Transfer characteristics                 : PQ
  59. Matrix coefficients                      : BT.2020 non-constant
  60. Mastering display color primaries        : BT.2020
  61. Mastering display luminance              : min: 0.0001 cd/m2, max: 1000 cd/m2
  62. Original source medium                   : Blu-ray

  63. Audio #1
  64. ID                                       : 3
  65. ID in the original source medium         : 4353 (0x1101)
  66. Format                                   : DTS XLL
  67. Format/Info                              : Digital Theater Systems
  68. Commercial name                          : DTS-HD Master Audio
  69. Codec ID                                 : A_DTS
  70. Duration                                 : 1 h 57 min
  71. Bit rate mode                            : Variable
  72. Bit rate                                 : 3 736 kb/s
  73. Channel(s)                               : 6 channels
  74. Channel layout                           : C L R Ls Rs LFE
  75. Sampling rate                            : 48.0 kHz
  76. Frame rate                               : 93.750 FPS (512 SPF)
  77. Bit depth                                : 24 bits
  78. Compression mode                         : Lossless
  79. Stream size                              : 3.07 GiB (4%)
  80. Title                                    : Three.Days.of.the.Condor.1975.2160p.BluRay.REMUX.HEVC.DTS-HD.MA.5.1-FGT
  81. Language                                 : English
  82. Default                                  : Yes
  83. Forced                                   : No
  84. Original source medium                   : Blu-ray

  85. Audio #2
  86. ID                                       : 4
  87. ID in the original source medium         : 4352 (0x1100)
  88. Format                                   : PCM
  89. Format settings                          : Little / Signed
  90. Codec ID                                 : A_PCM/INT/LIT
  91. Duration                                 : 1 h 57 min
  92. Bit rate mode                            : Constant
  93. Bit rate                                 : 2 304 kb/s
  94. Channel(s)                               : 2 channels
  95. Sampling rate                            : 48.0 kHz
  96. Frame rate                               : 30.000 FPS (1600 SPF)
  97. Bit depth                                : 24 bits
  98. Stream size                              : 1.89 GiB (3%)
  99. Title                                    : Three.Days.of.the.Condor.1975.2160p.BluRay.REMUX.HEVC.DTS-HD.MA.5.1-FGT
  100. Language                                 : German
  101. Default                                  : No
  102. Forced                                   : No
  103. Original source medium                   : Blu-ray

  104. Audio #3
  105. ID                                       : 5
  106. ID in the original source medium         : 4354 (0x1102)
  107. Format                                   : PCM
  108. Format settings                          : Little / Signed
  109. Codec ID                                 : A_PCM/INT/LIT
  110. Duration                                 : 1 h 57 min
  111. Bit rate mode                            : Constant
  112. Bit rate                                 : 2 304 kb/s
  113. Channel(s)                               : 2 channels
  114. Sampling rate                            : 48.0 kHz
  115. Frame rate                               : 30.000 FPS (1600 SPF)
  116. Bit depth                                : 24 bits
  117. Stream size                              : 1.89 GiB (3%)
  118. Title                                    : Three.Days.of.the.Condor.1975.2160p.BluRay.REMUX.HEVC.DTS-HD.MA.5.1-FGT
  119. Language                                 : English
  120. Default                                  : No
  121. Forced                                   : No
  122. Original source medium                   : Blu-ray

  123. Audio #4
  124. ID                                       : 6
  125. ID in the original source medium         : 4355 (0x1103)
  126. Format                                   : PCM
  127. Format settings                          : Little / Signed
  128. Codec ID                                 : A_PCM/INT/LIT
  129. Duration                                 : 1 h 57 min
  130. Bit rate mode                            : Constant
  131. Bit rate                                 : 2 304 kb/s
  132. Channel(s)                               : 2 channels
  133. Sampling rate                            : 48.0 kHz
  134. Frame rate                               : 30.000 FPS (1600 SPF)
  135. Bit depth                                : 24 bits
  136. Stream size                              : 1.89 GiB (3%)
  137. Title                                    : Three.Days.of.the.Condor.1975.2160p.BluRay.REMUX.HEVC.DTS-HD.MA.5.1-FGT
  138. Language                                 : French
  139. Default                                  : No
  140. Forced                                   : No
  141. Original source medium                   : Blu-ray

  142. Text #1
  143. ID                                       : 7
  144. Format                                   : UTF-8
  145. Codec ID                                 : S_TEXT/UTF8
  146. Codec ID/Info                            : UTF-8 Plain Text
  147. Duration                                 : 8 s 287 ms
  148. Bit rate                                 : 80 b/s
  149. Count of elements                        : 3
  150. Stream size                              : 83.0 Bytes (0%)
  151. Title                                    : English-FORCED-SRT
  152. Language                                 : English
  153. Default                                  : Yes
  154. Forced                                   : Yes

  155. Text #2
  156. ID                                       : 8
  157. Format                                   : UTF-8
  158. Codec ID                                 : S_TEXT/UTF8
  159. Codec ID/Info                            : UTF-8 Plain Text
  160. Duration                                 : 1 h 54 min
  161. Bit rate                                 : 46 b/s
  162. Count of elements                        : 1225
  163. Stream size                              : 38.8 KiB (0%)
  164. Title                                    : English-SRT
  165. Language                                 : English
  166. Default                                  : No
  167. Forced                                   : No

  168. Text #3
  169. ID                                       : 9
  170. ID in the original source medium         : 4768 (0x12A0)
  171. Format                                   : PGS
  172. Muxing mode                              : zlib
  173. Codec ID                                 : S_HDMV/PGS
  174. Codec ID/Info                            : Picture based subtitle format used on BDs/HD-DVDs
  175. Duration                                 : 1 h 55 min
  176. Bit rate                                 : 22.9 kb/s
  177. Count of elements                        : 2168
  178. Stream size                              : 18.9 MiB (0%)
  179. Title                                    : German-PGS
  180. Language                                 : German
  181. Default                                  : No
  182. Forced                                   : No
  183. Original source medium                   : Blu-ray

  184. Text #4
  185. ID                                       : 10
  186. ID in the original source medium         : 4769 (0x12A1)
  187. Format                                   : PGS
  188. Muxing mode                              : zlib
  189. Codec ID                                 : S_HDMV/PGS
  190. Codec ID/Info                            : Picture based subtitle format used on BDs/HD-DVDs
  191. Duration                                 : 1 h 56 min
  192. Bit rate                                 : 19.6 kb/s
  193. Count of elements                        : 2468
  194. Stream size                              : 16.3 MiB (0%)
  195. Title                                    : French-PGS
  196. Language                                 : French
  197. Default                                  : No
  198. Forced                                   : No
  199. Original source medium                   : Blu-ray

  200. Text #5
  201. ID                                       : 11
  202. ID in the original source medium         : 4770 (0x12A2)
  203. Format                                   : PGS
  204. Muxing mode                              : zlib
  205. Codec ID                                 : S_HDMV/PGS
  206. Codec ID/Info                            : Picture based subtitle format used on BDs/HD-DVDs
  207. Duration                                 : 1 h 32 min
  208. Bit rate                                 : 198 b/s
  209. Count of elements                        : 12
  210. Stream size                              : 135 KiB (0%)
  211. Title                                    : German-FORCED-PGS
  212. Language                                 : German
  213. Default                                  : No
  214. Forced                                   : No
  215. Original source medium                   : Blu-ray

  216. Text #6
  217. ID                                       : 12
  218. ID in the original source medium         : 4771 (0x12A3)
  219. Format                                   : PGS
  220. Muxing mode                              : zlib
  221. Codec ID                                 : S_HDMV/PGS
  222. Codec ID/Info                            : Picture based subtitle format used on BDs/HD-DVDs
  223. Duration                                 : 1 h 33 min
  224. Bit rate                                 : 575 b/s
  225. Count of elements                        : 32
  226. Stream size                              : 393 KiB (0%)
  227. Title                                    : French-FORCED-PGS
  228. Language                                 : French
  229. Default                                  : No
  230. Forced                                   : No
  231. Original source medium                   : Blu-ray

  232. Text #7
  233. ID                                       : 13
  234. ID in the original source medium         : 4774 (0x12A6)
  235. Format                                   : PGS
  236. Muxing mode                              : zlib
  237. Codec ID                                 : S_HDMV/PGS
  238. Codec ID/Info                            : Picture based subtitle format used on BDs/HD-DVDs
  239. Duration                                 : 8 s 188 ms
  240. Bit rate                                 : 45.3 kb/s
  241. Count of elements                        : 6
  242. Stream size                              : 45.3 KiB (0%)
  243. Title                                    : English-FORCED-PGS
  244. Language                                 : English
  245. Default                                  : No
  246. Forced                                   : No
  247. Original source medium                   : Blu-ray

  248. Menu
  249. 00:00:00.000                             : en:Chapter 01
  250. 00:11:13.000                             : en:Chapter 02
  251. 00:20:18.000                             : en:Chapter 03
  252. 00:28:04.000                             : en:Chapter 04
  253. 00:38:25.000                             : en:Chapter 05
  254. 00:52:30.000                             : en:Chapter 06
  255. 01:00:09.000                             : en:Chapter 07
  256. 01:14:33.000                             : en:Chapter 08
  257. 01:18:55.000                             : en:Chapter 09
  258. 01:28:24.000                             : en:Chapter 10
  259. 01:36:33.000                             : en:Chapter 11
  260. 01:51:08.000                             : en:Chapter 12
复制代码

















   




本帖隐藏的下载地址需要VIP会员才可阅读,您需要升级才可阅读,点击这里升级VIP
回复

使用道具 举报

懒得打字嘛,点击右侧快捷回复 【右侧内容,后台自定义】
您需要登录后才可以回帖 登录 | 立即注册

本版积分规则

Archiver|手机版|小黑屋| 中国高清网 ( ICP备17007870号-2 ) |网站地图 

GMT+8, 2020-11-29 18:53 , Processed in 0.403338 second(s), 40 queries .

Powered by HDchina X3.4

Copyright 2017-2019©HDchina.All right reserved

返回顶部 联系我们