查看: 149|回复: 2

[10bit.HDR] 秃鹰七十二小时/秃鹰72小时 Three.Days.of.the.Condor.1975.2160p.UHD.BluRay.x265.10bit.HDR.DTS-HD.MA.5.1-SWTYBLZ 32.51GB

[复制链接]

 成长值: 8350

级别:资源管理组

注册时间
2017-10-20
最后登录
2020-11-29
听众
1
收听
0
主题
106079
蓝光币
219219 枚
贡献
21715 点
发表于 2020-11-21 23:35:05 | 显示全部楼层 |阅读模式




译  名 秃鹰七十二小时 / 秃鹰72小时 / 秃鹰的三天 / 豪杰不流泪 / 追杀
片  名 Three Days of the Condor
年  代 1975
产  地 美国
类  别 剧情 / 行动 / 惊悚
语  言 英语 / 法语
上映日期 1975-09-24(美国)
IMDb评分  7.4/10 from 46913 users
IMDb链接  https://www.imdb.com/title/tt0073802
豆瓣评分 6.9/10 from 1060 users
豆瓣链接 https://movie.douban.com/subject/1299170/
片  长 117分钟
导  演 西德尼·波拉克 Sydney Pollack / 彼特·克林逊 Peter Collinson
编  剧 詹姆斯·格雷迪 James Grady / 洛伦佐·森普尔 Lorenzo Semple Jr. / 大卫·雷菲尔德 David Rayfiel / 大卫·D·奥斯本 David D. Osborn
主  演 罗伯特·雷德福 Robert Redford
       费·唐纳薇 Faye Dunaway
       克里夫·罗伯逊 Cliff Robertson
       马克斯·冯·叙多夫 Max von Sydow
       约翰·豪斯曼 John Houseman
       艾迪生·鲍威尔 Addison Powell
       沃尔特·麦金恩 Walter McGinn
       蒂娜·陈 Tina Chen
       唐麦克亨利 Don McHenry
       杰斯·奥苏纳 Jess Osuna
       迪诺·纳里扎诺 Dino Narizzano
       理查德·林奇 Richard Lynch
       彼得·方达 Peter Fonda
       西蒙·安德鲁 Simón Andreu
       Concha Cuetos
       弗兰克·布拉尼亚 Frank Bra?a
       阿尔维托·德·门多萨 Alberto de Mendoza
       William Layton
       赫尔佳·丽列 Helga Liné
       Gudrun McCleary
       科妮莉娅·夏普 Cornelia Sharpe
       Loreta Tovar
       约翰·菲利浦·劳 John Phillip Law
       威廉·霍尔登 William Holden


标  签 美国 | 悬疑 | 特务 | 美国电影 | 1975 | 西德尼·波拉克 | RobertRedford | 1970s

简  介  

  美国中心情报局观察员透纳,自从发现局内不成告人的活动,就此身陷连续串灾难事务。一日,两名男人冲进办公室,狙杀一切的员工,惟有透纳有幸逃走。

获奖情况  

  第48届奥斯卡金像奖(1976)
  最好剪辑(提名) Fredric Steinkamp / Don Guidice

  1. Video
  2. ID                                       : 1
  3. Format                                   : HEVC
  4. Format/Info                              : High Efficiency Video Coding
  5. Format profile                           : Main 10@L5.1@High
  6. HDR format                               : SMPTE ST 2086, HDR10 compatible
  7. Codec ID                                 : V_MPEGH/ISO/HEVC
  8. Duration                                 : 1 h 57 min
  9. Bit rate                                 : 34.9 Mb/s
  10. Width                                    : 3 840 pixels
  11. Height                                   : 1 606 pixels
  12. Display aspect ratio                     : 2.40:1
  13. Frame rate mode                          : Constant
  14. Frame rate                               : 24.000 FPS
  15. Color space                              : YUV
  16. Chroma subsampling                       : 4:2:0 (Type 2)
  17. Bit depth                                : 10 bits
  18. Bits/(Pixel*Frame)                       : 0.236
  19. Stream size                              : 28.7 GiB (89%)
  20. Title                                    : Three.Days.of.the.Condor.1975.2160p.UHD.BluRay.x265.10bit.HDR.DTS-HD.MA.5.1-SWTYBLZ
  21. Writing library                          : x265 3.0_Au+10-74a8672ea4f7:[Windows][GCC 8.2.1][64 bit] 10bit
  22. Encoding settings                        : cpuid=1111039 / frame-threads=6 / numa-pools=24,24,24,24 / wpp / no-pmode / no-pme / no-psnr / no-ssim / log-level=2 / input-csp=1 / input-res=3840x1606 / interlace=0 / total-frames=0 / level-idc=51 / high-tier=1 / uhd-bd=0 / ref=3 / no-allow-non-conformance / repeat-headers / annexb / aud / hrd / info / hash=0 / no-temporal-layers / no-open-gop / min-keyint=1 / keyint=24 / gop-lookahead=0 / bframes=4 / b-adapt=2 / b-pyramid / bframe-bias=0 / rc-lookahead=25 / lookahead-slices=4 / scenecut=40 / radl=0 / no-splice / no-intra-refresh / ctu=64 / min-cu-size=8 / no-rect / no-amp / max-tu-size=32 / tu-inter-depth=1 / tu-intra-depth=1 / limit-tu=0 / rdoq-level=0 / dynamic-rd=0.00 / no-ssim-rd / signhide / no-tskip / nr-intra=0 / nr-inter=0 / no-constrained-intra / strong-intra-smoothing / max-merge=2 / limit-refs=3 / no-limit-modes / me=1 / subme=2 / merange=57 / temporal-mvp / weightp / no-weightb / no-analyze-src-pics / deblock=0:0 / no-sao / no-sao-non-deblock / rd=3 / no-early-skip / rskip / no-fast-intra / no-tskip-fast / no-cu-lossless / no-b-intra / no-splitrd-skip / rdpenalty=0 / psy-rd=2.00 / psy-rdoq=0.00 / no-rd-refine / no-lossless / cbqpoffs=0 / crqpoffs=0 / rc=crf / crf=16.0 / qcomp=0.60 / qpstep=4 / stats-write=0 / stats-read=0 / vbv-maxrate=160000 / vbv-bufsize=160000 / vbv-init=0.9 / crf-max=0.0 / crf-min=0.0 / ipratio=1.40 / pbratio=1.30 / aq-mode=1 / aq-strength=1.00 / cutree / zone-count=0 / no-strict-cbr / qg-size=32 / no-rc-grain / qpmax=69 / qpmin=0 / no-const-vbv / sar=1 / overscan=0 / videoformat=5 / range=0 / colorprim=9 / transfer=16 / colormatrix=9 / chromaloc=1 / chromaloc-top=2 / chromaloc-bottom=2 / display-window=0 / master-display=G(8500,39850)B(6550,2300)R(35400,14600)WP(15635,16450)L(10000000,01) / max-cll=0,0 / min-luma=0 / max-luma=1023 / log2-max-poc-lsb=8 / vui-timing-info / vui-hrd-info / slices=1 / opt-qp-pps / opt-ref-list-length-pps / no-multi-pass-opt-rps / scenecut-bias=0.05 / no-opt-cu-delta-qp / no-aq-motion / hdr / hdr-opt / no-dhdr10-opt / no-idr-recovery-sei / analysis-reuse-level=5 / scale-factor=0 / refine-intra=0 / refine-inter=0 / refine-mv=0 / refine-ctu-distortion=0 / no-limit-sao / ctu-info=0 / no-lowpass-dct / refine-analysis-type=2144333264 / copy-pic=1 / max-ausize-factor=1.0 / no-dynamic-refine / no-single-sei / no-hevc-aq / no-svt / qp-adaptation-range=1.00
  23. Default                                  : Yes
  24. Forced                                   : No
  25. Color range                              : Limited
  26. Color primaries                          : BT.2020
  27. Transfer characteristics                 : PQ
  28. Matrix coefficients                      : BT.2020 non-constant
  29. Mastering display color primaries        : BT.2020
  30. Mastering display luminance              : min: 0.0001 cd/m2, max: 1000 cd/m2

  31. Audio #1
  32. ID                                       : 2
  33. Format                                   : DTS XLL
  34. Format/Info                              : Digital Theater Systems
  35. Commercial name                          : DTS-HD Master Audio
  36. Codec ID                                 : A_DTS
  37. Duration                                 : 1 h 57 min
  38. Bit rate mode                            : Variable
  39. Bit rate                                 : 3 736 kb/s
  40. Channel(s)                               : 6 channels
  41. Channel layout                           : C L R Ls Rs LFE
  42. Sampling rate                            : 48.0 kHz
  43. Frame rate                               : 93.750 FPS (512 SPF)
  44. Bit depth                                : 24 bits
  45. Compression mode                         : Lossless
  46. Stream size                              : 3.07 GiB (9%)
  47. Title                                    : Three.Days.of.the.Condor.1975.2160p.UHD.BluRay.x265.10bit.HDR.DTS-HD.MA.5.1-SWTYBLZ
  48. Language                                 : English
  49. Default                                  : Yes
  50. Forced                                   : No

  51. Audio #2
  52. ID                                       : 3
  53. Format                                   : AC-3
  54. Format/Info                              : Audio Coding 3
  55. Commercial name                          : Dolby Digital
  56. Codec ID                                 : A_AC3
  57. Duration                                 : 1 h 57 min
  58. Bit rate mode                            : Constant
  59. Bit rate                                 : 640 kb/s
  60. Channel(s)                               : 6 channels
  61. Channel layout                           : L R C LFE Ls Rs
  62. Sampling rate                            : 48.0 kHz
  63. Frame rate                               : 31.250 FPS (1536 SPF)
  64. Compression mode                         : Lossy
  65. Stream size                              : 538 MiB (2%)
  66. Title                                    : Three.Days.of.the.Condor.1975.2160p.UHD.BluRay.x265.10bit.HDR.DTS-HD.MA.5.1-SWTYBLZ
  67. Language                                 : English
  68. Service kind                             : Complete Main
  69. Default                                  : No
  70. Forced                                   : No

  71. Text #1
  72. ID                                       : 4
  73. Format                                   : UTF-8
  74. Codec ID                                 : S_TEXT/UTF8
  75. Codec ID/Info                            : UTF-8 Plain Text
  76. Duration                                 : 8 s 287 ms
  77. Bit rate                                 : 80 b/s
  78. Count of elements                        : 3
  79. Stream size                              : 83.0 Bytes (0%)
  80. Title                                    : English-FORCED-SRT
  81. Language                                 : English
  82. Default                                  : Yes
  83. Forced                                   : Yes

  84. Text #2
  85. ID                                       : 5
  86. Format                                   : UTF-8
  87. Codec ID                                 : S_TEXT/UTF8
  88. Codec ID/Info                            : UTF-8 Plain Text
  89. Duration                                 : 1 h 54 min
  90. Bit rate                                 : 46 b/s
  91. Count of elements                        : 1225
  92. Stream size                              : 38.8 KiB (0%)
  93. Title                                    : English-SRT
  94. Language                                 : English
  95. Default                                  : No
  96. Forced                                   : No

  97. Text #3
  98. ID                                       : 6
  99. Format                                   : PGS
  100. Muxing mode                              : zlib
  101. Codec ID                                 : S_HDMV/PGS
  102. Codec ID/Info                            : Picture based subtitle format used on BDs/HD-DVDs
  103. Duration                                 : 8 s 291 ms
  104. Bit rate                                 : 58.9 kb/s
  105. Count of elements                        : 6
  106. Stream size                              : 59.7 KiB (0%)
  107. Title                                    : English-FORCED-PGS
  108. Language                                 : English
  109. Default                                  : No
  110. Forced                                   : No

  111. Text #4
  112. ID                                       : 7
  113. Format                                   : PGS
  114. Muxing mode                              : zlib
  115. Codec ID                                 : S_HDMV/PGS
  116. Codec ID/Info                            : Picture based subtitle format used on BDs/HD-DVDs
  117. Duration                                 : 1 h 54 min
  118. Bit rate                                 : 27.8 kb/s
  119. Count of elements                        : 2456
  120. Stream size                              : 22.8 MiB (0%)
  121. Title                                    : English-PGS
  122. Language                                 : English
  123. Default                                  : No
  124. Forced                                   : No

  125. Text #5
  126. ID                                       : 8
  127. Format                                   : PGS
  128. Muxing mode                              : zlib
  129. Codec ID                                 : S_HDMV/PGS
  130. Codec ID/Info                            : Picture based subtitle format used on BDs/HD-DVDs
  131. Duration                                 : 1 h 54 min
  132. Bit rate                                 : 29.8 kb/s
  133. Count of elements                        : 2658
  134. Stream size                              : 24.4 MiB (0%)
  135. Title                                    : English-SDH-PGS
  136. Language                                 : English
  137. Default                                  : No
  138. Forced                                   : No

  139. Text #6
  140. ID                                       : 9
  141. Format                                   : PGS
  142. Muxing mode                              : zlib
  143. Codec ID                                 : S_HDMV/PGS
  144. Codec ID/Info                            : Picture based subtitle format used on BDs/HD-DVDs
  145. Duration                                 : 1 h 55 min
  146. Bit rate                                 : 21.2 kb/s
  147. Count of elements                        : 1992
  148. Stream size                              : 17.5 MiB (0%)
  149. Title                                    : Danish-PGS
  150. Language                                 : Danish
  151. Default                                  : No
  152. Forced                                   : No

  153. Text #7
  154. ID                                       : 10
  155. Format                                   : PGS
  156. Muxing mode                              : zlib
  157. Codec ID                                 : S_HDMV/PGS
  158. Codec ID/Info                            : Picture based subtitle format used on BDs/HD-DVDs
  159. Duration                                 : 1 h 56 min
  160. Bit rate                                 : 20.6 kb/s
  161. Count of elements                        : 1972
  162. Stream size                              : 17.2 MiB (0%)
  163. Title                                    : Finnish-PGS
  164. Language                                 : Finnish
  165. Default                                  : No
  166. Forced                                   : No

  167. Text #8
  168. ID                                       : 11
  169. Format                                   : PGS
  170. Muxing mode                              : zlib
  171. Codec ID                                 : S_HDMV/PGS
  172. Codec ID/Info                            : Picture based subtitle format used on BDs/HD-DVDs
  173. Duration                                 : 1 h 55 min
  174. Bit rate                                 : 28.8 kb/s
  175. Count of elements                        : 2508
  176. Stream size                              : 23.8 MiB (0%)
  177. Title                                    : French-PGS
  178. Language                                 : French
  179. Default                                  : No
  180. Forced                                   : No

  181. Text #9
  182. ID                                       : 12
  183. Format                                   : PGS
  184. Muxing mode                              : zlib
  185. Codec ID                                 : S_HDMV/PGS
  186. Codec ID/Info                            : Picture based subtitle format used on BDs/HD-DVDs
  187. Duration                                 : 1 h 56 min
  188. Bit rate                                 : 20.9 kb/s
  189. Count of elements                        : 1988
  190. Stream size                              : 17.3 MiB (0%)
  191. Title                                    : French-PGS
  192. Language                                 : French
  193. Default                                  : No
  194. Forced                                   : No

  195. Text #10
  196. ID                                       : 13
  197. Format                                   : PGS
  198. Muxing mode                              : zlib
  199. Codec ID                                 : S_HDMV/PGS
  200. Codec ID/Info                            : Picture based subtitle format used on BDs/HD-DVDs
  201. Duration                                 : 1 h 55 min
  202. Bit rate                                 : 26.0 kb/s
  203. Count of elements                        : 1738
  204. Stream size                              : 21.4 MiB (0%)
  205. Title                                    : German-PGS
  206. Language                                 : German
  207. Default                                  : No
  208. Forced                                   : No

  209. Text #11
  210. ID                                       : 14
  211. Format                                   : PGS
  212. Muxing mode                              : zlib
  213. Codec ID                                 : S_HDMV/PGS
  214. Codec ID/Info                            : Picture based subtitle format used on BDs/HD-DVDs
  215. Duration                                 : 1 h 55 min
  216. Bit rate                                 : 20.3 kb/s
  217. Count of elements                        : 1988
  218. Stream size                              : 16.8 MiB (0%)
  219. Title                                    : Dutch-PGS
  220. Language                                 : Dutch
  221. Default                                  : No
  222. Forced                                   : No

  223. Text #12
  224. ID                                       : 15
  225. Format                                   : PGS
  226. Muxing mode                              : zlib
  227. Codec ID                                 : S_HDMV/PGS
  228. Codec ID/Info                            : Picture based subtitle format used on BDs/HD-DVDs
  229. Duration                                 : 1 h 54 min
  230. Bit rate                                 : 18.3 kb/s
  231. Count of elements                        : 1990
  232. Stream size                              : 15.0 MiB (0%)
  233. Title                                    : Norwegian-PGS
  234. Language                                 : Norwegian
  235. Default                                  : No
  236. Forced                                   : No

  237. Text #13
  238. ID                                       : 16
  239. Format                                   : PGS
  240. Muxing mode                              : zlib
  241. Codec ID                                 : S_HDMV/PGS
  242. Codec ID/Info                            : Picture based subtitle format used on BDs/HD-DVDs
  243. Duration                                 : 1 h 56 min
  244. Bit rate                                 : 26.7 kb/s
  245. Count of elements                        : 2386
  246. Stream size                              : 22.2 MiB (0%)
  247. Title                                    : Japanese-PGS
  248. Language                                 : Japanese
  249. Default                                  : No
  250. Forced                                   : No

  251. Text #14
  252. ID                                       : 17
  253. Format                                   : PGS
  254. Muxing mode                              : zlib
  255. Codec ID                                 : S_HDMV/PGS
  256. Codec ID/Info                            : Picture based subtitle format used on BDs/HD-DVDs
  257. Duration                                 : 1 h 56 min
  258. Bit rate                                 : 26.9 kb/s
  259. Count of elements                        : 1926
  260. Stream size                              : 22.3 MiB (0%)
  261. Title                                    : Spanish-PGS
  262. Language                                 : Spanish
  263. Default                                  : No
  264. Forced                                   : No

  265. Text #15
  266. ID                                       : 18
  267. Format                                   : PGS
  268. Muxing mode                              : zlib
  269. Codec ID                                 : S_HDMV/PGS
  270. Codec ID/Info                            : Picture based subtitle format used on BDs/HD-DVDs
  271. Duration                                 : 1 h 54 min
  272. Bit rate                                 : 26.6 kb/s
  273. Count of elements                        : 2508
  274. Stream size                              : 21.8 MiB (0%)
  275. Title                                    : Spanish-PGS
  276. Language                                 : Spanish
  277. Default                                  : No
  278. Forced                                   : No

  279. Text #16
  280. ID                                       : 19
  281. Format                                   : PGS
  282. Muxing mode                              : zlib
  283. Codec ID                                 : S_HDMV/PGS
  284. Codec ID/Info                            : Picture based subtitle format used on BDs/HD-DVDs
  285. Duration                                 : 1 h 55 min
  286. Bit rate                                 : 27.8 kb/s
  287. Count of elements                        : 1734
  288. Stream size                              : 22.9 MiB (0%)
  289. Title                                    : Turkish-PGS
  290. Language                                 : Turkish
  291. Default                                  : No
  292. Forced                                   : No

  293. Menu
  294. 00:00:00.000                             : en:The American Literary Historical Society
  295. 00:09:33.000                             : en:Out To Lunch
  296. 00:19:01.000                             : en:Condor
  297. 00:27:45.000                             : en:The Ansonia Hotel
  298. 00:33:26.000                             : en:Still In Flight
  299. 00:40:45.000                             : en:Same Safe Quiet Time
  300. 00:52:30.000                             : en:Sam\'s Apartment
  301. 01:00:10.000                             : en:Lonely Pictures
  302. 01:09:40.000                             : en:The Mailman
  303. 01:19:47.000                             : en:Sparrow Hawk
  304. 01:25:27.000                             : en:The Suspicion Business
  305. 01:28:52.000                             : en:Leonard Atwood
  306. 01:36:33.000                             : en:Fine Qualities
  307. 01:41:24.000                             : en:Oil Fields
  308. 01:45:54.000                             : en:For That Day
  309. 01:51:09.000                             : en:Telling Stories
复制代码
































   




本帖隐藏的下载地址需要VIP会员才可阅读,您需要升级才可阅读,点击这里升级VIP
回复

使用道具 举报

级别:普通观众 Lv.2

注册时间
2020-5-6
最后登录
2020-11-27
听众
4
收听
0
主题
0
蓝光币
11 枚
贡献
0 点
发表于 5 天前 | 显示全部楼层
楼主发贴辛苦了,谢谢楼主分享!我觉得中国高清电影网是注册对了!
回复

使用道具 举报

级别:初级观众 Lv.1

注册时间
2020-11-29
最后登录
2020-11-29
听众
3
收听
0
主题
0
蓝光币
1 枚
贡献
0 点
发表于 7 小时前 | 显示全部楼层
又是一部好片子,不错的电影
回复

使用道具 举报

懒得打字嘛,点击右侧快捷回复 【右侧内容,后台自定义】
您需要登录后才可以回帖 登录 | 立即注册

本版积分规则

Archiver|手机版|小黑屋| 中国高清网 ( ICP备17007870号-2 ) |网站地图 

GMT+8, 2020-11-29 18:37 , Processed in 0.227347 second(s), 40 queries .

Powered by HDchina X3.4

Copyright 2017-2019©HDchina.All right reserved

返回顶部 联系我们