查看: 82|回复: 0

[8bit.SDR] 秃鹰七十二小时/秃鹰72小时 Three.Days.of.the.Condor.1975.2160p.BluRay.x264.8bit.SDR.DTS-HD.MA.5.1-SWTYBLZ 52.73GB

[复制链接]

 成长值: 8350

级别:资源管理组

注册时间
2017-10-20
最后登录
2020-11-29
听众
1
收听
0
主题
106079
蓝光币
219219 枚
贡献
21715 点
发表于 2020-11-21 23:35:04 | 显示全部楼层 |阅读模式




译  名 秃鹰七十二小时 / 秃鹰72小时 / 秃鹰的三天 / 豪杰不流泪 / 追杀
片  名 Three Days of the Condor
年  代 1975
产  地 美国
类  别 剧情 / 行动 / 惊悚
语  言 英语 / 法语
上映日期 1975-09-24(美国)
IMDb评分  7.4/10 from 46913 users
IMDb链接  https://www.imdb.com/title/tt0073802
豆瓣评分 6.9/10 from 1060 users
豆瓣链接 https://movie.douban.com/subject/1299170/
片  长 117分钟
导  演 西德尼·波拉克 Sydney Pollack / 彼特·克林逊 Peter Collinson
编  剧 詹姆斯·格雷迪 James Grady / 洛伦佐·森普尔 Lorenzo Semple Jr. / 大卫·雷菲尔德 David Rayfiel / 大卫·D·奥斯本 David D. Osborn
主  演 罗伯特·雷德福 Robert Redford
       费·唐纳薇 Faye Dunaway
       克里夫·罗伯逊 Cliff Robertson
       马克斯·冯·叙多夫 Max von Sydow
       约翰·豪斯曼 John Houseman
       艾迪生·鲍威尔 Addison Powell
       沃尔特·麦金恩 Walter McGinn
       蒂娜·陈 Tina Chen
       唐麦克亨利 Don McHenry
       杰斯·奥苏纳 Jess Osuna
       迪诺·纳里扎诺 Dino Narizzano
       理查德·林奇 Richard Lynch
       彼得·方达 Peter Fonda
       西蒙·安德鲁 Simón Andreu
       Concha Cuetos
       弗兰克·布拉尼亚 Frank Bra?a
       阿尔维托·德·门多萨 Alberto de Mendoza
       William Layton
       赫尔佳·丽列 Helga Liné
       Gudrun McCleary
       科妮莉娅·夏普 Cornelia Sharpe
       Loreta Tovar
       约翰·菲利浦·劳 John Phillip Law
       威廉·霍尔登 William Holden


标  签 美国 | 悬疑 | 特务 | 美国电影 | 1975 | 西德尼·波拉克 | RobertRedford | 1970s

简  介  

  美国中心情报局观察员透纳,自从发现局内不成告人的活动,就此身陷连续串灾难事务。一日,两名男人冲进办公室,狙杀一切的员工,惟有透纳有幸逃走。

获奖情况  

  第48届奥斯卡金像奖(1976)
  最好剪辑(提名) Fredric Steinkamp / Don Guidice

  1. Video
  2. ID                                       : 1
  3. Format                                   : AVC
  4. Format/Info                              : Advanced Video Codec
  5. Format profile                           : High@L5.1
  6. Format settings                          : CABAC / 5 Ref Frames
  7. Format settings, CABAC                   : Yes
  8. Format settings, Reference frames        : 5 frames
  9. Codec ID                                 : V_MPEG4/ISO/AVC
  10. Duration                                 : 1 h 57 min
  11. Bit rate                                 : 59.4 Mb/s
  12. Width                                    : 3 840 pixels
  13. Height                                   : 1 606 pixels
  14. Display aspect ratio                     : 2.40:1
  15. Frame rate mode                          : Constant
  16. Frame rate                               : 24.000 FPS
  17. Color space                              : YUV
  18. Chroma subsampling                       : 4:2:0
  19. Bit depth                                : 8 bits
  20. Scan type                                : Progressive
  21. Bits/(Pixel*Frame)                       : 0.401
  22. Stream size                              : 48.7 GiB (93%)
  23. Title                                    : Three.Days.of.the.Condor.1975.2160p.BluRay.x264.8bit.SDR.DTS-HD.MA.5.1-SWTYBLZ
  24. Writing library                          : x264 core 157 r2935 545de2f
  25. Encoding settings                        : cabac=1 / ref=5 / deblock=1:-1:-1 / analyse=0x3:0x113 / me=umh / subme=10 / psy=1 / psy_rd=1.00:0.15 / mixed_ref=1 / me_range=48 / chroma_me=1 / trellis=2 / 8x8dct=1 / cqm=0 / deadzone=21,11 / fast_pskip=1 / chroma_qp_offset=-3 / threads=48 / lookahead_threads=4 / sliced_threads=0 / nr=0 / decimate=0 / interlaced=0 / bluray_compat=0 / constrained_intra=0 / bframes=3 / b_pyramid=2 / b_adapt=2 / b_bias=0 / direct=3 / weightb=1 / open_gop=0 / weightp=2 / keyint=250 / keyint_min=24 / scenecut=40 / intra_refresh=0 / rc_lookahead=50 / rc=crf / mbtree=1 / crf=20.0 / qcomp=0.60 / qpmin=0 / qpmax=69 / qpstep=4 / ip_ratio=1.40 / aq=1:1.00
  26. Default                                  : Yes
  27. Forced                                   : No

  28. Audio #1
  29. ID                                       : 2
  30. Format                                   : DTS XLL
  31. Format/Info                              : Digital Theater Systems
  32. Commercial name                          : DTS-HD Master Audio
  33. Codec ID                                 : A_DTS
  34. Duration                                 : 1 h 57 min
  35. Bit rate mode                            : Variable
  36. Bit rate                                 : 3 736 kb/s
  37. Channel(s)                               : 6 channels
  38. Channel layout                           : C L R Ls Rs LFE
  39. Sampling rate                            : 48.0 kHz
  40. Frame rate                               : 93.750 FPS (512 SPF)
  41. Bit depth                                : 24 bits
  42. Compression mode                         : Lossless
  43. Stream size                              : 3.07 GiB (6%)
  44. Title                                    : Three.Days.of.the.Condor.1975.2160p.BluRay.x264.8bit.SDR.DTS-HD.MA.5.1-SWTYBLZ
  45. Language                                 : English
  46. Default                                  : Yes
  47. Forced                                   : No

  48. Audio #2
  49. ID                                       : 3
  50. Format                                   : AC-3
  51. Format/Info                              : Audio Coding 3
  52. Commercial name                          : Dolby Digital
  53. Codec ID                                 : A_AC3
  54. Duration                                 : 1 h 57 min
  55. Bit rate mode                            : Constant
  56. Bit rate                                 : 640 kb/s
  57. Channel(s)                               : 6 channels
  58. Channel layout                           : L R C LFE Ls Rs
  59. Sampling rate                            : 48.0 kHz
  60. Frame rate                               : 31.250 FPS (1536 SPF)
  61. Compression mode                         : Lossy
  62. Stream size                              : 538 MiB (1%)
  63. Title                                    : Three.Days.of.the.Condor.1975.2160p.BluRay.x264.8bit.SDR.DTS-HD.MA.5.1-SWTYBLZ
  64. Language                                 : English
  65. Service kind                             : Complete Main
  66. Default                                  : No
  67. Forced                                   : No

  68. Text #1
  69. ID                                       : 4
  70. Format                                   : UTF-8
  71. Codec ID                                 : S_TEXT/UTF8
  72. Codec ID/Info                            : UTF-8 Plain Text
  73. Duration                                 : 8 s 287 ms
  74. Bit rate                                 : 80 b/s
  75. Count of elements                        : 3
  76. Stream size                              : 83.0 Bytes (0%)
  77. Title                                    : English-FORCED-SRT
  78. Language                                 : English
  79. Default                                  : Yes
  80. Forced                                   : Yes

  81. Text #2
  82. ID                                       : 5
  83. Format                                   : UTF-8
  84. Codec ID                                 : S_TEXT/UTF8
  85. Codec ID/Info                            : UTF-8 Plain Text
  86. Duration                                 : 1 h 54 min
  87. Bit rate                                 : 46 b/s
  88. Count of elements                        : 1225
  89. Stream size                              : 38.8 KiB (0%)
  90. Title                                    : English-SRT
  91. Language                                 : English
  92. Default                                  : No
  93. Forced                                   : No

  94. Text #3
  95. ID                                       : 6
  96. Format                                   : PGS
  97. Muxing mode                              : zlib
  98. Codec ID                                 : S_HDMV/PGS
  99. Codec ID/Info                            : Picture based subtitle format used on BDs/HD-DVDs
  100. Duration                                 : 8 s 291 ms
  101. Bit rate                                 : 58.9 kb/s
  102. Count of elements                        : 6
  103. Stream size                              : 59.7 KiB (0%)
  104. Title                                    : English-FORCED-PGS
  105. Language                                 : English
  106. Default                                  : No
  107. Forced                                   : No

  108. Text #4
  109. ID                                       : 7
  110. Format                                   : PGS
  111. Muxing mode                              : zlib
  112. Codec ID                                 : S_HDMV/PGS
  113. Codec ID/Info                            : Picture based subtitle format used on BDs/HD-DVDs
  114. Duration                                 : 1 h 54 min
  115. Bit rate                                 : 27.8 kb/s
  116. Count of elements                        : 2456
  117. Stream size                              : 22.8 MiB (0%)
  118. Title                                    : English-PGS
  119. Language                                 : English
  120. Default                                  : No
  121. Forced                                   : No

  122. Text #5
  123. ID                                       : 8
  124. Format                                   : PGS
  125. Muxing mode                              : zlib
  126. Codec ID                                 : S_HDMV/PGS
  127. Codec ID/Info                            : Picture based subtitle format used on BDs/HD-DVDs
  128. Duration                                 : 1 h 54 min
  129. Bit rate                                 : 29.8 kb/s
  130. Count of elements                        : 2658
  131. Stream size                              : 24.4 MiB (0%)
  132. Title                                    : English-SDH-PGS
  133. Language                                 : English
  134. Default                                  : No
  135. Forced                                   : No

  136. Text #6
  137. ID                                       : 9
  138. Format                                   : PGS
  139. Muxing mode                              : zlib
  140. Codec ID                                 : S_HDMV/PGS
  141. Codec ID/Info                            : Picture based subtitle format used on BDs/HD-DVDs
  142. Duration                                 : 1 h 55 min
  143. Bit rate                                 : 21.2 kb/s
  144. Count of elements                        : 1992
  145. Stream size                              : 17.5 MiB (0%)
  146. Title                                    : Danish-PGS
  147. Language                                 : Danish
  148. Default                                  : No
  149. Forced                                   : No

  150. Text #7
  151. ID                                       : 10
  152. Format                                   : PGS
  153. Muxing mode                              : zlib
  154. Codec ID                                 : S_HDMV/PGS
  155. Codec ID/Info                            : Picture based subtitle format used on BDs/HD-DVDs
  156. Duration                                 : 1 h 56 min
  157. Bit rate                                 : 20.6 kb/s
  158. Count of elements                        : 1972
  159. Stream size                              : 17.2 MiB (0%)
  160. Title                                    : Finnish-PGS
  161. Language                                 : Finnish
  162. Default                                  : No
  163. Forced                                   : No

  164. Text #8
  165. ID                                       : 11
  166. Format                                   : PGS
  167. Muxing mode                              : zlib
  168. Codec ID                                 : S_HDMV/PGS
  169. Codec ID/Info                            : Picture based subtitle format used on BDs/HD-DVDs
  170. Duration                                 : 1 h 55 min
  171. Bit rate                                 : 28.8 kb/s
  172. Count of elements                        : 2508
  173. Stream size                              : 23.8 MiB (0%)
  174. Title                                    : French-PGS
  175. Language                                 : French
  176. Default                                  : No
  177. Forced                                   : No

  178. Text #9
  179. ID                                       : 12
  180. Format                                   : PGS
  181. Muxing mode                              : zlib
  182. Codec ID                                 : S_HDMV/PGS
  183. Codec ID/Info                            : Picture based subtitle format used on BDs/HD-DVDs
  184. Duration                                 : 1 h 56 min
  185. Bit rate                                 : 20.9 kb/s
  186. Count of elements                        : 1988
  187. Stream size                              : 17.3 MiB (0%)
  188. Title                                    : French-PGS
  189. Language                                 : French
  190. Default                                  : No
  191. Forced                                   : No

  192. Text #10
  193. ID                                       : 13
  194. Format                                   : PGS
  195. Muxing mode                              : zlib
  196. Codec ID                                 : S_HDMV/PGS
  197. Codec ID/Info                            : Picture based subtitle format used on BDs/HD-DVDs
  198. Duration                                 : 1 h 55 min
  199. Bit rate                                 : 26.0 kb/s
  200. Count of elements                        : 1738
  201. Stream size                              : 21.4 MiB (0%)
  202. Title                                    : German-PGS
  203. Language                                 : German
  204. Default                                  : No
  205. Forced                                   : No

  206. Text #11
  207. ID                                       : 14
  208. Format                                   : PGS
  209. Muxing mode                              : zlib
  210. Codec ID                                 : S_HDMV/PGS
  211. Codec ID/Info                            : Picture based subtitle format used on BDs/HD-DVDs
  212. Duration                                 : 1 h 55 min
  213. Bit rate                                 : 20.3 kb/s
  214. Count of elements                        : 1988
  215. Stream size                              : 16.8 MiB (0%)
  216. Title                                    : Dutch-PGS
  217. Language                                 : Dutch
  218. Default                                  : No
  219. Forced                                   : No

  220. Text #12
  221. ID                                       : 15
  222. Format                                   : PGS
  223. Muxing mode                              : zlib
  224. Codec ID                                 : S_HDMV/PGS
  225. Codec ID/Info                            : Picture based subtitle format used on BDs/HD-DVDs
  226. Duration                                 : 1 h 54 min
  227. Bit rate                                 : 18.3 kb/s
  228. Count of elements                        : 1990
  229. Stream size                              : 15.0 MiB (0%)
  230. Title                                    : Norwegian-PGS
  231. Language                                 : Norwegian
  232. Default                                  : No
  233. Forced                                   : No

  234. Text #13
  235. ID                                       : 16
  236. Format                                   : PGS
  237. Muxing mode                              : zlib
  238. Codec ID                                 : S_HDMV/PGS
  239. Codec ID/Info                            : Picture based subtitle format used on BDs/HD-DVDs
  240. Duration                                 : 1 h 56 min
  241. Bit rate                                 : 26.7 kb/s
  242. Count of elements                        : 2386
  243. Stream size                              : 22.2 MiB (0%)
  244. Title                                    : Japanese-PGS
  245. Language                                 : Japanese
  246. Default                                  : No
  247. Forced                                   : No

  248. Text #14
  249. ID                                       : 17
  250. Format                                   : PGS
  251. Muxing mode                              : zlib
  252. Codec ID                                 : S_HDMV/PGS
  253. Codec ID/Info                            : Picture based subtitle format used on BDs/HD-DVDs
  254. Duration                                 : 1 h 56 min
  255. Bit rate                                 : 26.9 kb/s
  256. Count of elements                        : 1926
  257. Stream size                              : 22.3 MiB (0%)
  258. Title                                    : Spanish-PGS
  259. Language                                 : Spanish
  260. Default                                  : No
  261. Forced                                   : No

  262. Text #15
  263. ID                                       : 18
  264. Format                                   : PGS
  265. Muxing mode                              : zlib
  266. Codec ID                                 : S_HDMV/PGS
  267. Codec ID/Info                            : Picture based subtitle format used on BDs/HD-DVDs
  268. Duration                                 : 1 h 54 min
  269. Bit rate                                 : 26.6 kb/s
  270. Count of elements                        : 2508
  271. Stream size                              : 21.8 MiB (0%)
  272. Title                                    : Spanish-PGS
  273. Language                                 : Spanish
  274. Default                                  : No
  275. Forced                                   : No

  276. Text #16
  277. ID                                       : 19
  278. Format                                   : PGS
  279. Muxing mode                              : zlib
  280. Codec ID                                 : S_HDMV/PGS
  281. Codec ID/Info                            : Picture based subtitle format used on BDs/HD-DVDs
  282. Duration                                 : 1 h 55 min
  283. Bit rate                                 : 27.8 kb/s
  284. Count of elements                        : 1734
  285. Stream size                              : 22.9 MiB (0%)
  286. Title                                    : Turkish-PGS
  287. Language                                 : Turkish
  288. Default                                  : No
  289. Forced                                   : No

  290. Menu
  291. 00:00:00.000                             : en:The American Literary Historical Society
  292. 00:09:33.000                             : en:Out To Lunch
  293. 00:19:01.000                             : en:Condor
  294. 00:27:45.000                             : en:The Ansonia Hotel
  295. 00:33:26.000                             : en:Still In Flight
  296. 00:40:45.000                             : en:Same Safe Quiet Time
  297. 00:52:30.000                             : en:Sam's Apartment
  298. 01:00:10.000                             : en:Lonely Pictures
  299. 01:09:40.000                             : en:The Mailman
  300. 01:19:47.000                             : en:Sparrow Hawk
  301. 01:25:27.000                             : en:The Suspicion Business
  302. 01:28:52.000                             : en:Leonard Atwood
  303. 01:36:33.000                             : en:Fine Qualities
  304. 01:41:24.000                             : en:Oil Fields
  305. 01:45:54.000                             : en:For That Day
  306. 01:51:09.000                             : en:Telling Stories
复制代码
































   




本帖隐藏的下载地址需要VIP会员才可阅读,您需要升级才可阅读,点击这里升级VIP
回复

使用道具 举报

懒得打字嘛,点击右侧快捷回复 【右侧内容,后台自定义】
您需要登录后才可以回帖 登录 | 立即注册

本版积分规则

Archiver|手机版|小黑屋| 中国高清网 ( ICP备17007870号-2 ) |网站地图 

GMT+8, 2020-11-29 18:54 , Processed in 0.201537 second(s), 40 queries .

Powered by HDchina X3.4

Copyright 2017-2019©HDchina.All right reserved

返回顶部 联系我们