查看: 86|回复: 0

[8bit.SDR] 格蕾特和韩塞尔/战栗糖果屋 Gretel.and.Hansel.2020.2160p.BluRay.x264.8bit.SDR.DTS-HD.MA.5.1-SWTYBLZ 19.02GB

[复制链接]

 成长值: 8350

级别:资源管理组

注册时间
2017-10-20
最后登录
2020-11-29
听众
1
收听
0
主题
106079
蓝光币
219219 枚
贡献
21715 点
发表于 2020-11-21 23:35:04 | 显示全部楼层 |阅读模式




译  名 格蕾特和韩塞尔 / Gretel and Hansel / 战栗糖果屋(台) / 格蕾特和汉塞尔 / 糖果屋 / 韩赛尔与格蕾特
片  名 Gretel & Hansel
年  代 2020
产  地 加拿大 / 爱尔兰 / 美国 / 南非
类  别 惊悚 / 可骇 / 奇异
语  言 英语
上映日期 2020-01-31(美国)
IMDb评分  5.3/10 from 17537 users
IMDb链接  https://www.imdb.com/title/tt9086228
豆瓣评分 5.4/10 from 1488 users
豆瓣链接 https://movie.douban.com/subject/34807058/
片  长 87分钟
导  演 奥兹·珀金斯 Oz Perkins
编  剧 罗布·海斯 Rob Hayes
主  演 索菲娅·莉莉丝 Sophia Lillis
       艾丽丝·克里奇 Alice Krige
       杰西卡·德·古维 Jessica De Gouw
       查尔斯·巴巴洛拉 Charles Babalola
       塞缪尔·利基 Samuel Leakey
       伊安·肯尼 Ian Kenny
       阿卜杜勒·阿尔沙瑞夫 Abdul Alshareef
       曼纽尔·庞波 Manuel Pombo
       贝娅特丽克斯·帕金斯 Beatrix Perkins


标  签 可骇 | 惊悚 | 奇异 | 2020 | 魔幻 | 美国 | 黑色童话 | 格林童话

简  介  

  描写葛丽特与汉赛尔被抛弃在黑森林中,试图找寻食品,却误入女巫预备丰厚佳肴的屋子。
  故事发生在很久很久之前,在一个悠远的村落,女孩葛丽特(索菲娅·莉莉丝 饰)带着弟弟韩赛尔进入一片阴暗密林,温饱交迫的两人原本希望可以在这里找到食品和工作,却遇上了使人恐惧的邪恶存在……

  1. Video
  2. ID                                       : 1
  3. Format                                   : AVC
  4. Format/Info                              : Advanced Video Codec
  5. Format profile                           : High@L5.1
  6. Format settings                          : CABAC / 5 Ref Frames
  7. Format settings, CABAC                   : Yes
  8. Format settings, Reference frames        : 5 frames
  9. Codec ID                                 : V_MPEG4/ISO/AVC
  10. Duration                                 : 1 h 27 min
  11. Bit rate                                 : 28.0 Mb/s
  12. Width                                    : 3 840 pixels
  13. Height                                   : 2 076 pixels
  14. Display aspect ratio                     : 1.85:1
  15. Frame rate mode                          : Constant
  16. Frame rate                               : 23.976 (24000/1001/45378) FPS
  17. Color space                              : YUV
  18. Chroma subsampling                       : 4:2:0
  19. Bit depth                                : 8 bits
  20. Scan type                                : Progressive
  21. Bits/(Pixel*Frame)                       : 0.147
  22. Stream size                              : 17.1 GiB (90%)
  23. Title                                    : Gretel.and.Hansel.2020.2160p.BluRay.x264.8bit.SDR.DTS-HD.MA.5.1-SWTYBLZ
  24. Writing library                          : x264 core 157 r2935 545de2f
  25. Encoding settings                        : cabac=1 / ref=5 / deblock=1:-1:-1 / analyse=0x3:0x113 / me=umh / subme=10 / psy=1 / psy_rd=1.00:0.15 / mixed_ref=1 / me_range=48 / chroma_me=1 / trellis=2 / 8x8dct=1 / cqm=0 / deadzone=21,11 / fast_pskip=1 / chroma_qp_offset=-3 / threads=48 / lookahead_threads=4 / sliced_threads=0 / nr=0 / decimate=0 / interlaced=0 / bluray_compat=0 / constrained_intra=0 / bframes=3 / b_pyramid=2 / b_adapt=2 / b_bias=0 / direct=3 / weightb=1 / open_gop=0 / weightp=2 / keyint=250 / keyint_min=23 / scenecut=40 / intra_refresh=0 / rc_lookahead=50 / rc=crf / mbtree=1 / crf=18.0 / qcomp=0.60 / qpmin=0 / qpmax=69 / qpstep=4 / ip_ratio=1.40 / aq=1:1.00
  26. Language                                 : English
  27. Default                                  : Yes
  28. Forced                                   : No
  29. Audio #1
  30. ID                                       : 2
  31. ID in the original source medium         : 4353 (0x1101)
  32. Format                                   : DTS XLL
  33. Format/Info                              : Digital Theater Systems
  34. Commercial name                          : DTS-HD Master Audio
  35. Codec ID                                 : A_DTS
  36. Duration                                 : 1 h 27 min
  37. Bit rate mode                            : Variable
  38. Bit rate                                 : 2 334 kb/s
  39. Channel(s)                               : 6 channels
  40. Channel layout                           : C L R Ls Rs LFE
  41. Sampling rate                            : 48.0 kHz
  42. Frame rate                               : 93.750 FPS (512 SPF)
  43. Bit depth                                : 16 bits
  44. Compression mode                         : Lossless
  45. Stream size                              : 1.43 GiB (8%)
  46. Title                                    : Gretel.and.Hansel.2020.2160p.BluRay.x264.8bit.SDR.DTS-HD.MA.5.1-SWTYBLZ
  47. Language                                 : English
  48. Default                                  : Yes
  49. Forced                                   : No
  50. Original source medium                   : Blu-ray
  51. Audio #2
  52. ID                                       : 3
  53. Format                                   : AC-3
  54. Format/Info                              : Audio Coding 3
  55. Commercial name                          : Dolby Digital
  56. Codec ID                                 : A_AC3
  57. Duration                                 : 1 h 27 min
  58. Bit rate mode                            : Constant
  59. Bit rate                                 : 640 kb/s
  60. Channel(s)                               : 6 channels
  61. Channel layout                           : L R C LFE Ls Rs
  62. Sampling rate                            : 48.0 kHz
  63. Frame rate                               : 31.250 FPS (1536 SPF)
  64. Compression mode                         : Lossy
  65. Stream size                              : 400 MiB (2%)
  66. Title                                    : Gretel.and.Hansel.2020.2160p.BluRay.x264.8bit.SDR.DTS-HD.MA.5.1-SWTYBLZ
  67. Language                                 : English
  68. Service kind                             : Complete Main
  69. Default                                  : No
  70. Forced                                   : No
  71. Text #1
  72. ID                                       : 4
  73. Format                                   : UTF-8
  74. Codec ID                                 : S_TEXT/UTF8
  75. Codec ID/Info                            : UTF-8 Plain Text
  76. Duration                                 : 1 h 21 min
  77. Bit rate                                 : 40 b/s
  78. Count of elements                        : 815
  79. Stream size                              : 23.9 KiB (0%)
  80. Title                                    : English-SRT
  81. Language                                 : English
  82. Default                                  : Yes
  83. Forced                                   : No
  84. Text #2
  85. ID                                       : 5
  86. Format                                   : UTF-8
  87. Codec ID                                 : S_TEXT/UTF8
  88. Codec ID/Info                            : UTF-8 Plain Text
  89. Duration                                 : 1 h 21 min
  90. Bit rate                                 : 42 b/s
  91. Count of elements                        : 913
  92. Stream size                              : 25.7 KiB (0%)
  93. Title                                    : English-SDH-SRT
  94. Language                                 : English
  95. Default                                  : No
  96. Forced                                   : No
  97. Text #3
  98. ID                                       : 6
  99. ID in the original source medium         : 4768 (0x12A0)
  100. Format                                   : PGS
  101. Muxing mode                              : zlib
  102. Codec ID                                 : S_HDMV/PGS
  103. Codec ID/Info                            : Picture based subtitle format used on BDs/HD-DVDs
  104. Duration                                 : 1 h 21 min
  105. Bit rate                                 : 27.6 kb/s
  106. Count of elements                        : 1458
  107. Stream size                              : 16.1 MiB (0%)
  108. Title                                    : German-PGS
  109. Language                                 : German
  110. Default                                  : No
  111. Forced                                   : No
  112. Original source medium                   : Blu-ray
  113. Menu
  114. 00:00:00.000                             : en:Chapter 01
  115. 00:07:09.429                             : en:Chapter 02
  116. 00:14:15.604                             : en:Chapter 03
  117. 00:21:47.889                             : en:Chapter 04
  118. 00:28:14.401                             : en:Chapter 05
  119. 00:36:35.359                             : en:Chapter 06
  120. 00:44:51.772                             : en:Chapter 07
  121. 00:52:16.633                             : en:Chapter 08
  122. 01:02:25.783                             : en:Chapter 09
  123. 01:10:40.736                             : en:Chapter 10
  124. 01:15:31.777                             : en:Chapter 11
  125. 01:19:11.496                             : en:Chapter 12
  126. 01:27:18.524                             : en:Chapter 13
复制代码
































   




本帖隐藏的下载地址需要VIP会员才可阅读,您需要升级才可阅读,点击这里升级VIP
回复

使用道具 举报

懒得打字嘛,点击右侧快捷回复 【右侧内容,后台自定义】
您需要登录后才可以回帖 登录 | 立即注册

本版积分规则

Archiver|手机版|小黑屋| 中国高清网 ( ICP备17007870号-2 ) |网站地图 

GMT+8, 2020-11-29 18:46 , Processed in 0.174259 second(s), 40 queries .

Powered by HDchina X3.4

Copyright 2017-2019©HDchina.All right reserved

返回顶部 联系我们