查看: 97|回复: 0

[REMUX.HEVC] 美国狼人在伦敦 An.American.Werewolf.in.London.1981.2160p.BluRay.REMUX.HEVC.DTS-HD.MA.5.1-FGT 52.72GB

[复制链接]

 成长值: 8350

级别:资源管理组

注册时间
2017-10-20
最后登录
2020-11-29
听众
1
收听
0
主题
106079
蓝光币
219215 枚
贡献
21715 点
发表于 2020-11-21 23:35:03 | 显示全部楼层 |阅读模式




译  名 美国狼人在伦敦 / 鬼追人
片  名 An American Werewolf in London
年  代 1981
产  地 美国 / 英国
类  别 恋爱 / 可骇
语  言 英语
上映日期 1981-08-21
IMDb评分  7.5/10 from 89135 users
IMDb链接  https://www.imdb.com/title/tt0082010
豆瓣评分 7.0/10 from 1872 users
豆瓣链接 https://movie.douban.com/subject/1295077/
片  长 97 分钟
导  演 John Landis
编  剧 John Landis
主  演 David Naughton
       Jenny Agutter
       Griffin Dunne
       John Woodvine
       Lila Kaye


标  签 可骇 | 美国 | 惊悚 | Cult | 1981 | 美国电影 | 英国 | 1980s

简  介  

  来自美国的杰克(格里芬·邓恩 Griffin Dunne 饰)和戴维(大卫·诺顿 David Naughton 饰)是一对经常结伴出游的好友,一次意外中,他们在位于英格兰的一篇沼泽里遭到了可怕的狼人的攻击,杰克就地灭亡,戴维负伤。住在四周小镇里的村民们救了戴维,并为他供给了养伤的居处。
  自从受伤以来,杰克频频出现在戴维的幻觉当中,杰克告诉戴维,戴维已经有了狼人的血缘,为了避免伤及无辜,杰克鼓舞戴维尽早的竣事自己的生命。果不其然,月圆之夜的隔天早晨,几句尸身的出现让小镇堕入了发急当中,只要杰克大白,自己是这一切的罪魁罪魁。杰克想要自首,可小镇上没有人愿意相信他。

获奖情况  

  第54届奥斯卡金像奖(1982)
  最好化装 里克·贝克

  1. Video
  2. ID                                       : 1
  3. ID in the original source medium         : 4113 (0x1011)
  4. Format                                   : HEVC
  5. Format/Info                              : High Efficiency Video Coding
  6. Format profile                           : Main 10@L5.1@High
  7. HDR format                               : SMPTE ST 2086, HDR10 compatible
  8. Codec ID                                 : V_MPEGH/ISO/HEVC
  9. Duration                                 : 1 h 37 min
  10. Bit rate                                 : 70.8 Mb/s
  11. Width                                    : 3 840 pixels
  12. Height                                   : 2 160 pixels
  13. Display aspect ratio                     : 16:9
  14. Frame rate mode                          : Constant
  15. Frame rate                               : 23.976 (24000/1001/45378) FPS
  16. Color space                              : YUV
  17. Chroma subsampling                       : 4:2:0 (Type 2)
  18. Bit depth                                : 10 bits
  19. Bits/(Pixel*Frame)                       : 0.356
  20. Stream size                              : 48.1 GiB (91%)
  21. Title                                    : An.American.Werewolf.in.London.1981.2160p.BluRay.REMUX.HEVC.DTS-HD.MA.5.1-FGT
  22. Language                                 : English
  23. Default                                  : No
  24. Forced                                   : No
  25. Color range                              : Limited
  26. Color primaries                          : BT.2020
  27. Transfer characteristics                 : PQ
  28. Matrix coefficients                      : BT.2020 non-constant
  29. Mastering display color primaries        : Display P3
  30. Mastering display luminance              : min: 0.0001 cd/m2, max: 1000 cd/m2
  31. Maximum Content Light Level              : 1000 cd/m2
  32. Maximum Frame-Average Light Level        : 400 cd/m2
  33. Original source medium                   : Blu-ray

  34. Audio #1
  35. ID                                       : 2
  36. ID in the original source medium         : 4354 (0x1102)
  37. Format                                   : DTS XLL
  38. Format/Info                              : Digital Theater Systems
  39. Commercial name                          : DTS-HD Master Audio
  40. Codec ID                                 : A_DTS
  41. Duration                                 : 1 h 37 min
  42. Bit rate mode                            : Variable
  43. Bit rate                                 : 2 354 kb/s
  44. Channel(s)                               : 6 channels
  45. Channel layout                           : C L R Ls Rs LFE
  46. Sampling rate                            : 48.0 kHz
  47. Frame rate                               : 93.750 FPS (512 SPF)
  48. Bit depth                                : 16 bits
  49. Compression mode                         : Lossless
  50. Stream size                              : 1.60 GiB (3%)
  51. Title                                    : An.American.Werewolf.in.London.1981.2160p.BluRay.REMUX.HEVC.DTS-HD.MA.5.1-FGT
  52. Language                                 : English
  53. Default                                  : Yes
  54. Forced                                   : No
  55. Original source medium                   : Blu-ray

  56. Audio #2
  57. ID                                       : 3
  58. ID in the original source medium         : 4355 (0x1103)
  59. Format                                   : DTS XLL
  60. Format/Info                              : Digital Theater Systems
  61. Commercial name                          : DTS-HD Master Audio
  62. Codec ID                                 : A_DTS
  63. Duration                                 : 1 h 37 min
  64. Bit rate mode                            : Variable
  65. Bit rate                                 : 1 079 kb/s
  66. Channel(s)                               : 2 channels
  67. Channel layout                           : L R
  68. Sampling rate                            : 48.0 kHz
  69. Frame rate                               : 93.750 FPS (512 SPF)
  70. Bit depth                                : 16 bits
  71. Compression mode                         : Lossless
  72. Stream size                              : 751 MiB (1%)
  73. Title                                    : An.American.Werewolf.in.London.1981.2160p.BluRay.REMUX.HEVC.DTS-HD.MA.5.1-FGT
  74. Language                                 : English
  75. Default                                  : No
  76. Forced                                   : No
  77. Original source medium                   : Blu-ray

  78. Audio #3
  79. ID                                       : 4
  80. ID in the original source medium         : 4352 (0x1100)
  81. Format                                   : DTS XLL
  82. Format/Info                              : Digital Theater Systems
  83. Commercial name                          : DTS-HD Master Audio
  84. Codec ID                                 : A_DTS
  85. Duration                                 : 1 h 37 min
  86. Bit rate mode                            : Variable
  87. Bit rate                                 : 2 248 kb/s
  88. Channel(s)                               : 6 channels
  89. Channel layout                           : C L R Ls Rs LFE
  90. Sampling rate                            : 48.0 kHz
  91. Frame rate                               : 93.750 FPS (512 SPF)
  92. Bit depth                                : 16 bits
  93. Compression mode                         : Lossless
  94. Stream size                              : 1.53 GiB (3%)
  95. Title                                    : An.American.Werewolf.in.London.1981.2160p.BluRay.REMUX.HEVC.DTS-HD.MA.5.1-FGT
  96. Language                                 : German
  97. Default                                  : No
  98. Forced                                   : No
  99. Original source medium                   : Blu-ray

  100. Audio #4
  101. ID                                       : 5
  102. ID in the original source medium         : 4353 (0x1101)
  103. Format                                   : DTS XLL
  104. Format/Info                              : Digital Theater Systems
  105. Commercial name                          : DTS-HD Master Audio
  106. Codec ID                                 : A_DTS
  107. Duration                                 : 1 h 37 min
  108. Bit rate mode                            : Variable
  109. Bit rate                                 : 1 082 kb/s
  110. Channel(s)                               : 2 channels
  111. Channel layout                           : L R
  112. Sampling rate                            : 48.0 kHz
  113. Frame rate                               : 93.750 FPS (512 SPF)
  114. Bit depth                                : 16 bits
  115. Compression mode                         : Lossless
  116. Stream size                              : 753 MiB (1%)
  117. Title                                    : An.American.Werewolf.in.London.1981.2160p.BluRay.REMUX.HEVC.DTS-HD.MA.5.1-FGT
  118. Language                                 : German
  119. Default                                  : No
  120. Forced                                   : No
  121. Original source medium                   : Blu-ray

  122. Text #1
  123. ID                                       : 6
  124. Format                                   : UTF-8
  125. Codec ID                                 : S_TEXT/UTF8
  126. Codec ID/Info                            : UTF-8 Plain Text
  127. Duration                                 : 1 h 29 min
  128. Bit rate                                 : 52 b/s
  129. Count of elements                        : 939
  130. Stream size                              : 34.3 KiB (0%)
  131. Title                                    : English-SRT
  132. Language                                 : English
  133. Default                                  : Yes
  134. Forced                                   : No

  135. Text #2
  136. ID                                       : 7
  137. ID in the original source medium         : 4769 (0x12A1)
  138. Format                                   : PGS
  139. Muxing mode                              : zlib
  140. Codec ID                                 : S_HDMV/PGS
  141. Codec ID/Info                            : Picture based subtitle format used on BDs/HD-DVDs
  142. Duration                                 : 1 h 29 min
  143. Bit rate                                 : 28.8 kb/s
  144. Count of elements                        : 1885
  145. Stream size                              : 18.4 MiB (0%)
  146. Title                                    : English-PGS
  147. Language                                 : English
  148. Default                                  : No
  149. Forced                                   : No
  150. Original source medium                   : Blu-ray

  151. Text #3
  152. ID                                       : 8
  153. ID in the original source medium         : 4768 (0x12A0)
  154. Format                                   : PGS
  155. Muxing mode                              : zlib
  156. Codec ID                                 : S_HDMV/PGS
  157. Codec ID/Info                            : Picture based subtitle format used on BDs/HD-DVDs
  158. Duration                                 : 1 h 33 min
  159. Bit rate                                 : 28.3 kb/s
  160. Count of elements                        : 1978
  161. Stream size                              : 18.9 MiB (0%)
  162. Title                                    : German-PGS
  163. Language                                 : German
  164. Default                                  : No
  165. Forced                                   : No
  166. Original source medium                   : Blu-ray

  167. Text #4
  168. ID                                       : 9
  169. ID in the original source medium         : 4770 (0x12A2)
  170. Format                                   : PGS
  171. Muxing mode                              : zlib
  172. Codec ID                                 : S_HDMV/PGS
  173. Codec ID/Info                            : Picture based subtitle format used on BDs/HD-DVDs
  174. Duration                                 : 19 s 499 ms
  175. Bit rate                                 : 78.6 kb/s
  176. Count of elements                        : 12
  177. Stream size                              : 187 KiB (0%)
  178. Title                                    : German-FORCED-PGS
  179. Language                                 : German
  180. Default                                  : No
  181. Forced                                   : No
  182. Original source medium                   : Blu-ray

  183. Menu
  184. 00:00:00.000                             : en:Chapter 01
  185. 00:06:47.198                             : en:Chapter 02
  186. 00:11:29.772                             : en:Chapter 03
  187. 00:17:20.748                             : en:Chapter 04
  188. 00:24:51.239                             : en:Chapter 05
  189. 00:31:26.718                             : en:Chapter 06
  190. 00:37:40.967                             : en:Chapter 07
  191. 00:42:57.741                             : en:Chapter 08
  192. 00:47:57.666                             : en:Chapter 09
  193. 00:54:51.246                             : en:Chapter 10
  194. 00:58:52.487                             : en:Chapter 11
  195. 01:01:23.429                             : en:Chapter 12
  196. 01:06:26.273                             : en:Chapter 13
  197. 01:09:14.942                             : en:Chapter 14
  198. 01:15:17.930                             : en:Chapter 15
  199. 01:22:09.883                             : en:Chapter 16
  200. 01:28:45.695                             : en:Chapter 17
  201. 01:33:42.617                             : en:Chapter 18
复制代码

















   




本帖隐藏的下载地址需要VIP会员才可阅读,您需要升级才可阅读,点击这里升级VIP
回复

使用道具 举报

懒得打字嘛,点击右侧快捷回复 【右侧内容,后台自定义】
您需要登录后才可以回帖 登录 | 立即注册

本版积分规则

Archiver|手机版|小黑屋| 中国高清网 ( ICP备17007870号-2 ) |网站地图 

GMT+8, 2020-11-29 18:28 , Processed in 0.186856 second(s), 40 queries .

Powered by HDchina X3.4

Copyright 2017-2019©HDchina.All right reserved

返回顶部 联系我们