查看: 215|回复: 0

[10bit.HDR] 新变种人/变种人 The.New.Mutants.2020.2160p.UHD.BluRay.x265.10bit.HDR.TrueHD.7.1.Atmos-B0MBARDiERS 15.27GB

[复制链接]

 成长值: 8350

级别:资源管理组

注册时间
2017-10-20
最后登录
2020-11-29
听众
1
收听
0
主题
106079
蓝光币
219213 枚
贡献
21715 点
发表于 2020-11-21 23:35:02 | 显示全部楼层 |阅读模式




译  名 新变种人 / X-Men: The New Mutants / 变种人(台) / 新变档人(豆友译名) / 新异变人(港)
片  名 The New Mutants
年  代 2020
产  地 美国
类  别 行动 / 科幻 / 可骇
语  言 英语
上映日期 2020-08-28(美国)
IMDb评分  5.5/10 from 12799 users
IMDb链接  https://www.imdb.com/title/tt4682266
豆瓣评分 5.0/10 from 619 users
豆瓣链接 https://movie.douban.com/subject/26389321/
片  长 98分钟
导  演 约什·布恩 Josh Boone
编  剧 约什·布恩 Josh Boone / 内特·李 Knate Lee / 克里斯·克雷蒙 Chris Claremont / 莱恩·韦恩 Len Wein / 戴夫·科克勒姆 Dave Cockrum
主  演 麦茜·威廉姆斯 Maisie Williams
       安雅·泰勒-乔伊 Anya Taylor-Joy
       艾莉丝·布拉加 Alice Braga
       安东尼奥·班德拉斯 Antonio Banderas
       查理·希顿 Charlie Heaton
       海皮·安德森 Happy Anderson
       亨利·扎格 Henry Zaga
       布鲁·亨特 Blu Hunt
       莎拉·贝纳尼 Sarah Bennani


标  签 X战警 | 漫威 | X-Men | 科幻 | Marvel | 美国 | 超级豪杰 | 漫画改编

简  介  

  当五位具有特别才能的青少年被关入奥秘机构,有一股超自然恶势力正捋臂张拳,他们必须面临曩昔的罪行,但心里的恐惧行将成真。奥秘的背后似乎有庞大的诡计正在成形,他们能否能勇敢匹敌本身的气力,逃走这一切桎梏……

获奖情况  

  第6届豆瓣电影年度榜单(2019)
  最值得期待的外语电影(提名)

  1. Video
  2. ID                                       : 1
  3. Format                                   : HEVC
  4. Format/Info                              : High Efficiency Video Coding
  5. Format profile                           : Main 10@L5.1@High
  6. HDR format                               : SMPTE ST 2086, HDR10 compatible
  7. Codec ID                                 : V_MPEGH/ISO/HEVC
  8. Duration                                 : 1 h 34 min
  9. Bit rate                                 : 18.2 Mb/s
  10. Width                                    : 3 840 pixels
  11. Height                                   : 2 076 pixels
  12. Display aspect ratio                     : 1.85:1
  13. Frame rate mode                          : Constant
  14. Frame rate                               : 23.976 (24000/1001/45378) FPS
  15. Color space                              : YUV
  16. Chroma subsampling                       : 4:2:0 (Type 2)
  17. Bit depth                                : 10 bits
  18. Bits/(Pixel*Frame)                       : 0.095
  19. Stream size                              : 12.0 GiB (79%)
  20. Writing library                          : x265 3.4+26-ga82c6c7a7:[Windows][GCC 10.2.1][64 bit] 10bit
  21. Encoding settings                        : cpuid=1176575 / frame-threads=4 / numa-pools=24 / wpp / no-pmode / no-pme / no-psnr / no-ssim / log-level=2 / input-csp=1 / input-res=3840x2076 / interlace=0 / total-frames=135319 / level-idc=51 / high-tier=1 / uhd-bd=0 / ref=4 / no-allow-non-conformance / repeat-headers / annexb / aud / hrd / info / hash=0 / no-temporal-layers / open-gop / min-keyint=23 / keyint=250 / gop-lookahead=0 / bframes=4 / b-adapt=2 / b-pyramid / bframe-bias=0 / rc-lookahead=25 / lookahead-slices=4 / scenecut=40 / hist-scenecut=0 / radl=0 / no-splice / no-intra-refresh / ctu=64 / min-cu-size=8 / rect / no-amp / max-tu-size=32 / tu-inter-depth=1 / tu-intra-depth=1 / limit-tu=0 / rdoq-level=2 / dynamic-rd=0.00 / no-ssim-rd / signhide / no-tskip / nr-intra=0 / nr-inter=0 / no-constrained-intra / strong-intra-smoothing / max-merge=3 / limit-refs=3 / limit-modes / me=3 / subme=3 / merange=57 / temporal-mvp / no-frame-dup / no-hme / weightp / no-weightb / no-analyze-src-pics / deblock=-3:-3 / no-sao / no-sao-non-deblock / rd=4 / selective-sao=0 / no-early-skip / rskip / no-fast-intra / no-tskip-fast / no-cu-lossless / no-b-intra / no-splitrd-skip / rdpenalty=0 / psy-rd=2.00 / psy-rdoq=1.00 / no-rd-refine / no-lossless / cbqpoffs=0 / crqpoffs=0 / rc=crf / crf=14.0 / qcomp=0.60 / qpstep=4 / stats-write=0 / stats-read=0 / vbv-maxrate=160000 / vbv-bufsize=160000 / vbv-init=0.9 / min-vbv-fullness=50.0 / max-vbv-fullness=80.0 / crf-max=0.0 / crf-min=0.0 / ipratio=1.40 / pbratio=1.30 / aq-mode=2 / aq-strength=1.00 / cutree / zone-count=0 / no-strict-cbr / qg-size=32 / no-rc-grain / qpmax=69 / qpmin=0 / no-const-vbv / sar=1 / overscan=0 / videoformat=5 / range=0 / colorprim=9 / transfer=16 / colormatrix=9 / chromaloc=1 / chromaloc-top=2 / chromaloc-bottom=2 / display-window=0 / master-display=G(13250,34500)B(7500,3000)R(34000,16000)WP(15635,16450)L(10000000,50) / cll=0,0 / min-luma=0 / max-luma=1023 / log2-max-poc-lsb=8 / vui-timing-info / vui-hrd-info / slices=1 / no-opt-qp-pps / no-opt-ref-list-length-pps / no-multi-pass-opt-rps / scenecut-bias=0.05 / hist-threshold=0.03 / no-opt-cu-delta-qp / no-aq-motion / hdr10 / hdr10-opt / no-dhdr10-opt / no-idr-recovery-sei / analysis-reuse-level=0 / analysis-save-reuse-level=0 / analysis-load-reuse-level=0 / scale-factor=0 / refine-intra=0 / refine-inter=0 / refine-mv=1 / refine-ctu-distortion=0 / no-limit-sao / ctu-info=0 / no-lowpass-dct / refine-analysis-type=0 / copy-pic=1 / max-ausize-factor=1.0 / no-dynamic-refine / no-single-sei / no-hevc-aq / no-svt / no-field / qp-adaptation-range=1.00 / no-scenecut-aware-qpconformance-window-offsets / right=0 / bottom=0 / decoder-max-rate=0 / no-vbv-live-multi-pass
  22. Default                                  : Yes
  23. Forced                                   : No
  24. Color range                              : Limited
  25. Color primaries                          : BT.2020
  26. Transfer characteristics                 : PQ
  27. Matrix coefficients                      : BT.2020 non-constant
  28. Mastering display color primaries        : Display P3
  29. Mastering display luminance              : min: 0.0050 cd/m2, max: 1000 cd/m2

  30. Audio #1
  31. ID                                       : 2
  32. Format                                   : MLP FBA 16-ch
  33. Format/Info                              : Meridian Lossless Packing FBA with 16-channel presentation
  34. Commercial name                          : Dolby TrueHD with Dolby Atmos
  35. Codec ID                                 : A_TRUEHD
  36. Duration                                 : 1 h 34 min
  37. Bit rate mode                            : Variable
  38. Bit rate                                 : 4 125 kb/s
  39. Maximum bit rate                         : 8 931 kb/s
  40. Channel(s)                               : 8 channels
  41. Channel layout                           : L R C LFE Ls Rs Lb Rb
  42. Sampling rate                            : 48.0 kHz
  43. Frame rate                               : 1 200.000 FPS (40 SPF)
  44. Compression mode                         : Lossless
  45. Stream size                              : 2.71 GiB (18%)
  46. Language                                 : English
  47. Default                                  : Yes
  48. Forced                                   : No
  49. Number of dynamic objects                : 13
  50. Bed channel count                        : 1 channel
  51. Bed channel configuration                : LFE

  52. Audio #2
  53. ID                                       : 3
  54. Format                                   : AC-3
  55. Format/Info                              : Audio Coding 3
  56. Commercial name                          : Dolby Digital
  57. Codec ID                                 : A_AC3
  58. Duration                                 : 1 h 34 min
  59. Bit rate mode                            : Constant
  60. Bit rate                                 : 640 kb/s
  61. Channel(s)                               : 6 channels
  62. Channel layout                           : L R C LFE Ls Rs
  63. Sampling rate                            : 48.0 kHz
  64. Frame rate                               : 31.250 FPS (1536 SPF)
  65. Compression mode                         : Lossy
  66. Stream size                              : 431 MiB (3%)
  67. Language                                 : English
  68. Service kind                             : Complete Main
  69. Default                                  : No
  70. Forced                                   : No

  71. Text #1
  72. ID                                       : 4
  73. Format                                   : PGS
  74. Muxing mode                              : zlib
  75. Codec ID                                 : S_HDMV/PGS
  76. Codec ID/Info                            : Picture based subtitle format used on BDs/HD-DVDs
  77. Duration                                 : 1 h 26 min
  78. Bit rate                                 : 34.6 kb/s
  79. Count of elements                        : 2686
  80. Stream size                              : 21.3 MiB (0%)
  81. Title                                    : English SDH
  82. Language                                 : English
  83. Default                                  : No
  84. Forced                                   : No

  85. Text #2
  86. ID                                       : 5
  87. Format                                   : PGS
  88. Muxing mode                              : zlib
  89. Codec ID                                 : S_HDMV/PGS
  90. Codec ID/Info                            : Picture based subtitle format used on BDs/HD-DVDs
  91. Duration                                 : 1 h 33 min
  92. Bit rate                                 : 21.1 kb/s
  93. Count of elements                        : 1846
  94. Stream size                              : 14.1 MiB (0%)
  95. Title                                    : French
  96. Language                                 : French
  97. Default                                  : No
  98. Forced                                   : No

  99. Text #3
  100. ID                                       : 6
  101. Format                                   : PGS
  102. Muxing mode                              : zlib
  103. Codec ID                                 : S_HDMV/PGS
  104. Codec ID/Info                            : Picture based subtitle format used on BDs/HD-DVDs
  105. Duration                                 : 1 h 33 min
  106. Bit rate                                 : 25.2 kb/s
  107. Count of elements                        : 2020
  108. Stream size                              : 16.8 MiB (0%)
  109. Title                                    : French
  110. Language                                 : French
  111. Default                                  : No
  112. Forced                                   : No

  113. Text #4
  114. ID                                       : 7
  115. Format                                   : PGS
  116. Muxing mode                              : zlib
  117. Codec ID                                 : S_HDMV/PGS
  118. Codec ID/Info                            : Picture based subtitle format used on BDs/HD-DVDs
  119. Duration                                 : 1 h 26 min
  120. Bit rate                                 : 26.5 kb/s
  121. Count of elements                        : 1980
  122. Stream size                              : 16.3 MiB (0%)
  123. Title                                    : Spanish
  124. Language                                 : Spanish
  125. Default                                  : No
  126. Forced                                   : No

  127. Text #5
  128. ID                                       : 8
  129. Format                                   : PGS
  130. Muxing mode                              : zlib
  131. Codec ID                                 : S_HDMV/PGS
  132. Codec ID/Info                            : Picture based subtitle format used on BDs/HD-DVDs
  133. Duration                                 : 1 h 33 min
  134. Bit rate                                 : 23.4 kb/s
  135. Count of elements                        : 1918
  136. Stream size                              : 15.6 MiB (0%)
  137. Title                                    : German
  138. Language                                 : German
  139. Default                                  : No
  140. Forced                                   : No

  141. Text #6
  142. ID                                       : 9
  143. Format                                   : PGS
  144. Muxing mode                              : zlib
  145. Codec ID                                 : S_HDMV/PGS
  146. Codec ID/Info                            : Picture based subtitle format used on BDs/HD-DVDs
  147. Duration                                 : 1 h 12 min
  148. Bit rate                                 : 814 b/s
  149. Count of elements                        : 42
  150. Stream size                              : 436 KiB (0%)
  151. Title                                    : French
  152. Language                                 : French
  153. Default                                  : No
  154. Forced                                   : No

  155. Text #7
  156. ID                                       : 10
  157. Format                                   : PGS
  158. Muxing mode                              : zlib
  159. Codec ID                                 : S_HDMV/PGS
  160. Codec ID/Info                            : Picture based subtitle format used on BDs/HD-DVDs
  161. Duration                                 : 1 h 27 min
  162. Bit rate                                 : 970 b/s
  163. Count of elements                        : 70
  164. Stream size                              : 625 KiB (0%)
  165. Title                                    : French
  166. Language                                 : French
  167. Default                                  : No
  168. Forced                                   : No

  169. Text #8
  170. ID                                       : 11
  171. Format                                   : PGS
  172. Muxing mode                              : zlib
  173. Codec ID                                 : S_HDMV/PGS
  174. Codec ID/Info                            : Picture based subtitle format used on BDs/HD-DVDs
  175. Duration                                 : 1 h 12 min
  176. Bit rate                                 : 834 b/s
  177. Count of elements                        : 38
  178. Stream size                              : 446 KiB (0%)
  179. Title                                    : Spanish
  180. Language                                 : Spanish
  181. Default                                  : No
  182. Forced                                   : No

  183. Text #9
  184. ID                                       : 12
  185. Format                                   : PGS
  186. Muxing mode                              : zlib
  187. Codec ID                                 : S_HDMV/PGS
  188. Codec ID/Info                            : Picture based subtitle format used on BDs/HD-DVDs
  189. Duration                                 : 8 s 300 ms
  190. Bit rate                                 : 43.3 kb/s
  191. Count of elements                        : 4
  192. Stream size                              : 43.8 KiB (0%)
  193. Title                                    : German
  194. Language                                 : German
  195. Default                                  : No
  196. Forced                                   : No

  197. Menu
  198. 00:00:00.000                             : en:Chapter 01
  199. 00:02:39.951                             : en:Chapter 02
  200. 00:08:07.737                             : en:Chapter 03
  201. 00:10:53.862                             : en:Chapter 04
  202. 00:14:33.039                             : en:Chapter 05
  203. 00:17:23.918                             : en:Chapter 06
  204. 00:19:53.067                             : en:Chapter 07
  205. 00:23:41.879                             : en:Chapter 08
  206. 00:27:54.590                             : en:Chapter 09
  207. 00:30:30.078                             : en:Chapter 10
  208. 00:33:26.588                             : en:Chapter 11
  209. 00:39:36.791                             : en:Chapter 12
  210. 00:43:12.965                             : en:Chapter 13
  211. 00:47:53.287                             : en:Chapter 14
  212. 00:50:35.157                             : en:Chapter 15
  213. 00:52:12.254                             : en:Chapter 16
  214. 00:55:28.825                             : en:Chapter 17
  215. 00:57:13.055                             : en:Chapter 18
  216. 01:00:17.113                             : en:Chapter 19
  217. 01:02:37.754                             : en:Chapter 20
  218. 01:06:36.367                             : en:Chapter 21
  219. 01:11:12.101                             : en:Chapter 22
  220. 01:13:44.462                             : en:Chapter 23
  221. 01:15:07.878                             : en:Chapter 24
  222. 01:18:57.107                             : en:Chapter 25
  223. 01:21:52.366                             : en:Chapter 26
  224. 01:24:32.276                             : en:Chapter 27
  225. 01:26:46.201                             : en:Chapter 28
复制代码

















   




本帖隐藏的下载地址需要VIP会员才可阅读,您需要升级才可阅读,点击这里升级VIP
回复

使用道具 举报

懒得打字嘛,点击右侧快捷回复 【右侧内容,后台自定义】
您需要登录后才可以回帖 登录 | 立即注册

本版积分规则

Archiver|手机版|小黑屋| 中国高清网 ( ICP备17007870号-2 ) |网站地图 

GMT+8, 2020-11-29 18:20 , Processed in 0.188500 second(s), 40 queries .

Powered by HDchina X3.4

Copyright 2017-2019©HDchina.All right reserved

返回顶部 联系我们