查看: 75|回复: 0

[10bit.HDR] 冲突/急先锋横扫罪恶城 Serpico.1973.2160p.UHD.BluRay.x265.10bit.HDR.DTS-HD.MA.5.1-SWTYBLZ 35.57GB

[复制链接]

 成长值: 8350

级别:资源管理组

注册时间
2017-10-20
最后登录
2020-11-29
听众
1
收听
0
主题
106079
蓝光币
219205 枚
贡献
21715 点
发表于 2020-11-21 23:35:02 | 显示全部楼层 |阅读模式




译  名 抵触 / 急先锋横扫罪行城 / 谢皮科
片  名 Serpico
年  代 1973
产  地 意大利 / 美国
类  别 剧情 / 列传 / 犯罪
语  言 英语 / 西班牙语 / 意大利语
上映日期 1973-12-05
IMDb评分  7.7/10 from 106997 users
IMDb链接  https://www.imdb.com/title/tt0070666
豆瓣评分 7.7/10 from 2369 users
豆瓣链接 https://movie.douban.com/subject/1292857/
片  长 130 分钟
导  演 西德尼·吕美特 Sidney Lumet
编  剧 瓦尔度·绍特 Waldo Salt / 诺曼·韦克斯勒 Norman Wexler
主  演 阿尔·帕西诺 Al Pacino
       约翰·兰道夫 John Randolph
       杰克·基欧 Jack Kehoe
       比夫·麦奎尔 Biff McGuire
       艾伦·瑞奇 Allan Rich


标  签 阿尔·帕西诺 | 美国 | 犯罪 | AlPacino | 1973 | 美国电影 | SidneyLumet | 剧情

简  介  

  法兰克是一个年轻而富有理想的差人,他从巡警起头做起,后来成为卧底差人,虽然他的破案率很高,但他不愿意象其他差人那样收受行贿,这使他显得和其他品德格不入。这类做法也使他身陷危机,由于他的同事们都与他为敌,且不时地谗谄他。当检察组起头观察警局内部的受贿内幕时,他又出头作证,是以更堕入危险当中……

获奖情况  

  第46届奥斯卡金像奖(1974)
  最好男配角(提名) 阿尔·帕西诺
  最好改编剧本(提名) 诺曼·韦克斯勒 / 瓦尔度·绍特

  1. Video
  2. ID                                       : 1
  3. Format                                   : HEVC
  4. Format/Info                              : High Efficiency Video Coding
  5. Format profile                           : Main 10@L5.1@High
  6. HDR format                               : SMPTE ST 2086, HDR10 compatible
  7. Codec ID                                 : V_MPEGH/ISO/HEVC
  8. Duration                                 : 2 h 10 min
  9. Bit rate                                 : 32.5 Mb/s
  10. Width                                    : 3 840 pixels
  11. Height                                   : 2 072 pixels
  12. Display aspect ratio                     : 1.85:1
  13. Frame rate mode                          : Constant
  14. Frame rate                               : 24.000 FPS
  15. Color space                              : YUV
  16. Chroma subsampling                       : 4:2:0 (Type 2)
  17. Bit depth                                : 10 bits
  18. Bits/(Pixel*Frame)                       : 0.170
  19. Stream size                              : 29.6 GiB (84%)
  20. Title                                    : Serpico.1973.2160p.UHD.BluRay.x265.10bit.HDR.DTS-HD.MA.5.1-SWTYBLZ
  21. Writing library                          : x265 3.0_Au+10-74a8672ea4f7:[Windows][GCC 8.2.1][64 bit] 10bit
  22. Encoding settings                        : cpuid=1111039 / frame-threads=6 / numa-pools=40 / wpp / no-pmode / no-pme / no-psnr / no-ssim / log-level=2 / input-csp=1 / input-res=3840x2072 / interlace=0 / total-frames=0 / level-idc=51 / high-tier=1 / uhd-bd=0 / ref=3 / no-allow-non-conformance / repeat-headers / annexb / aud / hrd / info / hash=0 / no-temporal-layers / no-open-gop / min-keyint=1 / keyint=24 / gop-lookahead=0 / bframes=4 / b-adapt=2 / b-pyramid / bframe-bias=0 / rc-lookahead=25 / lookahead-slices=4 / scenecut=40 / radl=0 / no-splice / no-intra-refresh / ctu=64 / min-cu-size=8 / no-rect / no-amp / max-tu-size=32 / tu-inter-depth=1 / tu-intra-depth=1 / limit-tu=0 / rdoq-level=0 / dynamic-rd=0.00 / no-ssim-rd / signhide / no-tskip / nr-intra=0 / nr-inter=0 / no-constrained-intra / strong-intra-smoothing / max-merge=2 / limit-refs=3 / no-limit-modes / me=1 / subme=2 / merange=57 / temporal-mvp / weightp / no-weightb / no-analyze-src-pics / deblock=0:0 / no-sao / no-sao-non-deblock / rd=3 / no-early-skip / rskip / no-fast-intra / no-tskip-fast / no-cu-lossless / no-b-intra / no-splitrd-skip / rdpenalty=0 / psy-rd=2.00 / psy-rdoq=0.00 / no-rd-refine / no-lossless / cbqpoffs=0 / crqpoffs=0 / rc=crf / crf=16.0 / qcomp=0.60 / qpstep=4 / stats-write=0 / stats-read=0 / vbv-maxrate=160000 / vbv-bufsize=160000 / vbv-init=0.9 / crf-max=0.0 / crf-min=0.0 / ipratio=1.40 / pbratio=1.30 / aq-mode=1 / aq-strength=1.00 / cutree / zone-count=0 / no-strict-cbr / qg-size=32 / no-rc-grain / qpmax=69 / qpmin=0 / no-const-vbv / sar=1 / overscan=0 / videoformat=5 / range=0 / colorprim=9 / transfer=16 / colormatrix=9 / chromaloc=1 / chromaloc-top=2 / chromaloc-bottom=2 / display-window=0 / master-display=G(8500,39850)B(6550,2300)R(35400,14600)WP(15635,16450)L(10000000,01) / max-cll=0,0 / min-luma=0 / max-luma=1023 / log2-max-poc-lsb=8 / vui-timing-info / vui-hrd-info / slices=1 / opt-qp-pps / opt-ref-list-length-pps / no-multi-pass-opt-rps / scenecut-bias=0.05 / no-opt-cu-delta-qp / no-aq-motion / hdr / hdr-opt / no-dhdr10-opt / no-idr-recovery-sei / analysis-reuse-level=5 / scale-factor=0 / refine-intra=0 / refine-inter=0 / refine-mv=0 / refine-ctu-distortion=0 / no-limit-sao / ctu-info=0 / no-lowpass-dct / refine-analysis-type=0 / copy-pic=1 / max-ausize-factor=1.0 / no-dynamic-refine / no-single-sei / no-hevc-aq / no-svt / qp-adaptation-range=1.00
  23. Language                                 : English
  24. Default                                  : Yes
  25. Forced                                   : No
  26. Color range                              : Limited
  27. Color primaries                          : BT.2020
  28. Transfer characteristics                 : PQ
  29. Matrix coefficients                      : BT.2020 non-constant
  30. Mastering display color primaries        : BT.2020
  31. Mastering display luminance              : min: 0.0001 cd/m2, max: 1000 cd/m2

  32. Audio #1
  33. ID                                       : 2
  34. Format                                   : DTS XLL
  35. Format/Info                              : Digital Theater Systems
  36. Commercial name                          : DTS-HD Master Audio
  37. Codec ID                                 : A_DTS
  38. Duration                                 : 2 h 10 min
  39. Bit rate mode                            : Variable
  40. Bit rate                                 : 3 440 kb/s
  41. Channel(s)                               : 6 channels
  42. Channel layout                           : C L R Ls Rs LFE
  43. Sampling rate                            : 48.0 kHz
  44. Frame rate                               : 93.750 FPS (512 SPF)
  45. Bit depth                                : 24 bits
  46. Compression mode                         : Lossless
  47. Stream size                              : 3.13 GiB (9%)
  48. Title                                    : Serpico.1973.2160p.UHD.BluRay.x265.10bit.HDR.DTS-HD.MA.5.1-SWTYBLZ
  49. Language                                 : English
  50. Default                                  : Yes
  51. Forced                                   : No

  52. Audio #2
  53. ID                                       : 3
  54. Format                                   : AC-3
  55. Format/Info                              : Audio Coding 3
  56. Commercial name                          : Dolby Digital
  57. Codec ID                                 : A_AC3
  58. Duration                                 : 2 h 10 min
  59. Bit rate mode                            : Constant
  60. Bit rate                                 : 640 kb/s
  61. Channel(s)                               : 6 channels
  62. Channel layout                           : L R C LFE Ls Rs
  63. Sampling rate                            : 48.0 kHz
  64. Frame rate                               : 31.250 FPS (1536 SPF)
  65. Compression mode                         : Lossy
  66. Stream size                              : 596 MiB (2%)
  67. Title                                    : Serpico.1973.2160p.UHD.BluRay.x265.10bit.HDR.DTS-HD.MA.5.1-SWTYBLZ
  68. Language                                 : English
  69. Service kind                             : Complete Main
  70. Default                                  : No
  71. Forced                                   : No

  72. Audio #3
  73. ID                                       : 4
  74. ID in the original source medium         : 4353 (0x1101)
  75. Format                                   : PCM
  76. Format settings                          : Little / Signed
  77. Codec ID                                 : A_PCM/INT/LIT
  78. Duration                                 : 2 h 10 min
  79. Bit rate mode                            : Constant
  80. Bit rate                                 : 2 304 kb/s
  81. Channel(s)                               : 2 channels
  82. Sampling rate                            : 48.0 kHz
  83. Frame rate                               : 30.000 FPS (1600 SPF)
  84. Bit depth                                : 24 bits
  85. Stream size                              : 2.10 GiB (6%)
  86. Title                                    : Serpico.1973.2160p.UHD.BluRay.x265.10bit.HDR.DTS-HD.MA.5.1-SWTYBLZ
  87. Language                                 : English
  88. Default                                  : No
  89. Forced                                   : No
  90. Original source medium                   : Blu-ray

  91. Text #1
  92. ID                                       : 5
  93. Format                                   : UTF-8
  94. Codec ID                                 : S_TEXT/UTF8
  95. Codec ID/Info                            : UTF-8 Plain Text
  96. Duration                                 : 2 h 6 min
  97. Bit rate                                 : 61 b/s
  98. Count of elements                        : 1519
  99. Stream size                              : 56.9 KiB (0%)
  100. Title                                    : English-SRT
  101. Language                                 : English
  102. Default                                  : Yes
  103. Forced                                   : No

  104. Text #2
  105. ID                                       : 6
  106. ID in the original source medium         : 4768 (0x12A0)
  107. Format                                   : PGS
  108. Muxing mode                              : zlib
  109. Codec ID                                 : S_HDMV/PGS
  110. Codec ID/Info                            : Picture based subtitle format used on BDs/HD-DVDs
  111. Duration                                 : 2 h 7 min
  112. Bit rate                                 : 30.2 kb/s
  113. Count of elements                        : 1910
  114. Stream size                              : 27.5 MiB (0%)
  115. Title                                    : German-PGS
  116. Language                                 : German
  117. Default                                  : No
  118. Forced                                   : No
  119. Original source medium                   : Blu-ray

  120. Text #3
  121. ID                                       : 7
  122. ID in the original source medium         : 4769 (0x12A1)
  123. Format                                   : PGS
  124. Muxing mode                              : zlib
  125. Codec ID                                 : S_HDMV/PGS
  126. Codec ID/Info                            : Picture based subtitle format used on BDs/HD-DVDs
  127. Duration                                 : 2 h 8 min
  128. Bit rate                                 : 25.4 kb/s
  129. Count of elements                        : 2640
  130. Stream size                              : 23.4 MiB (0%)
  131. Title                                    : French-PGS
  132. Language                                 : French
  133. Default                                  : No
  134. Forced                                   : No
  135. Original source medium                   : Blu-ray

  136. Menu
  137. 00:00:00.000                             : en:Chapter 01
  138. 00:06:36.000                             : en:Chapter 02
  139. 00:20:57.000                             : en:Chapter 03
  140. 00:30:30.000                             : en:Chapter 04
  141. 00:39:22.000                             : en:Chapter 05
  142. 00:51:30.000                             : en:Chapter 06
  143. 00:58:44.000                             : en:Chapter 07
  144. 01:10:44.000                             : en:Chapter 08
  145. 01:24:51.000                             : en:Chapter 09
  146. 01:36:02.000                             : en:Chapter 10
  147. 01:50:17.000                             : en:Chapter 11
  148. 02:02:26.000                             : en:Chapter 12
复制代码
































   




本帖隐藏的下载地址需要VIP会员才可阅读,您需要升级才可阅读,点击这里升级VIP
回复

使用道具 举报

懒得打字嘛,点击右侧快捷回复 【右侧内容,后台自定义】
您需要登录后才可以回帖 登录 | 立即注册

本版积分规则

Archiver|手机版|小黑屋| 中国高清网 ( ICP备17007870号-2 ) |网站地图 

GMT+8, 2020-11-29 18:10 , Processed in 0.188428 second(s), 40 queries .

Powered by HDchina X3.4

Copyright 2017-2019©HDchina.All right reserved

返回顶部 联系我们