查看: 221|回复: 2

[10bit.HDR] 全面回忆/宇宙威龙 Total.Recall.1990.2160p.UHD.BluRay.x265.10bit.HDR.DTS-HD.MA.TrueHD.7.1.Atmos-SWTYBLZ 34.47GB

[复制链接]

已抛锚 成长值: 11955

级别:资源管理组

注册时间
2017-10-20
最后登录
2022-5-9
听众
1
收听
0
主题
108287
蓝光币
241495 枚
贡献
21715 点
发表于 2020-11-21 23:34:57 | 显示全部楼层 |阅读模式




译  名 周全回忆 / 宇宙威龙(港) / 魔鬼总带动(台)
片  名 Total Recall
年  代 1990
产  地 美国
类  别 行动 / 科幻 / 惊悚 / 冒险
语  言 英语
上映日期 1990-06-01(美国)
IMDb评分  7.5/10 from 296498 users
IMDb链接  https://www.imdb.com/title/tt0100802
豆瓣评分 7.7/10 from 24731 users
豆瓣链接 https://movie.douban.com/subject/1295870/
片  长 113分钟
导  演 保罗·范霍文 Paul Verhoeven
编  剧 菲利普·K·迪克 Philip K. Dick / 罗纳德·舒塞特 Ronald Shusett / 丹·欧班农 Dan O'Bannon / Jon Povill / 加里·戈德曼 Gary Goldman
主  演 阿诺·施瓦辛格 Arnold Schwarzenegger
       雷切尔·蒂科汀 Rachel Ticotin
       莎朗·斯通 Sharon Stone
       罗尼·考克斯 Ronny Cox
       迈克尔·艾恩塞德 Michael Ironside
       马绍尔·贝尔 Marshall Bell
       梅尔约翰逊 Mel Johnson Jr.
       迈克尔切姆平 Michael Champion
       罗伊·布罗克斯史姑娘 Roy Brocksmith
       雷·贝克 Ray Baker
       萝丝玛丽·邓斯莫尔 Rosemary Dunsmore
       戴维·奈尔 David Knell
       阿列卡夏罗宾逊 Alexia Robinson
       迪恩·诺里斯 Dean Norris
       马克卡尔顿 Mark Carlton
       黛比·李·卡林顿 Debbie Lee Carrington
       Lycia Naff
       罗伯特·康斯坦佐 Robert Costanzo
       Michael LaGuardia
       Priscilla Allen
       马克·阿莱莫 Marc Alaimo
       Michael Gregory
       户田惠子 Keiko Toda
       阿兰·格拉夫 Allan Graf
       鲍勃·祖迪克 Bob Tzudiker
       Erik Cord
       Bennie Moore


标  签 科幻 | 行动 | 施瓦辛格 | 美国 | 1990 | 美国电影 | ArnoldSchwarzenegger | 电影

简  介  

  未来天下中,工程工人性情拉斯(Arnold Schwarzenegger 饰)被延续的梦乡困扰,那是一系列发生在红色火星上的体验。道格拉斯在广告上发现了回忆观光公司的先容,虽然同事警告他这类虚拟观光能够会风险人类的大脑,但比起亲身去一趟充溢着反政府武装的火星,回忆观光公司确是一个不错的挑选。道格拉斯如愿接管了回忆观光的办事,可是虚拟记忆的进程忽然出现毛病,自此一系列不成思议的履历出现在道格拉斯的身上,先是妻子劳瑞(Sharon Stone 饰)向他倡议进犯并认可自己是监视道格拉斯的特务,后来有陌生人出现帮助他逃走并指出他是火星独裁者针对反政府武装派出的奸细,成果由于一位女子梅丽(Rachel Ticotin 饰)改变了态度……道格拉斯动身前往火星,那边有一切的答案,大概一切又只是梦乡一场?

获奖情况  

  第63届奥斯卡金像奖(1991)
  最好音效剪辑(提名) 斯蒂芬·亨特·弗利克
  最好声响(提名) 亚伦·罗琴 / 迈克尔·J·科胡特 / 尼尔森·斯托尔 / 卡洛斯·德拉里奥斯
  出格成就奖 蒂姆·麦加沃恩 / 埃里克·布雷维格 / 罗伯·博汀

  第14届日本电影学院奖(1991)
  最好外语片(提名)

  1. Video
  2. ID                                       : 1
  3. Format                                   : HEVC
  4. Format/Info                              : High Efficiency Video Coding
  5. Format profile                           : Main [email protected]@High
  6. HDR format                               : SMPTE ST 2086, HDR10 compatible
  7. Codec ID                                 : V_MPEGH/ISO/HEVC
  8. Duration                                 : 1 h 53 min
  9. Bit rate                                 : 35.6 Mb/s
  10. Width                                    : 3 840 pixels
  11. Height                                   : 2 076 pixels
  12. Display aspect ratio                     : 1.85:1
  13. Frame rate mode                          : Constant
  14. Frame rate                               : 24.000 FPS
  15. Color space                              : YUV
  16. Chroma subsampling                       : 4:2:0 (Type 2)
  17. Bit depth                                : 10 bits
  18. Bits/(Pixel*Frame)                       : 0.186
  19. Stream size                              : 28.2 GiB (82%)
  20. Title                                    : Total.Recall.1990.2160p.UHD.BluRay.x265.10bit.HDR.DTS-HD.MA.TrueHD.7.1.Atmos-SWTYBLZ
  21. Writing library                          : x265 3.0_Au+10-74a8672ea4f7:[Windows][GCC 8.2.1][64 bit] 10bit
  22. Encoding settings                        : cpuid=1111039 / frame-threads=6 / numa-pools=24,24,24,24 / wpp / no-pmode / no-pme / no-psnr / no-ssim / log-level=2 / input-csp=1 / input-res=3840x2076 / interlace=0 / total-frames=0 / level-idc=51 / high-tier=1 / uhd-bd=0 / ref=3 / no-allow-non-conformance / repeat-headers / annexb / aud / hrd / info / hash=0 / no-temporal-layers / no-open-gop / min-keyint=1 / keyint=24 / gop-lookahead=0 / bframes=4 / b-adapt=2 / b-pyramid / bframe-bias=0 / rc-lookahead=25 / lookahead-slices=4 / scenecut=40 / radl=0 / no-splice / no-intra-refresh / ctu=64 / min-cu-size=8 / no-rect / no-amp / max-tu-size=32 / tu-inter-depth=1 / tu-intra-depth=1 / limit-tu=0 / rdoq-level=0 / dynamic-rd=0.00 / no-ssim-rd / signhide / no-tskip / nr-intra=0 / nr-inter=0 / no-constrained-intra / strong-intra-smoothing / max-merge=2 / limit-refs=3 / no-limit-modes / me=1 / subme=2 / merange=57 / temporal-mvp / weightp / no-weightb / no-analyze-src-pics / deblock=0:0 / no-sao / no-sao-non-deblock / rd=3 / no-early-skip / rskip / no-fast-intra / no-tskip-fast / no-cu-lossless / no-b-intra / no-splitrd-skip / rdpenalty=0 / psy-rd=2.00 / psy-rdoq=0.00 / no-rd-refine / no-lossless / cbqpoffs=0 / crqpoffs=0 / rc=crf / crf=19.0 / qcomp=0.60 / qpstep=4 / stats-write=0 / stats-read=0 / vbv-maxrate=160000 / vbv-bufsize=160000 / vbv-init=0.9 / crf-max=0.0 / crf-min=0.0 / ipratio=1.40 / pbratio=1.30 / aq-mode=1 / aq-strength=1.00 / cutree / zone-count=0 / no-strict-cbr / qg-size=32 / no-rc-grain / qpmax=69 / qpmin=0 / no-const-vbv / sar=1 / overscan=0 / videoformat=5 / range=0 / colorprim=9 / transfer=16 / colormatrix=9 / chromaloc=1 / chromaloc-top=2 / chromaloc-bottom=2 / display-window=0 / master-display=G(8500,39850)B(6550,2300)R(35400,14600)WP(15635,16450)L(10000000,01) / max-cll=0,0 / min-luma=0 / max-luma=1023 / log2-max-poc-lsb=8 / vui-timing-info / vui-hrd-info / slices=1 / opt-qp-pps / opt-ref-list-length-pps / no-multi-pass-opt-rps / scenecut-bias=0.05 / no-opt-cu-delta-qp / no-aq-motion / hdr / hdr-opt / no-dhdr10-opt / no-idr-recovery-sei / analysis-reuse-level=5 / scale-factor=0 / refine-intra=0 / refine-inter=0 / refine-mv=0 / refine-ctu-distortion=0 / no-limit-sao / ctu-info=0 / no-lowpass-dct / refine-analysis-type=0 / copy-pic=1 / max-ausize-factor=1.0 / no-dynamic-refine / no-single-sei / no-hevc-aq / no-svt / qp-adaptation-range=1.00
  23. Default                                  : Yes
  24. Forced                                   : No
  25. Color range                              : Limited
  26. Color primaries                          : BT.2020
  27. Transfer characteristics                 : PQ
  28. Matrix coefficients                      : BT.2020 non-constant
  29. Mastering display color primaries        : BT.2020
  30. Mastering display luminance              : min: 0.0001 cd/m2, max: 1000 cd/m2

  31. Audio #1
  32. ID                                       : 2
  33. ID in the original source medium         : 4352 (0x1100)
  34. Format                                   : MLP FBA 16-ch
  35. Format/Info                              : Meridian Lossless Packing FBA with 16-channel presentation
  36. Commercial name                          : Dolby TrueHD with Dolby Atmos
  37. Codec ID                                 : A_TRUEHD
  38. Duration                                 : 1 h 53 min
  39. Bit rate mode                            : Variable
  40. Bit rate                                 : 3 464 kb/s
  41. Maximum bit rate                         : 5 412 kb/s
  42. Channel(s)                               : 8 channels
  43. Channel layout                           : L R C LFE Ls Rs Lb Rb
  44. Sampling rate                            : 48.0 kHz
  45. Frame rate                               : 1 200.000 FPS (40 SPF)
  46. Compression mode                         : Lossless
  47. Stream size                              : 2.74 GiB (8%)
  48. Title                                    : Total.Recall.1990.2160p.UHD.BluRay.x265.10bit.HDR.DTS-HD.MA.TrueHD.7.1.Atmos-SWTYBLZ
  49. Language                                 : English
  50. Default                                  : Yes
  51. Forced                                   : No
  52. Original source medium                   : Blu-ray
  53. Number of dynamic objects                : 11
  54. Bed channel count                        : 1 channel
  55. Bed channel configuration                : LFE

  56. Audio #2
  57. ID                                       : 3
  58. Format                                   : DTS XLL
  59. Format/Info                              : Digital Theater Systems
  60. Commercial name                          : DTS-HD Master Audio
  61. Codec ID                                 : A_DTS
  62. Duration                                 : 1 h 53 min
  63. Bit rate mode                            : Variable
  64. Bit rate                                 : 3 793 kb/s
  65. Channel(s)                               : 8 channels
  66. Channel layout                           : C L R LFE Lb Rb Lss Rss
  67. Sampling rate                            : 48.0 kHz
  68. Frame rate                               : 93.750 FPS (512 SPF)
  69. Bit depth                                : 24 bits
  70. Compression mode                         : Lossless
  71. Stream size                              : 3.00 GiB (9%)
  72. Title                                    : Total.Recall.1990.2160p.UHD.BluRay.x265.10bit.HDR.DTS-HD.MA.TrueHD.7.1.Atmos-SWTYBLZ
  73. Language                                 : English
  74. Default                                  : No
  75. Forced                                   : No

  76. Audio #3
  77. ID                                       : 4
  78. ID in the original source medium         : 4352 (0x1100)
  79. Format                                   : AC-3
  80. Format/Info                              : Audio Coding 3
  81. Commercial name                          : Dolby Digital
  82. Codec ID                                 : A_AC3
  83. Duration                                 : 1 h 53 min
  84. Bit rate mode                            : Constant
  85. Bit rate                                 : 384 kb/s
  86. Channel(s)                               : 6 channels
  87. Channel layout                           : L R C LFE Ls Rs
  88. Sampling rate                            : 48.0 kHz
  89. Frame rate                               : 31.250 FPS (1536 SPF)
  90. Compression mode                         : Lossy
  91. Stream size                              : 311 MiB (1%)
  92. Title                                    : Total.Recall.1990.2160p.UHD.BluRay.x265.10bit.HDR.DTS-HD.MA.TrueHD.7.1.Atmos-SWTYBLZ
  93. Language                                 : English
  94. Service kind                             : Complete Main
  95. Default                                  : No
  96. Forced                                   : No
  97. Original source medium                   : Blu-ray

  98. Text #1
  99. ID                                       : 5
  100. Format                                   : UTF-8
  101. Codec ID                                 : S_TEXT/UTF8
  102. Codec ID/Info                            : UTF-8 Plain Text
  103. Duration                                 : 1 h 45 min
  104. Bit rate                                 : 48 b/s
  105. Count of elements                        : 1071
  106. Stream size                              : 37.1 KiB (0%)
  107. Title                                    : English-SRT
  108. Language                                 : English
  109. Default                                  : Yes
  110. Forced                                   : No

  111. Text #2
  112. ID                                       : 6
  113. ID in the original source medium         : 4768 (0x12A0)
  114. Format                                   : PGS
  115. Muxing mode                              : zlib
  116. Codec ID                                 : S_HDMV/PGS
  117. Codec ID/Info                            : Picture based subtitle format used on BDs/HD-DVDs
  118. Duration                                 : 1 h 49 min
  119. Bit rate                                 : 24.4 kb/s
  120. Count of elements                        : 2216
  121. Stream size                              : 19.0 MiB (0%)
  122. Title                                    : French-PGS
  123. Language                                 : French
  124. Default                                  : No
  125. Forced                                   : No
  126. Original source medium                   : Blu-ray

  127. Text #3
  128. ID                                       : 7
  129. ID in the original source medium         : 4769 (0x12A1)
  130. Format                                   : PGS
  131. Muxing mode                              : zlib
  132. Codec ID                                 : S_HDMV/PGS
  133. Codec ID/Info                            : Picture based subtitle format used on BDs/HD-DVDs
  134. Duration                                 : 1 h 49 min
  135. Bit rate                                 : 28.1 kb/s
  136. Count of elements                        : 1776
  137. Stream size                              : 21.9 MiB (0%)
  138. Title                                    : German-PGS
  139. Language                                 : German
  140. Default                                  : No
  141. Forced                                   : No
  142. Original source medium                   : Blu-ray

  143. Text #4
  144. ID                                       : 8
  145. ID in the original source medium         : 4770 (0x12A2)
  146. Format                                   : PGS
  147. Muxing mode                              : zlib
  148. Codec ID                                 : S_HDMV/PGS
  149. Codec ID/Info                            : Picture based subtitle format used on BDs/HD-DVDs
  150. Duration                                 : 1 h 45 min
  151. Bit rate                                 : 30.4 kb/s
  152. Count of elements                        : 2274
  153. Stream size                              : 22.9 MiB (0%)
  154. Title                                    : English-PGS
  155. Language                                 : English
  156. Default                                  : No
  157. Forced                                   : No
  158. Original source medium                   : Blu-ray

  159. Menu
  160. 00:00:00.000                             : en:Chapter 01
  161. 00:05:50.541                             : en:Chapter 02
  162. 00:11:27.000                             : en:Chapter 03
  163. 00:18:13.916                             : en:Chapter 04
  164. 00:24:50.708                             : en:Chapter 05
  165. 00:29:37.625                             : en:Chapter 06
  166. 00:37:05.500                             : en:Chapter 07
  167. 00:43:12.000                             : en:Chapter 08
  168. 00:48:35.333                             : en:Chapter 09
  169. 00:55:02.000                             : en:Chapter 10
  170. 01:00:03.875                             : en:Chapter 11
  171. 01:15:21.000                             : en:Chapter 12
  172. 01:20:16.000                             : en:Chapter 13
  173. 01:27:07.000                             : en:Chapter 14
  174. 01:32:18.208                             : en:Chapter 15
  175. 01:39:52.708                             : en:Chapter 16
复制代码
































   




本帖隐藏的下载地址需要VIP会员才可阅读,您需要升级才可阅读,点击这里升级VIP
回复

使用道具 举报

级别:普通观众 Lv.2

注册时间
2020-1-11
最后登录
2021-2-24
听众
3
收听
0
主题
0
蓝光币
2 枚
贡献
0 点
发表于 2021-2-24 21:29:26 | 显示全部楼层
楼主发贴辛苦了,谢谢楼主分享!我觉得中国高清电影网是注册对了!
回复

使用道具 举报

级别:初级观众 Lv.1

注册时间
2019-5-31
最后登录
2022-4-23
听众
7
收听
0
主题
0
蓝光币
0 枚
贡献
0 点
QQ
发表于 2022-4-23 12:07:33 | 显示全部楼层
楼主发贴辛苦了,谢谢楼主分享!我觉得中国高清电影网是注册对了!
回复

使用道具 举报

懒得打字嘛,点击右侧快捷回复 【右侧内容,后台自定义】
您需要登录后才可以回帖 登录 | 立即注册

本版积分规则

Archiver|手机版|小黑屋| 中国高清网 |网站地图 

GMT+8, 2022-5-18 05:52 , Processed in 0.123396 second(s), 29 queries .

Powered by HDchina X3.4

Copyright 2017-2019©HDchina.All right reserved

返回顶部 联系我们