查看: 183|回复: 0

[10bit.HDR] 七宝奇谋/小灵精 The.Goonies.1985.2160p.UHD.BluRay.x265.10bit.HDR.DTS-HD.MA.5.1-B0MBARDiERS 29.67GB

[复制链接]

 成长值: 7735

级别:资源管理组

注册时间
2017-10-20
最后登录
2020-10-23
听众
1
收听
0
主题
104417
蓝光币
207778 枚
贡献
21715 点
发表于 2020-10-16 21:00:44 | 显示全部楼层 |阅读模式




译  名 七宝奇谋 / 小灵精
片  名 The Goonies
年  代 1985
产  地 美国
类  别 笑剧 / 家庭 / 冒险
语  言 英语 / 西班牙语 / 粤语 / 意大利语
上映日期 1985-06-07
IMDb评分  7.8/10 from 238148 users
IMDb链接  https://www.imdb.com/title/tt0089218
豆瓣评分 7.6/10 from 3008 users
豆瓣链接 https://movie.douban.com/subject/1298273/
片  长 114 分钟
导  演 理查德·唐纳 Richard Donner
编  剧 克里斯·哥伦布 Chris Columbus / 史蒂文·斯皮尔伯格 Steven Spielberg
主  演 西恩·奥斯汀 Sean Astin
       乔什·布洛林 Josh Brolin
       杰夫·科恩 Jeff Cohen
       科里·费尔德曼 Corey Feldman
       凯利·格林 Kerri Green
       玛莎·普林顿 Martha Plimpton
       关继威 Jonathan Ke Quan
       John Matuszak
       罗伯特·戴维 Robert Davi
       乔·潘托里亚诺 Joe Pantoliano
       安妮·拉姆塞 Anne Ramsey
       露贝·安缇维洛 Lupe Ontiveros
       玛丽·艾伦·特雷纳 Mary Ellen Trainor
       基思·沃克 Keith Walker
       史蒂芬·安汀 Steven Antin
       George Robotham
       Charles McDaniel
       迈克尔·保罗·陈 Michael Paul Chan
       Nick McLean
       Jeb Stuart Adams
       吉纳·罗斯 Gene Ross
       纽维特·阿诺 Newt Arnold
       理查德·唐纳 Richard Donner
       辛迪·劳帕 Cyndi Lauper


标  签 冒险 | 美国 | 儿童 | 笑剧 | 1985 | 探险 | 斯皮尔伯格 | 美国电影

简  介  

  故事发生在美国西岸的一个小镇中,开辟者的到来侵扰了当地居民的安静生活,他们诡计将这片人们赖以保存的地盘据为己有,对于居民们来说,流浪失所的生活似乎在所难免。米奇(西恩·奥斯汀 Sean Astin 饰)和布莱登(乔什·布洛林 Josh Brolin 饰)是一对兄弟,一次偶然中,他们获得了一张年月久远的海盗藏宝图。这一发现让兄弟两人欣喜若狂,由于假如藏宝图所言不假,那末他们就可以守住他们的故里。在朋友们的帮助下,兄弟两人找到了宝藏的进口,它不在别处,正在福瑞特利家的楼下。让众人感应非常头痛的是,这个福瑞特利家属在小镇上有着远扬的坏名声,当宝藏存在的消息风行一时后,他们明显已经为了可以将其据为己有而展开了行动。

  1. Video
  2. ID                                       : 1
  3. Format                                   : HEVC
  4. Format/Info                              : High Efficiency Video Coding
  5. Format profile                           : Main 10@L5.1@High
  6. HDR format                               : SMPTE ST 2086, HDR10 compatible
  7. Codec ID                                 : V_MPEGH/ISO/HEVC
  8. Duration                                 : 1 h 53 min
  9. Bit rate                                 : 34.6 Mb/s
  10. Width                                    : 3 840 pixels
  11. Height                                   : 1 600 pixels
  12. Display aspect ratio                     : 2.40:1
  13. Frame rate mode                          : Constant
  14. Frame rate                               : 23.976 (24000/1001/45378) FPS
  15. Color space                              : YUV
  16. Chroma subsampling                       : 4:2:0 (Type 2)
  17. Bit depth                                : 10 bits
  18. Bits/(Pixel*Frame)                       : 0.235
  19. Stream size                              : 27.5 GiB (93%)
  20. Writing library                          : x265 3.4+26-ga82c6c7a7:[Windows][GCC 10.2.1][64 bit] 10bit
  21. Encoding settings                        : cpuid=1176575 / frame-threads=5 / numa-pools=36 / wpp / no-pmode / no-pme / no-psnr / no-ssim / log-level=2 / input-csp=1 / input-res=3840x1600 / interlace=0 / total-frames=163959 / level-idc=51 / high-tier=1 / uhd-bd=0 / ref=4 / no-allow-non-conformance / repeat-headers / annexb / aud / hrd / info / hash=0 / no-temporal-layers / open-gop / min-keyint=23 / keyint=250 / gop-lookahead=0 / bframes=4 / b-adapt=2 / b-pyramid / bframe-bias=0 / rc-lookahead=25 / lookahead-slices=4 / scenecut=40 / hist-scenecut=0 / radl=0 / no-splice / no-intra-refresh / ctu=64 / min-cu-size=8 / rect / no-amp / max-tu-size=32 / tu-inter-depth=1 / tu-intra-depth=1 / limit-tu=0 / rdoq-level=2 / dynamic-rd=0.00 / no-ssim-rd / signhide / no-tskip / nr-intra=0 / nr-inter=0 / no-constrained-intra / strong-intra-smoothing / max-merge=3 / limit-refs=3 / limit-modes / me=3 / subme=3 / merange=57 / temporal-mvp / no-frame-dup / no-hme / weightp / no-weightb / no-analyze-src-pics / deblock=-3:-3 / no-sao / no-sao-non-deblock / rd=4 / selective-sao=0 / no-early-skip / rskip / no-fast-intra / no-tskip-fast / no-cu-lossless / no-b-intra / no-splitrd-skip / rdpenalty=0 / psy-rd=2.00 / psy-rdoq=1.00 / no-rd-refine / no-lossless / cbqpoffs=0 / crqpoffs=0 / rc=crf / crf=14.0 / qcomp=0.60 / qpstep=4 / stats-write=0 / stats-read=0 / vbv-maxrate=160000 / vbv-bufsize=160000 / vbv-init=0.9 / min-vbv-fullness=50.0 / max-vbv-fullness=80.0 / crf-max=0.0 / crf-min=0.0 / ipratio=1.40 / pbratio=1.30 / aq-mode=2 / aq-strength=1.00 / cutree / zone-count=0 / no-strict-cbr / qg-size=32 / no-rc-grain / qpmax=69 / qpmin=0 / no-const-vbv / sar=1 / overscan=0 / videoformat=5 / range=0 / colorprim=9 / transfer=16 / colormatrix=9 / chromaloc=1 / chromaloc-top=2 / chromaloc-bottom=2 / display-window=0 / master-display=G(13250,34500)B(7500,3000)R(34000,16000)WP(15635,16450)L(40000000,50) / cll=343,106 / min-luma=0 / max-luma=1023 / log2-max-poc-lsb=8 / vui-timing-info / vui-hrd-info / slices=1 / no-opt-qp-pps / no-opt-ref-list-length-pps / no-multi-pass-opt-rps / scenecut-bias=0.05 / hist-threshold=0.03 / no-opt-cu-delta-qp / no-aq-motion / hdr10 / hdr10-opt / no-dhdr10-opt / no-idr-recovery-sei / analysis-reuse-level=0 / analysis-save-reuse-level=0 / analysis-load-reuse-level=0 / scale-factor=0 / refine-intra=0 / refine-inter=0 / refine-mv=1 / refine-ctu-distortion=0 / no-limit-sao / ctu-info=0 / no-lowpass-dct / refine-analysis-type=0 / copy-pic=1 / max-ausize-factor=1.0 / no-dynamic-refine / no-single-sei / no-hevc-aq / no-svt / no-field / qp-adaptation-range=1.00 / no-scenecut-aware-qpconformance-window-offsets / right=0 / bottom=0 / decoder-max-rate=0 / no-vbv-live-multi-pass
  22. Default                                  : Yes
  23. Forced                                   : No
  24. Color range                              : Limited
  25. Color primaries                          : BT.2020
  26. Transfer characteristics                 : PQ
  27. Matrix coefficients                      : BT.2020 non-constant
  28. Mastering display color primaries        : Display P3
  29. Mastering display luminance              : min: 0.0050 cd/m2, max: 4000 cd/m2
  30. Maximum Content Light Level              : 343 cd/m2
  31. Maximum Frame-Average Light Level        : 106 cd/m2

  32. Audio
  33. ID                                       : 2
  34. Format                                   : DTS XLL
  35. Format/Info                              : Digital Theater Systems
  36. Commercial name                          : DTS-HD Master Audio
  37. Codec ID                                 : A_DTS
  38. Duration                                 : 1 h 53 min
  39. Bit rate mode                            : Variable
  40. Bit rate                                 : 2 300 kb/s
  41. Channel(s)                               : 6 channels
  42. Channel layout                           : C L R Ls Rs LFE
  43. Sampling rate                            : 48.0 kHz
  44. Frame rate                               : 93.750 FPS (512 SPF)
  45. Bit depth                                : 16 bits
  46. Compression mode                         : Lossless
  47. Stream size                              : 1.83 GiB (6%)
  48. Language                                 : English
  49. Default                                  : Yes
  50. Forced                                   : No

  51. Text #1
  52. ID                                       : 3
  53. Format                                   : PGS
  54. Muxing mode                              : zlib
  55. Codec ID                                 : S_HDMV/PGS
  56. Codec ID/Info                            : Picture based subtitle format used on BDs/HD-DVDs
  57. Duration                                 : 1 h 47 min
  58. Bit rate                                 : 20.5 kb/s
  59. Count of elements                        : 2424
  60. Stream size                              : 15.8 MiB (0%)
  61. Title                                    : Japanese
  62. Language                                 : Japanese
  63. Default                                  : No
  64. Forced                                   : No

  65. Text #2
  66. ID                                       : 4
  67. Format                                   : PGS
  68. Muxing mode                              : zlib
  69. Codec ID                                 : S_HDMV/PGS
  70. Codec ID/Info                            : Picture based subtitle format used on BDs/HD-DVDs
  71. Duration                                 : 1 h 48 min
  72. Bit rate                                 : 38.2 kb/s
  73. Count of elements                        : 3258
  74. Stream size                              : 29.6 MiB (0%)
  75. Title                                    : English SDH
  76. Language                                 : English
  77. Default                                  : No
  78. Forced                                   : No

  79. Text #3
  80. ID                                       : 5
  81. Format                                   : PGS
  82. Muxing mode                              : zlib
  83. Codec ID                                 : S_HDMV/PGS
  84. Codec ID/Info                            : Picture based subtitle format used on BDs/HD-DVDs
  85. Duration                                 : 1 h 53 min
  86. Bit rate                                 : 23.4 kb/s
  87. Count of elements                        : 2286
  88. Stream size                              : 18.9 MiB (0%)
  89. Title                                    : French
  90. Language                                 : French
  91. Default                                  : No
  92. Forced                                   : No

  93. Text #4
  94. ID                                       : 6
  95. Format                                   : PGS
  96. Muxing mode                              : zlib
  97. Codec ID                                 : S_HDMV/PGS
  98. Codec ID/Info                            : Picture based subtitle format used on BDs/HD-DVDs
  99. Duration                                 : 1 h 53 min
  100. Bit rate                                 : 26.3 kb/s
  101. Count of elements                        : 2750
  102. Stream size                              : 21.3 MiB (0%)
  103. Title                                    : Spanish
  104. Language                                 : Spanish
  105. Default                                  : No
  106. Forced                                   : No

  107. Text #5
  108. ID                                       : 7
  109. Format                                   : PGS
  110. Muxing mode                              : zlib
  111. Codec ID                                 : S_HDMV/PGS
  112. Codec ID/Info                            : Picture based subtitle format used on BDs/HD-DVDs
  113. Duration                                 : 1 h 53 min
  114. Bit rate                                 : 28.6 kb/s
  115. Count of elements                        : 2190
  116. Stream size                              : 23.2 MiB (0%)
  117. Title                                    : Dutch
  118. Language                                 : Dutch
  119. Default                                  : No
  120. Forced                                   : No

  121. Text #6
  122. ID                                       : 8
  123. Format                                   : PGS
  124. Muxing mode                              : zlib
  125. Codec ID                                 : S_HDMV/PGS
  126. Codec ID/Info                            : Picture based subtitle format used on BDs/HD-DVDs
  127. Duration                                 : 1 h 53 min
  128. Bit rate                                 : 30.0 kb/s
  129. Count of elements                        : 2806
  130. Stream size                              : 24.3 MiB (0%)
  131. Title                                    : Chinese
  132. Language                                 : Chinese
  133. Default                                  : No
  134. Forced                                   : No

  135. Text #7
  136. ID                                       : 9
  137. Format                                   : PGS
  138. Muxing mode                              : zlib
  139. Codec ID                                 : S_HDMV/PGS
  140. Codec ID/Info                            : Picture based subtitle format used on BDs/HD-DVDs
  141. Duration                                 : 1 h 53 min
  142. Bit rate                                 : 19.7 kb/s
  143. Count of elements                        : 2738
  144. Stream size                              : 16.0 MiB (0%)
  145. Title                                    : Korean
  146. Language                                 : Korean
  147. Default                                  : No
  148. Forced                                   : No

  149. Text #8
  150. ID                                       : 10
  151. Format                                   : PGS
  152. Muxing mode                              : zlib
  153. Codec ID                                 : S_HDMV/PGS
  154. Codec ID/Info                            : Picture based subtitle format used on BDs/HD-DVDs
  155. Duration                                 : 1 h 53 min
  156. Bit rate                                 : 28.7 kb/s
  157. Count of elements                        : 2784
  158. Stream size                              : 23.2 MiB (0%)
  159. Title                                    : Spanish
  160. Language                                 : Spanish
  161. Default                                  : No
  162. Forced                                   : No

  163. Text #9
  164. ID                                       : 11
  165. Format                                   : PGS
  166. Muxing mode                              : zlib
  167. Codec ID                                 : S_HDMV/PGS
  168. Codec ID/Info                            : Picture based subtitle format used on BDs/HD-DVDs
  169. Duration                                 : 1 h 53 min
  170. Bit rate                                 : 24.5 kb/s
  171. Count of elements                        : 2764
  172. Stream size                              : 19.8 MiB (0%)
  173. Title                                    : Czech
  174. Language                                 : Czech
  175. Default                                  : No
  176. Forced                                   : No

  177. Text #10
  178. ID                                       : 12
  179. Format                                   : PGS
  180. Muxing mode                              : zlib
  181. Codec ID                                 : S_HDMV/PGS
  182. Codec ID/Info                            : Picture based subtitle format used on BDs/HD-DVDs
  183. Duration                                 : 1 h 53 min
  184. Bit rate                                 : 28.7 kb/s
  185. Count of elements                        : 2762
  186. Stream size                              : 23.3 MiB (0%)
  187. Title                                    : Romanian
  188. Language                                 : Romanian
  189. Default                                  : No
  190. Forced                                   : No

  191. Text #11
  192. ID                                       : 13
  193. Format                                   : PGS
  194. Muxing mode                              : zlib
  195. Codec ID                                 : S_HDMV/PGS
  196. Codec ID/Info                            : Picture based subtitle format used on BDs/HD-DVDs
  197. Duration                                 : 1 h 53 min
  198. Bit rate                                 : 32.3 kb/s
  199. Count of elements                        : 2810
  200. Stream size                              : 26.2 MiB (0%)
  201. Title                                    : Thai
  202. Language                                 : Thai
  203. Default                                  : No
  204. Forced                                   : No

  205. Text #12
  206. ID                                       : 14
  207. Format                                   : PGS
  208. Muxing mode                              : zlib
  209. Codec ID                                 : S_HDMV/PGS
  210. Codec ID/Info                            : Picture based subtitle format used on BDs/HD-DVDs
  211. Duration                                 : 1 h 32 min
  212. Bit rate                                 : 370 b/s
  213. Count of elements                        : 24
  214. Stream size                              : 251 KiB (0%)
  215. Title                                    : French
  216. Language                                 : French
  217. Default                                  : No
  218. Forced                                   : No

  219. Text #13
  220. ID                                       : 15
  221. Format                                   : PGS
  222. Muxing mode                              : zlib
  223. Codec ID                                 : S_HDMV/PGS
  224. Codec ID/Info                            : Picture based subtitle format used on BDs/HD-DVDs
  225. Duration                                 : 1 h 43 min
  226. Bit rate                                 : 410 b/s
  227. Count of elements                        : 34
  228. Stream size                              : 310 KiB (0%)
  229. Title                                    : Spanish
  230. Language                                 : Spanish
  231. Default                                  : No
  232. Forced                                   : No

  233. Text #14
  234. ID                                       : 16
  235. Format                                   : PGS
  236. Muxing mode                              : zlib
  237. Codec ID                                 : S_HDMV/PGS
  238. Codec ID/Info                            : Picture based subtitle format used on BDs/HD-DVDs
  239. Duration                                 : 1 h 44 min
  240. Bit rate                                 : 369 b/s
  241. Count of elements                        : 30
  242. Stream size                              : 283 KiB (0%)
  243. Title                                    : Dutch
  244. Language                                 : Dutch
  245. Default                                  : No
  246. Forced                                   : No

  247. Text #15
  248. ID                                       : 17
  249. Format                                   : PGS
  250. Muxing mode                              : zlib
  251. Codec ID                                 : S_HDMV/PGS
  252. Codec ID/Info                            : Picture based subtitle format used on BDs/HD-DVDs
  253. Duration                                 : 53 min 42 s
  254. Bit rate                                 : 610 b/s
  255. Count of elements                        : 24
  256. Stream size                              : 240 KiB (0%)
  257. Title                                    : Spanish
  258. Language                                 : Spanish
  259. Default                                  : No
  260. Forced                                   : No

  261. Text #16
  262. ID                                       : 18
  263. Format                                   : PGS
  264. Muxing mode                              : zlib
  265. Codec ID                                 : S_HDMV/PGS
  266. Codec ID/Info                            : Picture based subtitle format used on BDs/HD-DVDs
  267. Duration                                 : 53 min 42 s
  268. Bit rate                                 : 155 b/s
  269. Count of elements                        : 10
  270. Stream size                              : 61.2 KiB (0%)
  271. Title                                    : Czech
  272. Language                                 : Czech
  273. Default                                  : No
  274. Forced                                   : No

  275. Text #17
  276. ID                                       : 19
  277. Format                                   : PGS
  278. Muxing mode                              : zlib
  279. Codec ID                                 : S_HDMV/PGS
  280. Codec ID/Info                            : Picture based subtitle format used on BDs/HD-DVDs
  281. Duration                                 : 1 h 43 min
  282. Bit rate                                 : 426 b/s
  283. Count of elements                        : 54
  284. Stream size                              : 324 KiB (0%)
  285. Title                                    : Japanese
  286. Language                                 : Japanese
  287. Default                                  : No
  288. Forced                                   : No

  289. Text #18
  290. ID                                       : 20
  291. Format                                   : PGS
  292. Muxing mode                              : zlib
  293. Codec ID                                 : S_HDMV/PGS
  294. Codec ID/Info                            : Picture based subtitle format used on BDs/HD-DVDs
  295. Duration                                 : 4 min 54 s
  296. Bit rate                                 : 989 b/s
  297. Count of elements                        : 12
  298. Stream size                              : 35.6 KiB (0%)
  299. Title                                    : Japanese
  300. Language                                 : Japanese
  301. Default                                  : No
  302. Forced                                   : No

  303. Text #19
  304. ID                                       : 21
  305. Format                                   : PGS
  306. Muxing mode                              : zlib
  307. Codec ID                                 : S_HDMV/PGS
  308. Codec ID/Info                            : Picture based subtitle format used on BDs/HD-DVDs
  309. Duration                                 : 1 h 53 min
  310. Bit rate                                 : 35.3 kb/s
  311. Count of elements                        : 3254
  312. Stream size                              : 28.7 MiB (0%)
  313. Title                                    : Italian
  314. Language                                 : Italian
  315. Default                                  : No
  316. Forced                                   : No

  317. Text #20
  318. ID                                       : 22
  319. Format                                   : PGS
  320. Muxing mode                              : zlib
  321. Codec ID                                 : S_HDMV/PGS
  322. Codec ID/Info                            : Picture based subtitle format used on BDs/HD-DVDs
  323. Duration                                 : 1 h 43 min
  324. Bit rate                                 : 406 b/s
  325. Count of elements                        : 32
  326. Stream size                              : 307 KiB (0%)
  327. Title                                    : Italian
  328. Language                                 : Italian
  329. Default                                  : No
  330. Forced                                   : No

  331. Menu
  332. 00:00:00.000                             : en:Chapter 01
  333. 00:05:04.554                             : en:Chapter 02
  334. 00:07:08.637                             : en:Chapter 03
  335. 00:09:54.302                             : en:Chapter 04
  336. 00:13:49.370                             : en:Chapter 05
  337. 00:20:02.159                             : en:Chapter 06
  338. 00:22:44.738                             : en:Chapter 07
  339. 00:25:37.411                             : en:Chapter 08
  340. 00:27:13.006                             : en:Chapter 09
  341. 00:30:40.422                             : en:Chapter 10
  342. 00:33:33.970                             : en:Chapter 11
  343. 00:36:48.164                             : en:Chapter 12
  344. 00:38:42.195                             : en:Chapter 13
  345. 00:42:13.281                             : en:Chapter 14
  346. 00:46:10.434                             : en:Chapter 15
  347. 00:48:42.962                             : en:Chapter 16
  348. 00:49:47.443                             : en:Chapter 17
  349. 00:52:52.169                             : en:Chapter 18
  350. 00:55:47.803                             : en:Chapter 19
  351. 00:58:12.155                             : en:Chapter 20
  352. 00:59:31.151                             : en:Chapter 21
  353. 01:03:34.144                             : en:Chapter 22
  354. 01:07:11.736                             : en:Chapter 23
  355. 01:09:45.932                             : en:Chapter 24
  356. 01:12:47.738                             : en:Chapter 25
  357. 01:15:20.182                             : en:Chapter 26
  358. 01:18:18.444                             : en:Chapter 27
  359. 01:22:06.630                             : en:Chapter 28
  360. 01:23:39.640                             : en:Chapter 29
  361. 01:27:15.063                             : en:Chapter 30
  362. 01:30:33.970                             : en:Chapter 31
  363. 01:33:39.364                             : en:Chapter 32
  364. 01:38:38.955                             : en:Chapter 33
  365. 01:41:27.456                             : en:Chapter 34
  366. 01:45:15.059                             : en:Chapter 35
  367. 01:47:13.052                             : en:Chapter 36
  368. 01:48:31.004                             : en:Chapter 37
复制代码













本帖隐藏的下载地址需要VIP会员才可阅读,您需要升级才可阅读,点击这里升级VIP
回复

使用道具 举报

懒得打字嘛,点击右侧快捷回复 【右侧内容,后台自定义】
您需要登录后才可以回帖 登录 | 立即注册

本版积分规则

Archiver|手机版|小黑屋| 中国高清网 ( ICP备17007870号-2 ) |网站地图 

GMT+8, 2020-10-25 22:02 , Processed in 0.208182 second(s), 39 queries .

Powered by HDchina X3.4

Copyright 2017-2019©HDchina.All right reserved

返回顶部 联系我们