查看: 178|回复: 0

[REMUX.HEVC] 回到未来/回到未来第一集 Back.to.the.Future.1985.2160p.BluRay.REMUX.HEVC.DTS-HD.MA.TrueHD.7.1.Atmos-FGT 72.46GB

[复制链接]

 成长值: 7735

级别:资源管理组

注册时间
2017-10-20
最后登录
2020-10-23
听众
1
收听
0
主题
104417
蓝光币
207776 枚
贡献
21715 点
发表于 2020-10-16 21:00:43 | 显示全部楼层 |阅读模式




译  名 回到未来 / 回到未来第一集
片  名 Back to the Future
年  代 1985
产  地 美国
类  别 笑剧 / 科幻 / 冒险
语  言 英语
上映日期 1985-07-03(美国)
IMDb评分  8.5/10 from 1033821 users
IMDb链接  https://www.imdb.com/title/tt0088763
豆瓣评分 8.7/10 from 147224 users
豆瓣链接 https://movie.douban.com/subject/1300555/
片  长 116分钟
导  演 罗伯特·泽米吉斯 Robert Zemeckis
编  剧 罗伯特·泽米吉斯 Robert Zemeckis / 鲍勃·盖尔 Bob Gale
主  演 迈克尔·J·福克斯 Michael J. Fox
       克里斯托弗·洛伊德 Christopher Lloyd
       莉·汤普森 Lea Thompson
       克里斯平·格洛弗 Crispin Glover
       托马斯·F·威尔森 Thomas F. Wilson
       克劳迪娅·韦尔斯 Claudia Wells
       马克·麦克卢尔 Marc McClure
       温迪·乔·斯佩博 Wendie Jo Sperber
       乔治·第桑佐 George DiCenzo
       弗兰西斯·李·麦克凯恩 Frances Lee McCain
       詹姆斯·托根 James Tolkan
       J·J·科恩 J.J. Cohen
       凯西·希玛兹科 Casey Siemaszko
       比利·赞恩 Billy Zane
       小哈利·沃特斯 Harry Waters Jr.
       唐纳德·富利洛夫 Donald Fullilove
       丽萨·弗里曼 Lisa Freeman
       克里斯滕·考夫曼 Cristen Kauffman
       萨奇·帕克 Sachi Parker
       玛丽·艾伦·特雷纳 Mary Ellen Trainor
       麦娅·布鲁顿 Maia Brewton
       加里·莱利 Gary Riley
       艾尔莎·瑞雯 Elsa Raven
       休易·路易斯 Huey Lewis
       Tiger
       德博拉·哈蒙 Deborah Harmon
       诺曼·阿尔登 Norman Alden
       考特尼·盖恩斯 Courtney Gains
       乔治·“巴克”·弗劳尔 George 'Buck' Flower
       艾薇·贝瑟恩 Ivy Bethune
       罗伯特·克兰茨 Robert Krantz
       Tom Willett
       查尔斯·L·坎贝尔 Charles L. Campbell
       贾森·赫维 Jason Hervey
       Jeff O'Haco
       Will Hare
       Tom Tangen
       Jason Marin
       Tommy Thomas
       Read Morgan
       Karen Petrasek


标  签 科幻 | 美国 | 典范 | 笑剧 | 回到未来 | 1985 | 美国电影 | 穿越

简  介  

  布朗博士(克里斯托弗?洛伊德 Christopher Lloyd 饰)总是有些希奇怪僻的发现。在一次实验他发现的时光机械时,他找来了忘年交高中生马丁(迈克尔?J?福克斯 Michael J. Fox 饰)。岂料尝试进程中博士被暴徒杀戮了,马丁忙乱中架着时光机逃窜,回到了30年前。马丁碰到了30年前的父亲乔治(克利斯丁?格拉夫 Crispin Glover 饰)和母亲洛莲(莉?汤普森 Lea Thompson 饰)。马丁一边找寻30年前的布朗博士,好让自己回到未来;一边极力撮合乔治和洛莲,免得自己在今后消失了。但乔治为人懦弱,马丁在撮合进程中画蛇添足让洛莲爱上了自己。还有使人厌恶的贝夫从中作梗,令马丁愤怒不已。马丁周旋在他的双亲之间,还要尽快找到博士,想法子回到未来……

获奖情况  

  第58届奥斯卡金像奖(1986)
  最好原创剧本(提名) 鲍勃·盖尔 / 罗伯特·泽米吉斯
  最好音效剪辑 查尔斯·L·坎贝尔 / 罗伯特·拉特利奇
  最好声响(提名) 威廉·B·卡普兰 / B·丁尼生·塞巴斯蒂安二世 / 比尔·瓦尼 / 罗伯特·瑟尔威尔
  最好原创歌曲(提名) 休易·路易斯 / 克里斯·海耶斯 / 约翰尼·科拉

  1. Video #1
  2. ID                                       : 1
  3. ID in the original source medium         : 4113 (0x1011)
  4. Format                                   : HEVC
  5. Format/Info                              : High Efficiency Video Coding
  6. Format profile                           : Main 10@L5.1@High
  7. HDR format                               : SMPTE ST 2094 App 4, Version 1, HDR10+ Profile B compatible
  8. Codec ID                                 : V_MPEGH/ISO/HEVC
  9. Duration                                 : 1 h 56 min
  10. Bit rate                                 : 73.2 Mb/s
  11. Width                                    : 3 840 pixels
  12. Height                                   : 2 160 pixels
  13. Display aspect ratio                     : 16:9
  14. Frame rate mode                          : Constant
  15. Frame rate                               : 23.976 (24000/1001/45378) FPS
  16. Color space                              : YUV
  17. Chroma subsampling                       : 4:2:0 (Type 2)
  18. Bit depth                                : 10 bits
  19. Bits/(Pixel*Frame)                       : 0.368
  20. Stream size                              : 59.3 GiB (82%)
  21. Title                                    : Back.to.the.Future.1985.2160p.BluRay.REMUX.HEVC.DTS-HD.MA.TrueHD.7.1.Atmos-FGT
  22. Language                                 : English
  23. Default                                  : Yes
  24. Forced                                   : No
  25. Color range                              : Limited
  26. Color primaries                          : BT.2020
  27. Transfer characteristics                 : PQ
  28. Matrix coefficients                      : BT.2020 non-constant
  29. Mastering display color primaries        : Display P3
  30. Mastering display luminance              : min: 0.0050 cd/m2, max: 4000 cd/m2
  31. Maximum Content Light Level              : 1000 cd/m2
  32. Maximum Frame-Average Light Level        : 755 cd/m2
  33. Original source medium                   : Blu-ray


  34. Video #2
  35. ID                                       : 2
  36. ID in the original source medium         : 4117 (0x1015)
  37. Format                                   : HEVC
  38. Format/Info                              : High Efficiency Video Coding
  39. Format profile                           : Main 10@L5.1@High
  40. HDR format                               : SMPTE ST 2086, HDR10 compatible
  41. Codec ID                                 : V_MPEGH/ISO/HEVC
  42. Duration                                 : 1 h 56 min
  43. Bit rate                                 : 5 242 kb/s
  44. Width                                    : 1 920 pixels
  45. Height                                   : 1 080 pixels
  46. Display aspect ratio                     : 16:9
  47. Frame rate mode                          : Constant
  48. Frame rate                               : 23.976 (24000/1001/45378) FPS
  49. Color space                              : YUV
  50. Chroma subsampling                       : 4:2:0 (Type 2)
  51. Bit depth                                : 10 bits
  52. Bits/(Pixel*Frame)                       : 0.105
  53. Stream size                              : 4.25 GiB (6%)
  54. Title                                    : Back.to.the.Future.1985.2160p.BluRay.REMUX.HEVC.DTS-HD.MA.TrueHD.7.1.Atmos-FGT
  55. Language                                 : English
  56. Default                                  : No
  57. Forced                                   : No
  58. Color range                              : Limited
  59. Color primaries                          : BT.2020
  60. Transfer characteristics                 : PQ
  61. Matrix coefficients                      : BT.2020 non-constant
  62. Mastering display color primaries        : Display P3
  63. Mastering display luminance              : min: 0.0050 cd/m2, max: 4000 cd/m2
  64. Original source medium                   : Blu-ray

  65. Audio #1
  66. ID                                       : 3
  67. ID in the original source medium         : 4352 (0x1100)
  68. Format                                   : MLP FBA 16-ch
  69. Format/Info                              : Meridian Lossless Packing FBA with 16-channel presentation
  70. Commercial name                          : Dolby TrueHD with Dolby Atmos
  71. Codec ID                                 : A_TRUEHD
  72. Duration                                 : 1 h 56 min
  73. Bit rate mode                            : Variable
  74. Bit rate                                 : 4 213 kb/s
  75. Maximum bit rate                         : 7 626 kb/s
  76. Channel(s)                               : 8 channels
  77. Channel layout                           : L R C LFE Ls Rs Lb Rb
  78. Sampling rate                            : 48.0 kHz
  79. Frame rate                               : 1 200.000 FPS (40 SPF)
  80. Compression mode                         : Lossless
  81. Stream size                              : 3.41 GiB (5%)
  82. Title                                    : Back.to.the.Future.1985.2160p.BluRay.REMUX.HEVC.DTS-HD.MA.TrueHD.7.1.Atmos-FGT
  83. Language                                 : English
  84. Default                                  : Yes
  85. Forced                                   : No
  86. Original source medium                   : Blu-ray
  87. Number of dynamic objects                : 11
  88. Bed channel count                        : 1 channel
  89. Bed channel configuration                : LFE

  90. Audio #2
  91. ID                                       : 4
  92. Format                                   : DTS XLL
  93. Format/Info                              : Digital Theater Systems
  94. Commercial name                          : DTS-HD Master Audio
  95. Codec ID                                 : A_DTS
  96. Duration                                 : 1 h 56 min
  97. Bit rate mode                            : Variable
  98. Bit rate                                 : 4 268 kb/s
  99. Channel(s)                               : 8 channels
  100. Channel layout                           : C L R LFE Lb Rb Lss Rss
  101. Sampling rate                            : 48.0 kHz
  102. Frame rate                               : 93.750 FPS (512 SPF)
  103. Bit depth                                : 24 bits
  104. Compression mode                         : Lossless
  105. Stream size                              : 3.46 GiB (5%)
  106. Title                                    : Back.to.the.Future.1985.2160p.BluRay.REMUX.HEVC.DTS-HD.MA.TrueHD.7.1.Atmos-FGT
  107. Language                                 : English
  108. Default                                  : No
  109. Forced                                   : No

  110. Audio #3
  111. ID                                       : 5
  112. ID in the original source medium         : 4352 (0x1100)
  113. Format                                   : AC-3
  114. Format/Info                              : Audio Coding 3
  115. Commercial name                          : Dolby Digital
  116. Codec ID                                 : A_AC3
  117. Duration                                 : 1 h 56 min
  118. Bit rate mode                            : Constant
  119. Bit rate                                 : 448 kb/s
  120. Channel(s)                               : 6 channels
  121. Channel layout                           : L R C LFE Ls Rs
  122. Sampling rate                            : 48.0 kHz
  123. Frame rate                               : 31.250 FPS (1536 SPF)
  124. Compression mode                         : Lossy
  125. Stream size                              : 372 MiB (1%)
  126. Title                                    : Back.to.the.Future.1985.2160p.BluRay.REMUX.HEVC.DTS-HD.MA.TrueHD.7.1.Atmos-FGT
  127. Language                                 : English
  128. Service kind                             : Complete Main
  129. Default                                  : No
  130. Forced                                   : No
  131. Original source medium                   : Blu-ray

  132. Audio #4
  133. ID                                       : 6
  134. ID in the original source medium         : 4353 (0x1101)
  135. Format                                   : DTS
  136. Format/Info                              : Digital Theater Systems
  137. Codec ID                                 : A_DTS
  138. Duration                                 : 1 h 56 min
  139. Bit rate mode                            : Constant
  140. Bit rate                                 : 768 kb/s
  141. Channel(s)                               : 6 channels
  142. Channel layout                           : C L R Ls Rs LFE
  143. Sampling rate                            : 48.0 kHz
  144. Frame rate                               : 93.750 FPS (512 SPF)
  145. Bit depth                                : 24 bits
  146. Compression mode                         : Lossy
  147. Stream size                              : 637 MiB (1%)
  148. Title                                    : Back.to.the.Future.1985.2160p.BluRay.REMUX.HEVC.DTS-HD.MA.TrueHD.7.1.Atmos-FGT
  149. Language                                 : Spanish
  150. Default                                  : No
  151. Forced                                   : No
  152. Original source medium                   : Blu-ray

  153. Audio #5
  154. ID                                       : 7
  155. ID in the original source medium         : 4354 (0x1102)
  156. Format                                   : DTS
  157. Format/Info                              : Digital Theater Systems
  158. Codec ID                                 : A_DTS
  159. Duration                                 : 1 h 56 min
  160. Bit rate mode                            : Constant
  161. Bit rate                                 : 768 kb/s
  162. Channel(s)                               : 6 channels
  163. Channel layout                           : C L R Ls Rs LFE
  164. Sampling rate                            : 48.0 kHz
  165. Frame rate                               : 93.750 FPS (512 SPF)
  166. Bit depth                                : 24 bits
  167. Compression mode                         : Lossy
  168. Stream size                              : 637 MiB (1%)
  169. Title                                    : Back.to.the.Future.1985.2160p.BluRay.REMUX.HEVC.DTS-HD.MA.TrueHD.7.1.Atmos-FGT
  170. Language                                 : French
  171. Default                                  : No
  172. Forced                                   : No
  173. Original source medium                   : Blu-ray

  174. Audio #6
  175. ID                                       : 8
  176. ID in the original source medium         : 4355 (0x1103)
  177. Format                                   : AC-3
  178. Format/Info                              : Audio Coding 3
  179. Commercial name                          : Dolby Digital
  180. Codec ID                                 : A_AC3
  181. Duration                                 : 1 h 56 min
  182. Bit rate mode                            : Constant
  183. Bit rate                                 : 192 kb/s
  184. Channel(s)                               : 2 channels
  185. Channel layout                           : L R
  186. Sampling rate                            : 48.0 kHz
  187. Frame rate                               : 31.250 FPS (1536 SPF)
  188. Compression mode                         : Lossy
  189. Stream size                              : 159 MiB (0%)
  190. Title                                    : Back.to.the.Future.1985.2160p.BluRay.REMUX.HEVC.DTS-HD.MA.TrueHD.7.1.Atmos-FGT
  191. Language                                 : English
  192. Service kind                             : Complete Main
  193. Default                                  : No
  194. Forced                                   : No
  195. Original source medium                   : Blu-ray

  196. Audio #7
  197. ID                                       : 9
  198. ID in the original source medium         : 4356 (0x1104)
  199. Format                                   : AC-3
  200. Format/Info                              : Audio Coding 3
  201. Commercial name                          : Dolby Digital
  202. Codec ID                                 : A_AC3
  203. Duration                                 : 1 h 56 min
  204. Bit rate mode                            : Constant
  205. Bit rate                                 : 192 kb/s
  206. Channel(s)                               : 2 channels
  207. Channel layout                           : L R
  208. Sampling rate                            : 48.0 kHz
  209. Frame rate                               : 31.250 FPS (1536 SPF)
  210. Compression mode                         : Lossy
  211. Stream size                              : 159 MiB (0%)
  212. Title                                    : Back.to.the.Future.1985.2160p.BluRay.REMUX.HEVC.DTS-HD.MA.TrueHD.7.1.Atmos-FGT
  213. Language                                 : English
  214. Service kind                             : Complete Main
  215. Default                                  : No
  216. Forced                                   : No
  217. Original source medium                   : Blu-ray

  218. Text #1
  219. ID                                       : 10
  220. Format                                   : UTF-8
  221. Codec ID                                 : S_TEXT/UTF8
  222. Codec ID/Info                            : UTF-8 Plain Text
  223. Duration                                 : 1 h 50 min
  224. Bit rate                                 : 62 b/s
  225. Count of elements                        : 1573
  226. Stream size                              : 50.1 KiB (0%)
  227. Title                                    : English-SRT
  228. Language                                 : English
  229. Default                                  : Yes
  230. Forced                                   : No

  231. Text #2
  232. ID                                       : 11
  233. ID in the original source medium         : 4768 (0x12A0)
  234. Format                                   : PGS
  235. Muxing mode                              : zlib
  236. Codec ID                                 : S_HDMV/PGS
  237. Codec ID/Info                            : Picture based subtitle format used on BDs/HD-DVDs
  238. Duration                                 : 1 h 51 min
  239. Bit rate                                 : 44.1 kb/s
  240. Count of elements                        : 3555
  241. Stream size                              : 35.1 MiB (0%)
  242. Title                                    : English-PGS
  243. Language                                 : English
  244. Default                                  : No
  245. Forced                                   : No
  246. Original source medium                   : Blu-ray

  247. Text #3
  248. ID                                       : 12
  249. ID in the original source medium         : 4769 (0x12A1)
  250. Format                                   : PGS
  251. Muxing mode                              : zlib
  252. Codec ID                                 : S_HDMV/PGS
  253. Codec ID/Info                            : Picture based subtitle format used on BDs/HD-DVDs
  254. Duration                                 : 1 h 50 min
  255. Bit rate                                 : 26.2 kb/s
  256. Count of elements                        : 2207
  257. Stream size                              : 20.7 MiB (0%)
  258. Title                                    : Spanish-PGS
  259. Language                                 : Spanish
  260. Default                                  : No
  261. Forced                                   : No
  262. Original source medium                   : Blu-ray

  263. Text #4
  264. ID                                       : 13
  265. ID in the original source medium         : 4770 (0x12A2)
  266. Format                                   : PGS
  267. Muxing mode                              : zlib
  268. Codec ID                                 : S_HDMV/PGS
  269. Codec ID/Info                            : Picture based subtitle format used on BDs/HD-DVDs
  270. Duration                                 : 1 h 50 min
  271. Bit rate                                 : 36.7 kb/s
  272. Count of elements                        : 2604
  273. Stream size                              : 29.0 MiB (0%)
  274. Title                                    : French-PGS
  275. Language                                 : French
  276. Default                                  : No
  277. Forced                                   : No
  278. Original source medium                   : Blu-ray

  279. Text #5
  280. ID                                       : 14
  281. ID in the original source medium         : 4771 (0x12A3)
  282. Format                                   : PGS
  283. Muxing mode                              : zlib
  284. Codec ID                                 : S_HDMV/PGS
  285. Codec ID/Info                            : Picture based subtitle format used on BDs/HD-DVDs
  286. Duration                                 : 1 h 47 min
  287. Bit rate                                 : 374 b/s
  288. Count of elements                        : 34
  289. Stream size                              : 295 KiB (0%)
  290. Title                                    : Spanish-FORCED-PGS
  291. Language                                 : Spanish
  292. Default                                  : No
  293. Forced                                   : No
  294. Original source medium                   : Blu-ray

  295. Text #6
  296. ID                                       : 15
  297. ID in the original source medium         : 4772 (0x12A4)
  298. Format                                   : PGS
  299. Muxing mode                              : zlib
  300. Codec ID                                 : S_HDMV/PGS
  301. Codec ID/Info                            : Picture based subtitle format used on BDs/HD-DVDs
  302. Duration                                 : 1 h 49 min
  303. Bit rate                                 : 1 376 b/s
  304. Count of elements                        : 95
  305. Stream size                              : 1.08 MiB (0%)
  306. Title                                    : French-FORCED-PGS
  307. Language                                 : French
  308. Default                                  : No
  309. Forced                                   : No
  310. Original source medium                   : Blu-ray

  311. Menu
  312. 00:00:00.000                             : en:Chapter 01
  313. 00:04:13.211                             : en:Chapter 02
  314. 00:06:47.281                             : en:Chapter 03
  315. 00:11:44.870                             : en:Chapter 04
  316. 00:18:04.166                             : en:Chapter 05
  317. 00:28:12.273                             : en:Chapter 06
  318. 00:31:30.597                             : en:Chapter 07
  319. 00:38:40.568                             : en:Chapter 08
  320. 00:41:21.979                             : en:Chapter 09
  321. 00:47:53.370                             : en:Chapter 10
  322. 00:55:53.058                             : en:Chapter 11
  323. 00:58:49.859                             : en:Chapter 12
  324. 01:05:16.746                             : en:Chapter 13
  325. 01:16:40.304                             : en:Chapter 14
  326. 01:20:14.309                             : en:Chapter 15
  327. 01:27:23.321                             : en:Chapter 16
  328. 01:31:11.841                             : en:Chapter 17
  329. 01:41:40.552                             : en:Chapter 18
  330. 01:46:41.436                             : en:Chapter 19
  331. 01:51:24.511                             : en:Chapter 20
复制代码













本帖隐藏的下载地址需要VIP会员才可阅读,您需要升级才可阅读,点击这里升级VIP
回复

使用道具 举报

懒得打字嘛,点击右侧快捷回复 【右侧内容,后台自定义】
您需要登录后才可以回帖 登录 | 立即注册

本版积分规则

Archiver|手机版|小黑屋| 中国高清网 ( ICP备17007870号-2 ) |网站地图 

GMT+8, 2020-10-25 21:46 , Processed in 0.225403 second(s), 39 queries .

Powered by HDchina X3.4

Copyright 2017-2019©HDchina.All right reserved

返回顶部 联系我们