查看: 92|回复: 0

[10bit.SDR] 回到未来/回到未来第一集 Back.to.the.Future.1985.2160p.BluRay.x265.10bit.SDR.DTS-HD.MA.TrueHD.7.1.Atmos-SWTYBLZ 50.09GB

[复制链接]

 成长值: 7660

级别:资源管理组

注册时间
2017-10-20
最后登录
2020-10-17
听众
1
收听
0
主题
104263
蓝光币
206408 枚
贡献
21715 点
发表于 4 天前 | 显示全部楼层 |阅读模式




译  名 回到未来 / 回到未来第一集
片  名 Back to the Future
年  代 1985
产  地 美国
类  别 笑剧 / 科幻 / 冒险
语  言 英语
上映日期 1985-07-03(美国)
IMDb评分  8.5/10 from 1033821 users
IMDb链接  https://www.imdb.com/title/tt0088763
豆瓣评分 8.7/10 from 147224 users
豆瓣链接 https://movie.douban.com/subject/1300555/
片  长 116分钟
导  演 罗伯特·泽米吉斯 Robert Zemeckis
编  剧 罗伯特·泽米吉斯 Robert Zemeckis / 鲍勃·盖尔 Bob Gale
主  演 迈克尔·J·福克斯 Michael J. Fox
       克里斯托弗·洛伊德 Christopher Lloyd
       莉·汤普森 Lea Thompson
       克里斯平·格洛弗 Crispin Glover
       托马斯·F·威尔森 Thomas F. Wilson
       克劳迪娅·韦尔斯 Claudia Wells
       马克·麦克卢尔 Marc McClure
       温迪·乔·斯佩博 Wendie Jo Sperber
       乔治·第桑佐 George DiCenzo
       弗兰西斯·李·麦克凯恩 Frances Lee McCain
       詹姆斯·托根 James Tolkan
       J·J·科恩 J.J. Cohen
       凯西·希玛兹科 Casey Siemaszko
       比利·赞恩 Billy Zane
       小哈利·沃特斯 Harry Waters Jr.
       唐纳德·富利洛夫 Donald Fullilove
       丽萨·弗里曼 Lisa Freeman
       克里斯滕·考夫曼 Cristen Kauffman
       萨奇·帕克 Sachi Parker
       玛丽·艾伦·特雷纳 Mary Ellen Trainor
       麦娅·布鲁顿 Maia Brewton
       加里·莱利 Gary Riley
       艾尔莎·瑞雯 Elsa Raven
       休易·路易斯 Huey Lewis
       Tiger
       德博拉·哈蒙 Deborah Harmon
       诺曼·阿尔登 Norman Alden
       考特尼·盖恩斯 Courtney Gains
       乔治·“巴克”·弗劳尔 George 'Buck' Flower
       艾薇·贝瑟恩 Ivy Bethune
       罗伯特·克兰茨 Robert Krantz
       Tom Willett
       查尔斯·L·坎贝尔 Charles L. Campbell
       贾森·赫维 Jason Hervey
       Jeff O'Haco
       Will Hare
       Tom Tangen
       Jason Marin
       Tommy Thomas
       Read Morgan
       Karen Petrasek


标  签 科幻 | 美国 | 典范 | 笑剧 | 回到未来 | 1985 | 美国电影 | 穿越

简  介  

  布朗博士(克里斯托弗?洛伊德 Christopher Lloyd 饰)总是有些希奇怪僻的发现。在一次实验他发现的时光机械时,他找来了忘年交高中生马丁(迈克尔?J?福克斯 Michael J. Fox 饰)。岂料尝试进程中博士被暴徒杀戮了,马丁忙乱中架着时光机逃窜,回到了30年前。马丁碰到了30年前的父亲乔治(克利斯丁?格拉夫 Crispin Glover 饰)和母亲洛莲(莉?汤普森 Lea Thompson 饰)。马丁一边找寻30年前的布朗博士,好让自己回到未来;一边极力撮合乔治和洛莲,免得自己在今后消失了。但乔治为人懦弱,马丁在撮合进程中画蛇添足让洛莲爱上了自己。还有使人厌恶的贝夫从中作梗,令马丁愤怒不已。马丁周旋在他的双亲之间,还要尽快找到博士,想法子回到未来……

获奖情况  

  第58届奥斯卡金像奖(1986)
  最好原创剧本(提名) 鲍勃·盖尔 / 罗伯特·泽米吉斯
  最好音效剪辑 查尔斯·L·坎贝尔 / 罗伯特·拉特利奇
  最好声响(提名) 威廉·B·卡普兰 / B·丁尼生·塞巴斯蒂安二世 / 比尔·瓦尼 / 罗伯特·瑟尔威尔
  最好原创歌曲(提名) 休易·路易斯 / 克里斯·海耶斯 / 约翰尼·科拉

  1. Video
  2. ID                                       : 1
  3. Format                                   : HEVC
  4. Format/Info                              : High Efficiency Video Coding
  5. Format profile                           : Main 10@L5.1@High
  6. Codec ID                                 : V_MPEGH/ISO/HEVC
  7. Duration                                 : 1 h 56 min
  8. Bit rate                                 : 52.3 Mb/s
  9. Width                                    : 3 840 pixels
  10. Height                                   : 2 076 pixels
  11. Display aspect ratio                     : 1.85:1
  12. Frame rate mode                          : Constant
  13. Frame rate                               : 23.976 (24000/1001/45378) FPS
  14. Color space                              : YUV
  15. Chroma subsampling                       : 4:2:0
  16. Bit depth                                : 10 bits
  17. Bits/(Pixel*Frame)                       : 0.274
  18. Stream size                              : 42.4 GiB (85%)
  19. Title                                    : Back.to.the.Future.1985.2160p.BluRay.x265.10bit.SDR.DTS-HD.MA.TrueHD.7.1.Atmos-SWTYBLZ
  20. Writing library                          : x265 3.0+1-ed72af837053:[Windows][GCC 8.2.0][64 bit] 10bit
  21. Encoding settings                        : cpuid=1111039 / frame-threads=6 / numa-pools=40 / wpp / no-pmode / no-pme / no-psnr / no-ssim / log-level=2 / input-csp=1 / input-res=3840x2076 / interlace=0 / total-frames=166928 / level-idc=51 / high-tier=1 / uhd-bd=0 / ref=3 / no-allow-non-conformance / repeat-headers / annexb / aud / hrd / info / hash=0 / no-temporal-layers / no-open-gop / min-keyint=1 / keyint=24 / gop-lookahead=0 / bframes=4 / b-adapt=2 / b-pyramid / bframe-bias=0 / rc-lookahead=25 / lookahead-slices=4 / scenecut=40 / radl=0 / no-splice / no-intra-refresh / ctu=64 / min-cu-size=8 / no-rect / no-amp / max-tu-size=32 / tu-inter-depth=1 / tu-intra-depth=1 / limit-tu=0 / rdoq-level=0 / dynamic-rd=0.00 / no-ssim-rd / signhide / no-tskip / nr-intra=0 / nr-inter=0 / no-constrained-intra / strong-intra-smoothing / max-merge=2 / limit-refs=3 / no-limit-modes / me=1 / subme=2 / merange=57 / temporal-mvp / weightp / no-weightb / no-analyze-src-pics / deblock=0:0 / no-sao / no-sao-non-deblock / rd=3 / no-early-skip / rskip / no-fast-intra / no-tskip-fast / no-cu-lossless / no-b-intra / no-splitrd-skip / rdpenalty=0 / psy-rd=2.00 / psy-rdoq=0.00 / no-rd-refine / no-lossless / cbqpoffs=0 / crqpoffs=0 / rc=crf / crf=16.0 / qcomp=0.60 / qpstep=4 / stats-write=0 / stats-read=0 / vbv-maxrate=160000 / vbv-bufsize=160000 / vbv-init=0.9 / crf-max=0.0 / crf-min=0.0 / ipratio=1.40 / pbratio=1.30 / aq-mode=1 / aq-strength=1.00 / cutree / zone-count=0 / no-strict-cbr / qg-size=32 / no-rc-grain / qpmax=69 / qpmin=0 / no-const-vbv / sar=1 / overscan=0 / videoformat=5 / range=0 / colorprim=2 / transfer=2 / colormatrix=2 / chromaloc=0 / display-window=0 / max-cll=0,0 / min-luma=0 / max-luma=1023 / log2-max-poc-lsb=8 / vui-timing-info / vui-hrd-info / slices=1 / opt-qp-pps / opt-ref-list-length-pps / no-multi-pass-opt-rps / scenecut-bias=0.05 / no-opt-cu-delta-qp / no-aq-motion / no-hdr / no-hdr-opt / no-dhdr10-opt / no-idr-recovery-sei / analysis-reuse-level=5 / scale-factor=0 / refine-intra=0 / refine-inter=0 / refine-mv=0 / refine-ctu-distortion=0 / no-limit-sao / ctu-info=0 / no-lowpass-dct / refine-analysis-type=0 / copy-pic=1 / max-ausize-factor=1.0 / no-dynamic-refine / no-single-sei / no-hevc-aq / qp-adaptation-range=1.00
  22. Default                                  : Yes
  23. Forced                                   : No

  24. Audio #1
  25. ID                                       : 2
  26. Format                                   : MLP FBA 16-ch
  27. Format/Info                              : Meridian Lossless Packing FBA with 16-channel presentation
  28. Commercial name                          : Dolby TrueHD with Dolby Atmos
  29. Codec ID                                 : A_TRUEHD
  30. Duration                                 : 1 h 56 min
  31. Bit rate mode                            : Variable
  32. Bit rate                                 : 4 213 kb/s
  33. Maximum bit rate                         : 7 626 kb/s
  34. Channel(s)                               : 8 channels
  35. Channel layout                           : L R C LFE Ls Rs Lb Rb
  36. Sampling rate                            : 48.0 kHz
  37. Frame rate                               : 1 200.000 FPS (40 SPF)
  38. Compression mode                         : Lossless
  39. Stream size                              : 3.41 GiB (7%)
  40. Title                                    : Back.to.the.Future.1985.2160p.BluRay.x265.10bit.SDR.DTS-HD.MA.TrueHD.7.1.Atmos-SWTYBLZ
  41. Language                                 : English
  42. Default                                  : Yes
  43. Forced                                   : No
  44. Number of dynamic objects                : 11
  45. Bed channel count                        : 1 channel
  46. Bed channel configuration                : LFE

  47. Audio #2
  48. ID                                       : 3
  49. Format                                   : DTS XLL
  50. Format/Info                              : Digital Theater Systems
  51. Commercial name                          : DTS-HD Master Audio
  52. Codec ID                                 : A_DTS
  53. Duration                                 : 1 h 56 min
  54. Bit rate mode                            : Variable
  55. Bit rate                                 : 4 268 kb/s
  56. Channel(s)                               : 8 channels
  57. Channel layout                           : C L R LFE Lb Rb Lss Rss
  58. Sampling rate                            : 48.0 kHz
  59. Frame rate                               : 93.750 FPS (512 SPF)
  60. Bit depth                                : 24 bits
  61. Compression mode                         : Lossless
  62. Stream size                              : 3.46 GiB (7%)
  63. Title                                    : Back.to.the.Future.1985.2160p.BluRay.x265.10bit.SDR.DTS-HD.MA.TrueHD.7.1.Atmos-SWTYBLZ
  64. Language                                 : English
  65. Default                                  : No
  66. Forced                                   : No

  67. Audio #3
  68. ID                                       : 4
  69. Format                                   : AC-3
  70. Format/Info                              : Audio Coding 3
  71. Commercial name                          : Dolby Digital
  72. Codec ID                                 : A_AC3
  73. Duration                                 : 1 h 56 min
  74. Bit rate mode                            : Constant
  75. Bit rate                                 : 448 kb/s
  76. Channel(s)                               : 6 channels
  77. Channel layout                           : L R C LFE Ls Rs
  78. Sampling rate                            : 48.0 kHz
  79. Frame rate                               : 31.250 FPS (1536 SPF)
  80. Compression mode                         : Lossy
  81. Stream size                              : 372 MiB (1%)
  82. Title                                    : Back.to.the.Future.1985.2160p.BluRay.x265.10bit.SDR.DTS-HD.MA.TrueHD.7.1.Atmos-SWTYBLZ
  83. Language                                 : English
  84. Service kind                             : Complete Main
  85. Default                                  : No
  86. Forced                                   : No

  87. Text #1
  88. ID                                       : 5
  89. Format                                   : UTF-8
  90. Codec ID                                 : S_TEXT/UTF8
  91. Codec ID/Info                            : UTF-8 Plain Text
  92. Duration                                 : 1 h 50 min
  93. Bit rate                                 : 62 b/s
  94. Count of elements                        : 1573
  95. Stream size                              : 50.1 KiB (0%)
  96. Title                                    : English-SRT
  97. Language                                 : English
  98. Default                                  : Yes
  99. Forced                                   : No

  100. Text #2
  101. ID                                       : 6
  102. Format                                   : PGS
  103. Muxing mode                              : zlib
  104. Codec ID                                 : S_HDMV/PGS
  105. Codec ID/Info                            : Picture based subtitle format used on BDs/HD-DVDs
  106. Duration                                 : 1 h 51 min
  107. Bit rate                                 : 40.3 kb/s
  108. Count of elements                        : 3044
  109. Stream size                              : 32.1 MiB (0%)
  110. Title                                    : English-PGS
  111. Language                                 : English
  112. Default                                  : No
  113. Forced                                   : No

  114. Text #3
  115. ID                                       : 7
  116. Format                                   : PGS
  117. Muxing mode                              : zlib
  118. Codec ID                                 : S_HDMV/PGS
  119. Codec ID/Info                            : Picture based subtitle format used on BDs/HD-DVDs
  120. Duration                                 : 1 h 51 min
  121. Bit rate                                 : 44.1 kb/s
  122. Count of elements                        : 3555
  123. Stream size                              : 35.1 MiB (0%)
  124. Title                                    : English-SDH-PGS
  125. Language                                 : English
  126. Default                                  : No
  127. Forced                                   : No

  128. Text #4
  129. ID                                       : 8
  130. Format                                   : PGS
  131. Muxing mode                              : zlib
  132. Codec ID                                 : S_HDMV/PGS
  133. Codec ID/Info                            : Picture based subtitle format used on BDs/HD-DVDs
  134. Duration                                 : 1 h 50 min
  135. Bit rate                                 : 24.4 kb/s
  136. Count of elements                        : 2498
  137. Stream size                              : 19.3 MiB (0%)
  138. Title                                    : Chinese-PGS
  139. Language                                 : Chinese
  140. Default                                  : No
  141. Forced                                   : No

  142. Text #5
  143. ID                                       : 9
  144. Format                                   : PGS
  145. Muxing mode                              : zlib
  146. Codec ID                                 : S_HDMV/PGS
  147. Codec ID/Info                            : Picture based subtitle format used on BDs/HD-DVDs
  148. Duration                                 : 1 h 50 min
  149. Bit rate                                 : 24.7 kb/s
  150. Count of elements                        : 2558
  151. Stream size                              : 19.5 MiB (0%)
  152. Title                                    : Chinese-PGS
  153. Language                                 : Chinese
  154. Default                                  : No
  155. Forced                                   : No

  156. Text #6
  157. ID                                       : 10
  158. Format                                   : PGS
  159. Muxing mode                              : zlib
  160. Codec ID                                 : S_HDMV/PGS
  161. Codec ID/Info                            : Picture based subtitle format used on BDs/HD-DVDs
  162. Duration                                 : 1 h 50 min
  163. Bit rate                                 : 31.1 kb/s
  164. Count of elements                        : 2598
  165. Stream size                              : 24.5 MiB (0%)
  166. Title                                    : Croatian-PGS
  167. Language                                 : Croatian
  168. Default                                  : No
  169. Forced                                   : No

  170. Text #7
  171. ID                                       : 11
  172. Format                                   : PGS
  173. Muxing mode                              : zlib
  174. Codec ID                                 : S_HDMV/PGS
  175. Codec ID/Info                            : Picture based subtitle format used on BDs/HD-DVDs
  176. Duration                                 : 1 h 50 min
  177. Bit rate                                 : 30.7 kb/s
  178. Count of elements                        : 2608
  179. Stream size                              : 24.2 MiB (0%)
  180. Title                                    : Czech-PGS
  181. Language                                 : Czech
  182. Default                                  : No
  183. Forced                                   : No

  184. Text #8
  185. ID                                       : 12
  186. Format                                   : PGS
  187. Muxing mode                              : zlib
  188. Codec ID                                 : S_HDMV/PGS
  189. Codec ID/Info                            : Picture based subtitle format used on BDs/HD-DVDs
  190. Duration                                 : 1 h 50 min
  191. Bit rate                                 : 33.9 kb/s
  192. Count of elements                        : 2602
  193. Stream size                              : 26.7 MiB (0%)
  194. Title                                    : Danish-PGS
  195. Language                                 : Danish
  196. Default                                  : No
  197. Forced                                   : No

  198. Text #9
  199. ID                                       : 13
  200. Format                                   : PGS
  201. Muxing mode                              : zlib
  202. Codec ID                                 : S_HDMV/PGS
  203. Codec ID/Info                            : Picture based subtitle format used on BDs/HD-DVDs
  204. Duration                                 : 1 h 50 min
  205. Bit rate                                 : 33.4 kb/s
  206. Count of elements                        : 2598
  207. Stream size                              : 26.4 MiB (0%)
  208. Title                                    : Dutch-PGS
  209. Language                                 : Dutch
  210. Default                                  : No
  211. Forced                                   : No

  212. Text #10
  213. ID                                       : 14
  214. Format                                   : PGS
  215. Muxing mode                              : zlib
  216. Codec ID                                 : S_HDMV/PGS
  217. Codec ID/Info                            : Picture based subtitle format used on BDs/HD-DVDs
  218. Duration                                 : 1 h 50 min
  219. Bit rate                                 : 31.2 kb/s
  220. Count of elements                        : 2604
  221. Stream size                              : 24.6 MiB (0%)
  222. Title                                    : Finnish-PGS
  223. Language                                 : Finnish
  224. Default                                  : No
  225. Forced                                   : No

  226. Text #11
  227. ID                                       : 15
  228. Format                                   : PGS
  229. Muxing mode                              : zlib
  230. Codec ID                                 : S_HDMV/PGS
  231. Codec ID/Info                            : Picture based subtitle format used on BDs/HD-DVDs
  232. Duration                                 : 1 h 50 min
  233. Bit rate                                 : 36.7 kb/s
  234. Count of elements                        : 2604
  235. Stream size                              : 29.0 MiB (0%)
  236. Title                                    : French-PGS
  237. Language                                 : French
  238. Default                                  : No
  239. Forced                                   : No

  240. Text #12
  241. ID                                       : 16
  242. Format                                   : PGS
  243. Muxing mode                              : zlib
  244. Codec ID                                 : S_HDMV/PGS
  245. Codec ID/Info                            : Picture based subtitle format used on BDs/HD-DVDs
  246. Duration                                 : 1 h 50 min
  247. Bit rate                                 : 31.6 kb/s
  248. Count of elements                        : 2606
  249. Stream size                              : 25.0 MiB (0%)
  250. Title                                    : French-PGS
  251. Language                                 : French
  252. Default                                  : No
  253. Forced                                   : No

  254. Text #13
  255. ID                                       : 17
  256. Format                                   : PGS
  257. Muxing mode                              : zlib
  258. Codec ID                                 : S_HDMV/PGS
  259. Codec ID/Info                            : Picture based subtitle format used on BDs/HD-DVDs
  260. Duration                                 : 1 h 50 min
  261. Bit rate                                 : 36.0 kb/s
  262. Count of elements                        : 2602
  263. Stream size                              : 28.4 MiB (0%)
  264. Title                                    : German-PGS
  265. Language                                 : German
  266. Default                                  : No
  267. Forced                                   : No

  268. Text #14
  269. ID                                       : 18
  270. Format                                   : PGS
  271. Muxing mode                              : zlib
  272. Codec ID                                 : S_HDMV/PGS
  273. Codec ID/Info                            : Picture based subtitle format used on BDs/HD-DVDs
  274. Duration                                 : 1 h 50 min
  275. Bit rate                                 : 35.9 kb/s
  276. Count of elements                        : 2618
  277. Stream size                              : 28.4 MiB (0%)
  278. Title                                    : Greek-PGS
  279. Language                                 : Greek
  280. Default                                  : No
  281. Forced                                   : No

  282. Text #15
  283. ID                                       : 19
  284. Format                                   : PGS
  285. Muxing mode                              : zlib
  286. Codec ID                                 : S_HDMV/PGS
  287. Codec ID/Info                            : Picture based subtitle format used on BDs/HD-DVDs
  288. Duration                                 : 1 h 50 min
  289. Bit rate                                 : 34.1 kb/s
  290. Count of elements                        : 2610
  291. Stream size                              : 26.9 MiB (0%)
  292. Title                                    : Hungarian-PGS
  293. Language                                 : Hungarian
  294. Default                                  : No
  295. Forced                                   : No

  296. Text #16
  297. ID                                       : 20
  298. Format                                   : PGS
  299. Muxing mode                              : zlib
  300. Codec ID                                 : S_HDMV/PGS
  301. Codec ID/Info                            : Picture based subtitle format used on BDs/HD-DVDs
  302. Duration                                 : 1 h 50 min
  303. Bit rate                                 : 31.8 kb/s
  304. Count of elements                        : 2604
  305. Stream size                              : 25.1 MiB (0%)
  306. Title                                    : Icelandic-PGS
  307. Language                                 : Icelandic
  308. Default                                  : No
  309. Forced                                   : No

  310. Text #17
  311. ID                                       : 21
  312. Format                                   : PGS
  313. Muxing mode                              : zlib
  314. Codec ID                                 : S_HDMV/PGS
  315. Codec ID/Info                            : Picture based subtitle format used on BDs/HD-DVDs
  316. Duration                                 : 1 h 50 min
  317. Bit rate                                 : 32.6 kb/s
  318. Count of elements                        : 2608
  319. Stream size                              : 25.7 MiB (0%)
  320. Title                                    : Italian-PGS
  321. Language                                 : Italian
  322. Default                                  : No
  323. Forced                                   : No

  324. Text #18
  325. ID                                       : 22
  326. Format                                   : PGS
  327. Muxing mode                              : zlib
  328. Codec ID                                 : S_HDMV/PGS
  329. Codec ID/Info                            : Picture based subtitle format used on BDs/HD-DVDs
  330. Duration                                 : 1 h 50 min
  331. Bit rate                                 : 19.3 kb/s
  332. Count of elements                        : 2144
  333. Stream size                              : 15.2 MiB (0%)
  334. Title                                    : Japanese-PGS
  335. Language                                 : Japanese
  336. Default                                  : No
  337. Forced                                   : No

  338. Text #19
  339. ID                                       : 23
  340. Format                                   : PGS
  341. Muxing mode                              : zlib
  342. Codec ID                                 : S_HDMV/PGS
  343. Codec ID/Info                            : Picture based subtitle format used on BDs/HD-DVDs
  344. Duration                                 : 1 h 51 min
  345. Bit rate                                 : 22.0 kb/s
  346. Count of elements                        : 2492
  347. Stream size                              : 17.5 MiB (0%)
  348. Title                                    : Korean-PGS
  349. Language                                 : Korean
  350. Default                                  : No
  351. Forced                                   : No

  352. Text #20
  353. ID                                       : 24
  354. Format                                   : PGS
  355. Muxing mode                              : zlib
  356. Codec ID                                 : S_HDMV/PGS
  357. Codec ID/Info                            : Picture based subtitle format used on BDs/HD-DVDs
  358. Duration                                 : 1 h 50 min
  359. Bit rate                                 : 31.3 kb/s
  360. Count of elements                        : 2604
  361. Stream size                              : 24.7 MiB (0%)
  362. Title                                    : Norwegian-PGS
  363. Language                                 : Norwegian
  364. Default                                  : No
  365. Forced                                   : No

  366. Text #21
  367. ID                                       : 25
  368. Format                                   : PGS
  369. Muxing mode                              : zlib
  370. Codec ID                                 : S_HDMV/PGS
  371. Codec ID/Info                            : Picture based subtitle format used on BDs/HD-DVDs
  372. Duration                                 : 1 h 50 min
  373. Bit rate                                 : 33.6 kb/s
  374. Count of elements                        : 2596
  375. Stream size                              : 26.5 MiB (0%)
  376. Title                                    : Polish-PGS
  377. Language                                 : Polish
  378. Default                                  : No
  379. Forced                                   : No

  380. Text #22
  381. ID                                       : 26
  382. Format                                   : PGS
  383. Muxing mode                              : zlib
  384. Codec ID                                 : S_HDMV/PGS
  385. Codec ID/Info                            : Picture based subtitle format used on BDs/HD-DVDs
  386. Duration                                 : 1 h 50 min
  387. Bit rate                                 : 30.3 kb/s
  388. Count of elements                        : 2462
  389. Stream size                              : 24.0 MiB (0%)
  390. Title                                    : Portuguese-PGS
  391. Language                                 : Portuguese
  392. Default                                  : No
  393. Forced                                   : No

  394. Text #23
  395. ID                                       : 27
  396. Format                                   : PGS
  397. Muxing mode                              : zlib
  398. Codec ID                                 : S_HDMV/PGS
  399. Codec ID/Info                            : Picture based subtitle format used on BDs/HD-DVDs
  400. Duration                                 : 1 h 51 min
  401. Bit rate                                 : 33.6 kb/s
  402. Count of elements                        : 2604
  403. Stream size                              : 26.7 MiB (0%)
  404. Title                                    : Portuguese-PGS
  405. Language                                 : Portuguese
  406. Default                                  : No
  407. Forced                                   : No

  408. Text #24
  409. ID                                       : 28
  410. Format                                   : PGS
  411. Muxing mode                              : zlib
  412. Codec ID                                 : S_HDMV/PGS
  413. Codec ID/Info                            : Picture based subtitle format used on BDs/HD-DVDs
  414. Duration                                 : 1 h 51 min
  415. Bit rate                                 : 30.0 kb/s
  416. Count of elements                        : 2598
  417. Stream size                              : 23.8 MiB (0%)
  418. Title                                    : Romanian-PGS
  419. Language                                 : Romanian
  420. Default                                  : No
  421. Forced                                   : No

  422. Text #25
  423. ID                                       : 29
  424. Format                                   : PGS
  425. Muxing mode                              : zlib
  426. Codec ID                                 : S_HDMV/PGS
  427. Codec ID/Info                            : Picture based subtitle format used on BDs/HD-DVDs
  428. Duration                                 : 1 h 50 min
  429. Bit rate                                 : 30.0 kb/s
  430. Count of elements                        : 2596
  431. Stream size                              : 23.7 MiB (0%)
  432. Title                                    : Slovenian-PGS
  433. Language                                 : Slovenian
  434. Default                                  : No
  435. Forced                                   : No

  436. Text #26
  437. ID                                       : 30
  438. Format                                   : PGS
  439. Muxing mode                              : zlib
  440. Codec ID                                 : S_HDMV/PGS
  441. Codec ID/Info                            : Picture based subtitle format used on BDs/HD-DVDs
  442. Duration                                 : 1 h 50 min
  443. Bit rate                                 : 34.5 kb/s
  444. Count of elements                        : 2602
  445. Stream size                              : 27.2 MiB (0%)
  446. Title                                    : Spanish-PGS
  447. Language                                 : Spanish
  448. Default                                  : No
  449. Forced                                   : No

  450. Text #27
  451. ID                                       : 31
  452. Format                                   : PGS
  453. Muxing mode                              : zlib
  454. Codec ID                                 : S_HDMV/PGS
  455. Codec ID/Info                            : Picture based subtitle format used on BDs/HD-DVDs
  456. Duration                                 : 1 h 50 min
  457. Bit rate                                 : 26.2 kb/s
  458. Count of elements                        : 2207
  459. Stream size                              : 20.7 MiB (0%)
  460. Title                                    : Spanish-PGS
  461. Language                                 : Spanish
  462. Default                                  : No
  463. Forced                                   : No

  464. Text #28
  465. ID                                       : 32
  466. Format                                   : PGS
  467. Muxing mode                              : zlib
  468. Codec ID                                 : S_HDMV/PGS
  469. Codec ID/Info                            : Picture based subtitle format used on BDs/HD-DVDs
  470. Duration                                 : 1 h 50 min
  471. Bit rate                                 : 30.3 kb/s
  472. Count of elements                        : 2574
  473. Stream size                              : 23.9 MiB (0%)
  474. Title                                    : Swedish-PGS
  475. Language                                 : Swedish
  476. Default                                  : No
  477. Forced                                   : No

  478. Text #29
  479. ID                                       : 33
  480. Format                                   : PGS
  481. Muxing mode                              : zlib
  482. Codec ID                                 : S_HDMV/PGS
  483. Codec ID/Info                            : Picture based subtitle format used on BDs/HD-DVDs
  484. Duration                                 : 1 h 50 min
  485. Bit rate                                 : 24.7 kb/s
  486. Count of elements                        : 2478
  487. Stream size                              : 19.5 MiB (0%)
  488. Title                                    : Thai-PGS
  489. Language                                 : Thai
  490. Default                                  : No
  491. Forced                                   : No

  492. Text #30
  493. ID                                       : 34
  494. Format                                   : PGS
  495. Muxing mode                              : zlib
  496. Codec ID                                 : S_HDMV/PGS
  497. Codec ID/Info                            : Picture based subtitle format used on BDs/HD-DVDs
  498. Duration                                 : 1 h 50 min
  499. Bit rate                                 : 35.5 kb/s
  500. Count of elements                        : 2608
  501. Stream size                              : 28.0 MiB (0%)
  502. Title                                    : Turkish-PGS
  503. Language                                 : Turkish
  504. Default                                  : No
  505. Forced                                   : No

  506. Menu
  507. 00:00:00.000                             : en:Main Titles
  508. 00:04:13.545                             : en:Late for School
  509. 00:06:47.282                             : en:The Slacker
  510. 00:11:45.246                             : en:The Family McFly
  511. 00:18:04.166                             : en:A Time Machine?
  512. 00:28:12.274                             : en:Escape to the Past
  513. 00:31:30.680                             : en:1955
  514. 00:38:40.693                             : en:Dad the Dork
  515. 00:41:22.313                             : en:Calvin & Lorraine
  516. 00:47:53.370                             : en:Future Boy & Doc
  517. 00:55:53.141                             : en:Marty\'s Problem
  518. 00:58:49.860                             : en:The Matchmaker
  519. 01:05:16.788                             : en:Skateboard Hero
  520. 01:16:40.304                             : en:The Big Date
  521. 01:20:14.643                             : en:The Real George
  522. 01:27:23.321                             : en:Johnny B. Goode
  523. 01:31:12.050                             : en:Back to the Future
  524. 01:41:40.553                             : en:Doc\'s Decision
  525. 01:46:41.437                             : en:Future Shock
  526. 01:51:24.511                             : en:Roads? (Credits)
复制代码






















本帖隐藏的下载地址需要VIP会员才可阅读,您需要升级才可阅读,点击这里升级VIP
回复

使用道具 举报

懒得打字嘛,点击右侧快捷回复 【右侧内容,后台自定义】
您需要登录后才可以回帖 登录 | 立即注册

本版积分规则

Archiver|手机版|小黑屋| 中国高清网 ( ICP备17007870号-2 ) |网站地图 

GMT+8, 2020-10-20 10:56 , Processed in 0.255107 second(s), 39 queries .

Powered by HDchina X3.4

Copyright 2017-2019©HDchina.All right reserved

返回顶部 联系我们