查看: 215|回复: 0

[10bit.HDR] 回到未来/回到未来第一集 Back.to.the.Future.1985.2160p.UHD.BluRay.x265.10bit.HDR.DTS-HD.MA.TrueHD.7.1.Atmos-SWTYBLZ 32.71GB

[复制链接]

 成长值: 7735

级别:资源管理组

注册时间
2017-10-20
最后登录
2020-10-23
听众
1
收听
0
主题
104417
蓝光币
207774 枚
贡献
21715 点
发表于 2020-10-16 21:00:43 | 显示全部楼层 |阅读模式




译  名 回到未来 / 回到未来第一集
片  名 Back to the Future
年  代 1985
产  地 美国
类  别 笑剧 / 科幻 / 冒险
语  言 英语
上映日期 1985-07-03(美国)
IMDb评分  8.5/10 from 1033821 users
IMDb链接  https://www.imdb.com/title/tt0088763
豆瓣评分 8.7/10 from 147224 users
豆瓣链接 https://movie.douban.com/subject/1300555/
片  长 116分钟
导  演 罗伯特·泽米吉斯 Robert Zemeckis
编  剧 罗伯特·泽米吉斯 Robert Zemeckis / 鲍勃·盖尔 Bob Gale
主  演 迈克尔·J·福克斯 Michael J. Fox
       克里斯托弗·洛伊德 Christopher Lloyd
       莉·汤普森 Lea Thompson
       克里斯平·格洛弗 Crispin Glover
       托马斯·F·威尔森 Thomas F. Wilson
       克劳迪娅·韦尔斯 Claudia Wells
       马克·麦克卢尔 Marc McClure
       温迪·乔·斯佩博 Wendie Jo Sperber
       乔治·第桑佐 George DiCenzo
       弗兰西斯·李·麦克凯恩 Frances Lee McCain
       詹姆斯·托根 James Tolkan
       J·J·科恩 J.J. Cohen
       凯西·希玛兹科 Casey Siemaszko
       比利·赞恩 Billy Zane
       小哈利·沃特斯 Harry Waters Jr.
       唐纳德·富利洛夫 Donald Fullilove
       丽萨·弗里曼 Lisa Freeman
       克里斯滕·考夫曼 Cristen Kauffman
       萨奇·帕克 Sachi Parker
       玛丽·艾伦·特雷纳 Mary Ellen Trainor
       麦娅·布鲁顿 Maia Brewton
       加里·莱利 Gary Riley
       艾尔莎·瑞雯 Elsa Raven
       休易·路易斯 Huey Lewis
       Tiger
       德博拉·哈蒙 Deborah Harmon
       诺曼·阿尔登 Norman Alden
       考特尼·盖恩斯 Courtney Gains
       乔治·“巴克”·弗劳尔 George 'Buck' Flower
       艾薇·贝瑟恩 Ivy Bethune
       罗伯特·克兰茨 Robert Krantz
       Tom Willett
       查尔斯·L·坎贝尔 Charles L. Campbell
       贾森·赫维 Jason Hervey
       Jeff O'Haco
       Will Hare
       Tom Tangen
       Jason Marin
       Tommy Thomas
       Read Morgan
       Karen Petrasek


标  签 科幻 | 美国 | 典范 | 笑剧 | 回到未来 | 1985 | 美国电影 | 穿越

简  介  

  布朗博士(克里斯托弗?洛伊德 Christopher Lloyd 饰)总是有些希奇怪僻的发现。在一次实验他发现的时光机械时,他找来了忘年交高中生马丁(迈克尔?J?福克斯 Michael J. Fox 饰)。岂料尝试进程中博士被暴徒杀戮了,马丁忙乱中架着时光机逃窜,回到了30年前。马丁碰到了30年前的父亲乔治(克利斯丁?格拉夫 Crispin Glover 饰)和母亲洛莲(莉?汤普森 Lea Thompson 饰)。马丁一边找寻30年前的布朗博士,好让自己回到未来;一边极力撮合乔治和洛莲,免得自己在今后消失了。但乔治为人懦弱,马丁在撮合进程中画蛇添足让洛莲爱上了自己。还有使人厌恶的贝夫从中作梗,令马丁愤怒不已。马丁周旋在他的双亲之间,还要尽快找到博士,想法子回到未来……

获奖情况  

  第58届奥斯卡金像奖(1986)
  最好原创剧本(提名) 鲍勃·盖尔 / 罗伯特·泽米吉斯
  最好音效剪辑 查尔斯·L·坎贝尔 / 罗伯特·拉特利奇
  最好声响(提名) 威廉·B·卡普兰 / B·丁尼生·塞巴斯蒂安二世 / 比尔·瓦尼 / 罗伯特·瑟尔威尔
  最好原创歌曲(提名) 休易·路易斯 / 克里斯·海耶斯 / 约翰尼·科拉

  1. Video
  2. ID                                       : 1
  3. Format                                   : HEVC
  4. Format/Info                              : High Efficiency Video Coding
  5. Format profile                           : Main 10@L5.1@High
  6. HDR format                               : SMPTE ST 2086, HDR10 compatible
  7. Codec ID                                 : V_MPEGH/ISO/HEVC
  8. Duration                                 : 1 h 56 min
  9. Bit rate                                 : 30.9 Mb/s
  10. Width                                    : 3 840 pixels
  11. Height                                   : 2 076 pixels
  12. Display aspect ratio                     : 1.85:1
  13. Frame rate mode                          : Constant
  14. Frame rate                               : 23.976 (24000/1001/45378) FPS
  15. Color space                              : YUV
  16. Chroma subsampling                       : 4:2:0 (Type 2)
  17. Bit depth                                : 10 bits
  18. Bits/(Pixel*Frame)                       : 0.162
  19. Stream size                              : 25.1 GiB (77%)
  20. Title                                    : Back.to.the.Future.1985.2160p.UHD.BluRay.x265.10bit.HDR.DTS-HD.MA.TrueHD.7.1.Atmos-SWTYBLZ
  21. Writing library                          : x265 3.0_Au+10-74a8672ea4f7:[Windows][GCC 8.2.1][64 bit] 10bit
  22. Encoding settings                        : cpuid=1111039 / frame-threads=6 / numa-pools=24,24,24,24 / wpp / no-pmode / no-pme / no-psnr / no-ssim / log-level=2 / input-csp=1 / input-res=3840x2076 / interlace=0 / total-frames=0 / level-idc=51 / high-tier=1 / uhd-bd=0 / ref=3 / no-allow-non-conformance / repeat-headers / annexb / aud / hrd / info / hash=0 / no-temporal-layers / no-open-gop / min-keyint=1 / keyint=24 / gop-lookahead=0 / bframes=4 / b-adapt=2 / b-pyramid / bframe-bias=0 / rc-lookahead=25 / lookahead-slices=4 / scenecut=40 / radl=0 / no-splice / no-intra-refresh / ctu=64 / min-cu-size=8 / no-rect / no-amp / max-tu-size=32 / tu-inter-depth=1 / tu-intra-depth=1 / limit-tu=0 / rdoq-level=0 / dynamic-rd=0.00 / no-ssim-rd / signhide / no-tskip / nr-intra=0 / nr-inter=0 / no-constrained-intra / strong-intra-smoothing / max-merge=2 / limit-refs=3 / no-limit-modes / me=1 / subme=2 / merange=57 / temporal-mvp / weightp / no-weightb / no-analyze-src-pics / deblock=0:0 / no-sao / no-sao-non-deblock / rd=3 / no-early-skip / rskip / no-fast-intra / no-tskip-fast / no-cu-lossless / no-b-intra / no-splitrd-skip / rdpenalty=0 / psy-rd=2.00 / psy-rdoq=0.00 / no-rd-refine / no-lossless / cbqpoffs=0 / crqpoffs=0 / rc=crf / crf=16.0 / qcomp=0.60 / qpstep=4 / stats-write=0 / stats-read=0 / vbv-maxrate=160000 / vbv-bufsize=160000 / vbv-init=0.9 / crf-max=0.0 / crf-min=0.0 / ipratio=1.40 / pbratio=1.30 / aq-mode=1 / aq-strength=1.00 / cutree / zone-count=0 / no-strict-cbr / qg-size=32 / no-rc-grain / qpmax=69 / qpmin=0 / no-const-vbv / sar=1 / overscan=0 / videoformat=5 / range=0 / colorprim=9 / transfer=16 / colormatrix=9 / chromaloc=1 / chromaloc-top=2 / chromaloc-bottom=2 / display-window=0 / master-display=G(13250,34500)B(7500,3000)R(34000,16000)WP(15635,16450)L(40000000,50) / max-cll=1000,755 / min-luma=0 / max-luma=1023 / log2-max-poc-lsb=8 / vui-timing-info / vui-hrd-info / slices=1 / opt-qp-pps / opt-ref-list-length-pps / no-multi-pass-opt-rps / scenecut-bias=0.05 / no-opt-cu-delta-qp / no-aq-motion / hdr / hdr-opt / no-dhdr10-opt / no-idr-recovery-sei / analysis-reuse-level=5 / scale-factor=0 / refine-intra=0 / refine-inter=0 / refine-mv=0 / refine-ctu-distortion=0 / no-limit-sao / ctu-info=0 / no-lowpass-dct / refine-analysis-type=16 / copy-pic=1 / max-ausize-factor=1.0 / no-dynamic-refine / no-single-sei / no-hevc-aq / no-svt / qp-adaptation-range=1.00
  23. Language                                 : English
  24. Default                                  : Yes
  25. Forced                                   : No
  26. Color range                              : Limited
  27. Color primaries                          : BT.2020
  28. Transfer characteristics                 : PQ
  29. Matrix coefficients                      : BT.2020 non-constant
  30. Mastering display color primaries        : Display P3
  31. Mastering display luminance              : min: 0.0050 cd/m2, max: 4000 cd/m2
  32. Maximum Content Light Level              : 1000 cd/m2
  33. Maximum Frame-Average Light Level        : 755 cd/m2

  34. Audio #1
  35. ID                                       : 2
  36. Format                                   : MLP FBA 16-ch
  37. Format/Info                              : Meridian Lossless Packing FBA with 16-channel presentation
  38. Commercial name                          : Dolby TrueHD with Dolby Atmos
  39. Codec ID                                 : A_TRUEHD
  40. Duration                                 : 1 h 56 min
  41. Bit rate mode                            : Variable
  42. Bit rate                                 : 4 213 kb/s
  43. Maximum bit rate                         : 7 626 kb/s
  44. Channel(s)                               : 8 channels
  45. Channel layout                           : L R C LFE Ls Rs Lb Rb
  46. Sampling rate                            : 48.0 kHz
  47. Frame rate                               : 1 200.000 FPS (40 SPF)
  48. Compression mode                         : Lossless
  49. Stream size                              : 3.41 GiB (10%)
  50. Title                                    : Back.to.the.Future.1985.2160p.UHD.BluRay.x265.10bit.HDR.DTS-HD.MA.TrueHD.7.1.Atmos-SWTYBLZ
  51. Language                                 : English
  52. Default                                  : Yes
  53. Forced                                   : No
  54. Number of dynamic objects                : 11
  55. Bed channel count                        : 1 channel
  56. Bed channel configuration                : LFE

  57. Audio #2
  58. ID                                       : 3
  59. Format                                   : DTS XLL
  60. Format/Info                              : Digital Theater Systems
  61. Commercial name                          : DTS-HD Master Audio
  62. Codec ID                                 : A_DTS
  63. Duration                                 : 1 h 56 min
  64. Bit rate mode                            : Variable
  65. Bit rate                                 : 4 268 kb/s
  66. Channel(s)                               : 8 channels
  67. Channel layout                           : C L R LFE Lb Rb Lss Rss
  68. Sampling rate                            : 48.0 kHz
  69. Frame rate                               : 93.750 FPS (512 SPF)
  70. Bit depth                                : 24 bits
  71. Compression mode                         : Lossless
  72. Stream size                              : 3.46 GiB (11%)
  73. Title                                    : Back.to.the.Future.1985.2160p.UHD.BluRay.x265.10bit.HDR.DTS-HD.MA.TrueHD.7.1.Atmos-SWTYBLZ
  74. Language                                 : English
  75. Default                                  : No
  76. Forced                                   : No

  77. Audio #3
  78. ID                                       : 4
  79. Format                                   : AC-3
  80. Format/Info                              : Audio Coding 3
  81. Commercial name                          : Dolby Digital
  82. Codec ID                                 : A_AC3
  83. Duration                                 : 1 h 56 min
  84. Bit rate mode                            : Constant
  85. Bit rate                                 : 448 kb/s
  86. Channel(s)                               : 6 channels
  87. Channel layout                           : L R C LFE Ls Rs
  88. Sampling rate                            : 48.0 kHz
  89. Frame rate                               : 31.250 FPS (1536 SPF)
  90. Compression mode                         : Lossy
  91. Stream size                              : 372 MiB (1%)
  92. Title                                    : Back.to.the.Future.1985.2160p.UHD.BluRay.x265.10bit.HDR.DTS-HD.MA.TrueHD.7.1.Atmos-SWTYBLZ
  93. Language                                 : English
  94. Service kind                             : Complete Main
  95. Default                                  : No
  96. Forced                                   : No

  97. Text #1
  98. ID                                       : 5
  99. Format                                   : UTF-8
  100. Codec ID                                 : S_TEXT/UTF8
  101. Codec ID/Info                            : UTF-8 Plain Text
  102. Duration                                 : 1 h 50 min
  103. Bit rate                                 : 62 b/s
  104. Count of elements                        : 1573
  105. Stream size                              : 50.1 KiB (0%)
  106. Title                                    : English-SRT
  107. Language                                 : English
  108. Default                                  : Yes
  109. Forced                                   : No

  110. Text #2
  111. ID                                       : 6
  112. Format                                   : PGS
  113. Muxing mode                              : zlib
  114. Codec ID                                 : S_HDMV/PGS
  115. Codec ID/Info                            : Picture based subtitle format used on BDs/HD-DVDs
  116. Duration                                 : 1 h 51 min
  117. Bit rate                                 : 40.3 kb/s
  118. Count of elements                        : 3044
  119. Stream size                              : 32.1 MiB (0%)
  120. Title                                    : English-PGS
  121. Language                                 : English
  122. Default                                  : No
  123. Forced                                   : No

  124. Text #3
  125. ID                                       : 7
  126. Format                                   : PGS
  127. Muxing mode                              : zlib
  128. Codec ID                                 : S_HDMV/PGS
  129. Codec ID/Info                            : Picture based subtitle format used on BDs/HD-DVDs
  130. Duration                                 : 1 h 51 min
  131. Bit rate                                 : 44.1 kb/s
  132. Count of elements                        : 3555
  133. Stream size                              : 35.1 MiB (0%)
  134. Title                                    : English-SDH-PGS
  135. Language                                 : English
  136. Default                                  : No
  137. Forced                                   : No

  138. Text #4
  139. ID                                       : 8
  140. Format                                   : PGS
  141. Muxing mode                              : zlib
  142. Codec ID                                 : S_HDMV/PGS
  143. Codec ID/Info                            : Picture based subtitle format used on BDs/HD-DVDs
  144. Duration                                 : 1 h 50 min
  145. Bit rate                                 : 24.4 kb/s
  146. Count of elements                        : 2498
  147. Stream size                              : 19.3 MiB (0%)
  148. Title                                    : Chinese-PGS
  149. Language                                 : Chinese
  150. Default                                  : No
  151. Forced                                   : No

  152. Text #5
  153. ID                                       : 9
  154. Format                                   : PGS
  155. Muxing mode                              : zlib
  156. Codec ID                                 : S_HDMV/PGS
  157. Codec ID/Info                            : Picture based subtitle format used on BDs/HD-DVDs
  158. Duration                                 : 1 h 50 min
  159. Bit rate                                 : 24.7 kb/s
  160. Count of elements                        : 2558
  161. Stream size                              : 19.5 MiB (0%)
  162. Title                                    : Chinese-PGS
  163. Language                                 : Chinese
  164. Default                                  : No
  165. Forced                                   : No

  166. Text #6
  167. ID                                       : 10
  168. Format                                   : PGS
  169. Muxing mode                              : zlib
  170. Codec ID                                 : S_HDMV/PGS
  171. Codec ID/Info                            : Picture based subtitle format used on BDs/HD-DVDs
  172. Duration                                 : 1 h 50 min
  173. Bit rate                                 : 31.1 kb/s
  174. Count of elements                        : 2598
  175. Stream size                              : 24.5 MiB (0%)
  176. Title                                    : Croatian-PGS
  177. Language                                 : Croatian
  178. Default                                  : No
  179. Forced                                   : No

  180. Text #7
  181. ID                                       : 11
  182. Format                                   : PGS
  183. Muxing mode                              : zlib
  184. Codec ID                                 : S_HDMV/PGS
  185. Codec ID/Info                            : Picture based subtitle format used on BDs/HD-DVDs
  186. Duration                                 : 1 h 50 min
  187. Bit rate                                 : 30.7 kb/s
  188. Count of elements                        : 2608
  189. Stream size                              : 24.2 MiB (0%)
  190. Title                                    : Czech-PGS
  191. Language                                 : Czech
  192. Default                                  : No
  193. Forced                                   : No

  194. Text #8
  195. ID                                       : 12
  196. Format                                   : PGS
  197. Muxing mode                              : zlib
  198. Codec ID                                 : S_HDMV/PGS
  199. Codec ID/Info                            : Picture based subtitle format used on BDs/HD-DVDs
  200. Duration                                 : 1 h 50 min
  201. Bit rate                                 : 33.9 kb/s
  202. Count of elements                        : 2602
  203. Stream size                              : 26.7 MiB (0%)
  204. Title                                    : Danish-PGS
  205. Language                                 : Danish
  206. Default                                  : No
  207. Forced                                   : No

  208. Text #9
  209. ID                                       : 13
  210. Format                                   : PGS
  211. Muxing mode                              : zlib
  212. Codec ID                                 : S_HDMV/PGS
  213. Codec ID/Info                            : Picture based subtitle format used on BDs/HD-DVDs
  214. Duration                                 : 1 h 50 min
  215. Bit rate                                 : 33.4 kb/s
  216. Count of elements                        : 2598
  217. Stream size                              : 26.4 MiB (0%)
  218. Title                                    : Dutch-PGS
  219. Language                                 : Dutch
  220. Default                                  : No
  221. Forced                                   : No

  222. Text #10
  223. ID                                       : 14
  224. Format                                   : PGS
  225. Muxing mode                              : zlib
  226. Codec ID                                 : S_HDMV/PGS
  227. Codec ID/Info                            : Picture based subtitle format used on BDs/HD-DVDs
  228. Duration                                 : 1 h 50 min
  229. Bit rate                                 : 31.2 kb/s
  230. Count of elements                        : 2604
  231. Stream size                              : 24.6 MiB (0%)
  232. Title                                    : Finnish-PGS
  233. Language                                 : Finnish
  234. Default                                  : No
  235. Forced                                   : No

  236. Text #11
  237. ID                                       : 15
  238. Format                                   : PGS
  239. Muxing mode                              : zlib
  240. Codec ID                                 : S_HDMV/PGS
  241. Codec ID/Info                            : Picture based subtitle format used on BDs/HD-DVDs
  242. Duration                                 : 1 h 50 min
  243. Bit rate                                 : 36.7 kb/s
  244. Count of elements                        : 2604
  245. Stream size                              : 29.0 MiB (0%)
  246. Title                                    : French-PGS
  247. Language                                 : French
  248. Default                                  : No
  249. Forced                                   : No

  250. Text #12
  251. ID                                       : 16
  252. Format                                   : PGS
  253. Muxing mode                              : zlib
  254. Codec ID                                 : S_HDMV/PGS
  255. Codec ID/Info                            : Picture based subtitle format used on BDs/HD-DVDs
  256. Duration                                 : 1 h 50 min
  257. Bit rate                                 : 31.6 kb/s
  258. Count of elements                        : 2606
  259. Stream size                              : 25.0 MiB (0%)
  260. Title                                    : French-PGS
  261. Language                                 : French
  262. Default                                  : No
  263. Forced                                   : No

  264. Text #13
  265. ID                                       : 17
  266. Format                                   : PGS
  267. Muxing mode                              : zlib
  268. Codec ID                                 : S_HDMV/PGS
  269. Codec ID/Info                            : Picture based subtitle format used on BDs/HD-DVDs
  270. Duration                                 : 1 h 50 min
  271. Bit rate                                 : 36.0 kb/s
  272. Count of elements                        : 2602
  273. Stream size                              : 28.4 MiB (0%)
  274. Title                                    : German-PGS
  275. Language                                 : German
  276. Default                                  : No
  277. Forced                                   : No

  278. Text #14
  279. ID                                       : 18
  280. Format                                   : PGS
  281. Muxing mode                              : zlib
  282. Codec ID                                 : S_HDMV/PGS
  283. Codec ID/Info                            : Picture based subtitle format used on BDs/HD-DVDs
  284. Duration                                 : 1 h 50 min
  285. Bit rate                                 : 35.9 kb/s
  286. Count of elements                        : 2618
  287. Stream size                              : 28.4 MiB (0%)
  288. Title                                    : Greek-PGS
  289. Language                                 : Greek
  290. Default                                  : No
  291. Forced                                   : No

  292. Text #15
  293. ID                                       : 19
  294. Format                                   : PGS
  295. Muxing mode                              : zlib
  296. Codec ID                                 : S_HDMV/PGS
  297. Codec ID/Info                            : Picture based subtitle format used on BDs/HD-DVDs
  298. Duration                                 : 1 h 50 min
  299. Bit rate                                 : 34.1 kb/s
  300. Count of elements                        : 2610
  301. Stream size                              : 26.9 MiB (0%)
  302. Title                                    : Hungarian-PGS
  303. Language                                 : Hungarian
  304. Default                                  : No
  305. Forced                                   : No

  306. Text #16
  307. ID                                       : 20
  308. Format                                   : PGS
  309. Muxing mode                              : zlib
  310. Codec ID                                 : S_HDMV/PGS
  311. Codec ID/Info                            : Picture based subtitle format used on BDs/HD-DVDs
  312. Duration                                 : 1 h 50 min
  313. Bit rate                                 : 31.8 kb/s
  314. Count of elements                        : 2604
  315. Stream size                              : 25.1 MiB (0%)
  316. Title                                    : Icelandic-PGS
  317. Language                                 : Icelandic
  318. Default                                  : No
  319. Forced                                   : No

  320. Text #17
  321. ID                                       : 21
  322. Format                                   : PGS
  323. Muxing mode                              : zlib
  324. Codec ID                                 : S_HDMV/PGS
  325. Codec ID/Info                            : Picture based subtitle format used on BDs/HD-DVDs
  326. Duration                                 : 1 h 50 min
  327. Bit rate                                 : 32.6 kb/s
  328. Count of elements                        : 2608
  329. Stream size                              : 25.7 MiB (0%)
  330. Title                                    : Italian-PGS
  331. Language                                 : Italian
  332. Default                                  : No
  333. Forced                                   : No

  334. Text #18
  335. ID                                       : 22
  336. Format                                   : PGS
  337. Muxing mode                              : zlib
  338. Codec ID                                 : S_HDMV/PGS
  339. Codec ID/Info                            : Picture based subtitle format used on BDs/HD-DVDs
  340. Duration                                 : 1 h 50 min
  341. Bit rate                                 : 19.3 kb/s
  342. Count of elements                        : 2144
  343. Stream size                              : 15.2 MiB (0%)
  344. Title                                    : Japanese-PGS
  345. Language                                 : Japanese
  346. Default                                  : No
  347. Forced                                   : No

  348. Text #19
  349. ID                                       : 23
  350. Format                                   : PGS
  351. Muxing mode                              : zlib
  352. Codec ID                                 : S_HDMV/PGS
  353. Codec ID/Info                            : Picture based subtitle format used on BDs/HD-DVDs
  354. Duration                                 : 1 h 51 min
  355. Bit rate                                 : 22.0 kb/s
  356. Count of elements                        : 2492
  357. Stream size                              : 17.5 MiB (0%)
  358. Title                                    : Korean-PGS
  359. Language                                 : Korean
  360. Default                                  : No
  361. Forced                                   : No

  362. Text #20
  363. ID                                       : 24
  364. Format                                   : PGS
  365. Muxing mode                              : zlib
  366. Codec ID                                 : S_HDMV/PGS
  367. Codec ID/Info                            : Picture based subtitle format used on BDs/HD-DVDs
  368. Duration                                 : 1 h 50 min
  369. Bit rate                                 : 31.3 kb/s
  370. Count of elements                        : 2604
  371. Stream size                              : 24.7 MiB (0%)
  372. Title                                    : Norwegian-PGS
  373. Language                                 : Norwegian
  374. Default                                  : No
  375. Forced                                   : No

  376. Text #21
  377. ID                                       : 25
  378. Format                                   : PGS
  379. Muxing mode                              : zlib
  380. Codec ID                                 : S_HDMV/PGS
  381. Codec ID/Info                            : Picture based subtitle format used on BDs/HD-DVDs
  382. Duration                                 : 1 h 50 min
  383. Bit rate                                 : 33.6 kb/s
  384. Count of elements                        : 2596
  385. Stream size                              : 26.5 MiB (0%)
  386. Title                                    : Polish-PGS
  387. Language                                 : Polish
  388. Default                                  : No
  389. Forced                                   : No

  390. Text #22
  391. ID                                       : 26
  392. Format                                   : PGS
  393. Muxing mode                              : zlib
  394. Codec ID                                 : S_HDMV/PGS
  395. Codec ID/Info                            : Picture based subtitle format used on BDs/HD-DVDs
  396. Duration                                 : 1 h 50 min
  397. Bit rate                                 : 30.3 kb/s
  398. Count of elements                        : 2462
  399. Stream size                              : 24.0 MiB (0%)
  400. Title                                    : Portuguese-PGS
  401. Language                                 : Portuguese
  402. Default                                  : No
  403. Forced                                   : No

  404. Text #23
  405. ID                                       : 27
  406. Format                                   : PGS
  407. Muxing mode                              : zlib
  408. Codec ID                                 : S_HDMV/PGS
  409. Codec ID/Info                            : Picture based subtitle format used on BDs/HD-DVDs
  410. Duration                                 : 1 h 51 min
  411. Bit rate                                 : 33.6 kb/s
  412. Count of elements                        : 2604
  413. Stream size                              : 26.7 MiB (0%)
  414. Title                                    : Portuguese-PGS
  415. Language                                 : Portuguese
  416. Default                                  : No
  417. Forced                                   : No

  418. Text #24
  419. ID                                       : 28
  420. Format                                   : PGS
  421. Muxing mode                              : zlib
  422. Codec ID                                 : S_HDMV/PGS
  423. Codec ID/Info                            : Picture based subtitle format used on BDs/HD-DVDs
  424. Duration                                 : 1 h 51 min
  425. Bit rate                                 : 30.0 kb/s
  426. Count of elements                        : 2598
  427. Stream size                              : 23.8 MiB (0%)
  428. Title                                    : Romanian-PGS
  429. Language                                 : Romanian
  430. Default                                  : No
  431. Forced                                   : No

  432. Text #25
  433. ID                                       : 29
  434. Format                                   : PGS
  435. Muxing mode                              : zlib
  436. Codec ID                                 : S_HDMV/PGS
  437. Codec ID/Info                            : Picture based subtitle format used on BDs/HD-DVDs
  438. Duration                                 : 1 h 50 min
  439. Bit rate                                 : 30.0 kb/s
  440. Count of elements                        : 2596
  441. Stream size                              : 23.7 MiB (0%)
  442. Title                                    : Slovenian-PGS
  443. Language                                 : Slovenian
  444. Default                                  : No
  445. Forced                                   : No

  446. Text #26
  447. ID                                       : 30
  448. Format                                   : PGS
  449. Muxing mode                              : zlib
  450. Codec ID                                 : S_HDMV/PGS
  451. Codec ID/Info                            : Picture based subtitle format used on BDs/HD-DVDs
  452. Duration                                 : 1 h 50 min
  453. Bit rate                                 : 34.5 kb/s
  454. Count of elements                        : 2602
  455. Stream size                              : 27.2 MiB (0%)
  456. Title                                    : Spanish-PGS
  457. Language                                 : Spanish
  458. Default                                  : No
  459. Forced                                   : No

  460. Text #27
  461. ID                                       : 31
  462. Format                                   : PGS
  463. Muxing mode                              : zlib
  464. Codec ID                                 : S_HDMV/PGS
  465. Codec ID/Info                            : Picture based subtitle format used on BDs/HD-DVDs
  466. Duration                                 : 1 h 50 min
  467. Bit rate                                 : 26.2 kb/s
  468. Count of elements                        : 2207
  469. Stream size                              : 20.7 MiB (0%)
  470. Title                                    : Spanish-PGS
  471. Language                                 : Spanish
  472. Default                                  : No
  473. Forced                                   : No

  474. Text #28
  475. ID                                       : 32
  476. Format                                   : PGS
  477. Muxing mode                              : zlib
  478. Codec ID                                 : S_HDMV/PGS
  479. Codec ID/Info                            : Picture based subtitle format used on BDs/HD-DVDs
  480. Duration                                 : 1 h 50 min
  481. Bit rate                                 : 30.3 kb/s
  482. Count of elements                        : 2574
  483. Stream size                              : 23.9 MiB (0%)
  484. Title                                    : Swedish-PGS
  485. Language                                 : Swedish
  486. Default                                  : No
  487. Forced                                   : No

  488. Text #29
  489. ID                                       : 33
  490. Format                                   : PGS
  491. Muxing mode                              : zlib
  492. Codec ID                                 : S_HDMV/PGS
  493. Codec ID/Info                            : Picture based subtitle format used on BDs/HD-DVDs
  494. Duration                                 : 1 h 50 min
  495. Bit rate                                 : 24.7 kb/s
  496. Count of elements                        : 2478
  497. Stream size                              : 19.5 MiB (0%)
  498. Title                                    : Thai-PGS
  499. Language                                 : Thai
  500. Default                                  : No
  501. Forced                                   : No

  502. Text #30
  503. ID                                       : 34
  504. Format                                   : PGS
  505. Muxing mode                              : zlib
  506. Codec ID                                 : S_HDMV/PGS
  507. Codec ID/Info                            : Picture based subtitle format used on BDs/HD-DVDs
  508. Duration                                 : 1 h 50 min
  509. Bit rate                                 : 35.5 kb/s
  510. Count of elements                        : 2608
  511. Stream size                              : 28.0 MiB (0%)
  512. Title                                    : Turkish-PGS
  513. Language                                 : Turkish
  514. Default                                  : No
  515. Forced                                   : No

  516. Menu
  517. 00:00:00.000                             : en:Main Titles
  518. 00:04:13.545                             : en:Late for School
  519. 00:06:47.282                             : en:The Slacker
  520. 00:11:45.246                             : en:The Family McFly
  521. 00:18:04.166                             : en:A Time Machine?
  522. 00:28:12.274                             : en:Escape to the Past
  523. 00:31:30.680                             : en:1955
  524. 00:38:40.693                             : en:Dad the Dork
  525. 00:41:22.313                             : en:Calvin & Lorraine
  526. 00:47:53.370                             : en:Future Boy & Doc
  527. 00:55:53.141                             : en:Marty\'s Problem
  528. 00:58:49.860                             : en:The Matchmaker
  529. 01:05:16.788                             : en:Skateboard Hero
  530. 01:16:40.304                             : en:The Big Date
  531. 01:20:14.643                             : en:The Real George
  532. 01:27:23.321                             : en:Johnny B. Goode
  533. 01:31:12.050                             : en:Back to the Future
  534. 01:41:40.553                             : en:Doc\'s Decision
  535. 01:46:41.437                             : en:Future Shock
  536. 01:51:24.511                             : en:Roads? (Credits)
复制代码






















本帖隐藏的下载地址需要VIP会员才可阅读,您需要升级才可阅读,点击这里升级VIP
回复

使用道具 举报

懒得打字嘛,点击右侧快捷回复 【右侧内容,后台自定义】
您需要登录后才可以回帖 登录 | 立即注册

本版积分规则

Archiver|手机版|小黑屋| 中国高清网 ( ICP备17007870号-2 ) |网站地图 

GMT+8, 2020-10-25 21:19 , Processed in 0.249125 second(s), 39 queries .

Powered by HDchina X3.4

Copyright 2017-2019©HDchina.All right reserved

返回顶部 联系我们