查看: 291|回复: 1

[10bit.HDR] 大侦探福尔摩斯2:诡影游戏/大侦探福尔摩斯2:暗影游戏 Sherlock.Holmes.A.Game.of.Shadows.2011.2160p.UHD.BluRay.x265.10bit.HDR.DTS-HD.MA.5.1-B0MBARDiERS 32.90GB

[复制链接]

 成长值: 7735

级别:资源管理组

注册时间
2017-10-20
最后登录
2020-10-23
听众
1
收听
0
主题
104417
蓝光币
207772 枚
贡献
21715 点
发表于 2020-10-16 21:00:43 | 显示全部楼层 |阅读模式




译  名 大侦察福尔摩斯2:诡影游戏 / 大侦察福尔摩斯2:阴影游戏 / 神探福尔摩斯:诡影游戏(港) / 福尔摩斯2 / 福尔摩斯:诡影游戏(台)
片  名 Sherlock Holmes: A Game of Shadows
年  代 2011
产  地 美国
类  别 行动 / 悬疑 / 犯罪
语  言 英语
上映日期 2011-12-16(美国) / 2012-01-15(中国大陆)
IMDb评分  7.5/10 from 413023 users
IMDb链接  https://www.imdb.com/title/tt1515091
豆瓣评分 7.6/10 from 193354 users
豆瓣链接 https://movie.douban.com/subject/4051753/
片  长 129分钟
导  演 盖·里奇 Guy Ritchie
编  剧 阿瑟·柯南·道尔 Arthur Conan Doyle / 基兰·麦隆尼 Kieran Mulroney / 米歇尔·马尔罗尼 Michele Mulroney
主  演 小罗伯特·唐尼 Robert Downey Jr.
       裘德·洛 Jude Law
       瑞秋·麦克亚当斯 Rachel McAdams
       劳米·拉佩斯 Noomi Rapace
       斯蒂芬·弗雷 Stephen Fry
       凯利·蕾莉 Kelly Reilly (I)
       埃德·哈里斯 Jared Harris (I)
       杰拉丁妮·詹姆斯 Geraldine James
       William Houston
       保罗·安德森 Paul Anderson(I)


标  签 福尔摩斯 | 悬疑 | 美国 | 侦察 | RobertDowneyJr | JudeLaw | 犯罪 | 美国电影

简  介  

  奥天时皇储忽然自杀案件,让寂静6个月的福尔摩斯(小罗伯特·唐尼 Robert Downey Jr. 饰)再次启动。此次,福尔摩斯有了一个强有力的对手——智力上与福尔摩斯相当的莫里亚蒂教授(杰瑞德·哈里斯 Jared Harris 饰)。为了观察清楚皇储的自杀案件,福尔摩 斯与华生(裘德·洛 Jude Law 饰),在吉普赛占星师西姆(劳米·拉佩斯 Noomi Rapace 饰)的帮助下,和莫里亚蒂展开了在全部欧洲大陆上的较劲,从英国到法国、德国……虽然被称为最聪明的人,可是莫里亚蒂教授恍如能预知福尔摩斯的行迹,都能先一步福尔摩斯溜之大吉。莫里亚蒂教授灭亡名单上的人一个个被抹杀,历史能够就此被改编,面临如此强大的对手,福尔摩斯若何应对?

获奖情况  

  第14届美国青少年挑选奖(2012)
  最好行动片(提名)
  最好行动片男演员(提名) 小罗伯特·唐尼
  最好行动片女演员(提名) 劳米·拉佩斯

  1. Video
  2. ID                                       : 1
  3. Format                                   : HEVC
  4. Format/Info                              : High Efficiency Video Coding
  5. Format profile                           : Main 10@L5.1@High
  6. HDR format                               : SMPTE ST 2086, HDR10 compatible
  7. Codec ID                                 : V_MPEGH/ISO/HEVC
  8. Duration                                 : 2 h 8 min
  9. Bit rate                                 : 33.8 Mb/s
  10. Width                                    : 3 840 pixels
  11. Height                                   : 1 600 pixels
  12. Display aspect ratio                     : 2.40:1
  13. Frame rate mode                          : Constant
  14. Frame rate                               : 23.976 (24000/1001/45378) FPS
  15. Color space                              : YUV
  16. Chroma subsampling                       : 4:2:0 (Type 2)
  17. Bit depth                                : 10 bits
  18. Bits/(Pixel*Frame)                       : 0.230
  19. Stream size                              : 30.4 GiB (93%)
  20. Writing library                          : x265 3.4+26-ga82c6c7a7:[Windows][GCC 10.2.1][64 bit] 10bit
  21. Encoding settings                        : cpuid=1176575 / frame-threads=5 / numa-pools=36 / wpp / no-pmode / no-pme / no-psnr / no-ssim / log-level=2 / input-csp=1 / input-res=3840x1600 / interlace=0 / total-frames=185212 / level-idc=51 / high-tier=1 / uhd-bd=0 / ref=4 / no-allow-non-conformance / repeat-headers / annexb / aud / hrd / info / hash=0 / no-temporal-layers / open-gop / min-keyint=23 / keyint=250 / gop-lookahead=0 / bframes=4 / b-adapt=2 / b-pyramid / bframe-bias=0 / rc-lookahead=25 / lookahead-slices=4 / scenecut=40 / hist-scenecut=0 / radl=0 / no-splice / no-intra-refresh / ctu=64 / min-cu-size=8 / rect / no-amp / max-tu-size=32 / tu-inter-depth=1 / tu-intra-depth=1 / limit-tu=0 / rdoq-level=2 / dynamic-rd=0.00 / no-ssim-rd / signhide / no-tskip / nr-intra=0 / nr-inter=0 / no-constrained-intra / strong-intra-smoothing / max-merge=3 / limit-refs=3 / limit-modes / me=3 / subme=3 / merange=57 / temporal-mvp / no-frame-dup / no-hme / weightp / no-weightb / no-analyze-src-pics / deblock=-3:-3 / no-sao / no-sao-non-deblock / rd=4 / selective-sao=0 / no-early-skip / rskip / no-fast-intra / no-tskip-fast / no-cu-lossless / no-b-intra / no-splitrd-skip / rdpenalty=0 / psy-rd=2.00 / psy-rdoq=1.00 / no-rd-refine / no-lossless / cbqpoffs=0 / crqpoffs=0 / rc=crf / crf=14.5 / qcomp=0.60 / qpstep=4 / stats-write=0 / stats-read=0 / vbv-maxrate=160000 / vbv-bufsize=160000 / vbv-init=0.9 / min-vbv-fullness=50.0 / max-vbv-fullness=80.0 / crf-max=0.0 / crf-min=0.0 / ipratio=1.40 / pbratio=1.30 / aq-mode=2 / aq-strength=1.00 / cutree / zone-count=0 / no-strict-cbr / qg-size=32 / no-rc-grain / qpmax=69 / qpmin=0 / no-const-vbv / sar=1 / overscan=0 / videoformat=5 / range=0 / colorprim=9 / transfer=16 / colormatrix=9 / chromaloc=1 / chromaloc-top=2 / chromaloc-bottom=2 / display-window=0 / master-display=G(13250,34500)B(7500,3000)R(34000,16000)WP(15635,16450)L(40000000,50) / cll=343,106 / min-luma=0 / max-luma=1023 / log2-max-poc-lsb=8 / vui-timing-info / vui-hrd-info / slices=1 / no-opt-qp-pps / no-opt-ref-list-length-pps / no-multi-pass-opt-rps / scenecut-bias=0.05 / hist-threshold=0.03 / no-opt-cu-delta-qp / no-aq-motion / hdr10 / hdr10-opt / no-dhdr10-opt / no-idr-recovery-sei / analysis-reuse-level=0 / analysis-save-reuse-level=0 / analysis-load-reuse-level=0 / scale-factor=0 / refine-intra=0 / refine-inter=0 / refine-mv=1 / refine-ctu-distortion=0 / no-limit-sao / ctu-info=0 / no-lowpass-dct / refine-analysis-type=0 / copy-pic=1 / max-ausize-factor=1.0 / no-dynamic-refine / no-single-sei / no-hevc-aq / no-svt / no-field / qp-adaptation-range=1.00 / no-scenecut-aware-qpconformance-window-offsets / right=0 / bottom=0 / decoder-max-rate=0 / no-vbv-live-multi-pass
  22. Default                                  : Yes
  23. Forced                                   : No
  24. Color range                              : Limited
  25. Color primaries                          : BT.2020
  26. Transfer characteristics                 : PQ
  27. Matrix coefficients                      : BT.2020 non-constant
  28. Mastering display color primaries        : Display P3
  29. Mastering display luminance              : min: 0.0050 cd/m2, max: 4000 cd/m2
  30. Maximum Content Light Level              : 343 cd/m2
  31. Maximum Frame-Average Light Level        : 106 cd/m2

  32. Audio
  33. ID                                       : 2
  34. Format                                   : DTS XLL
  35. Format/Info                              : Digital Theater Systems
  36. Commercial name                          : DTS-HD Master Audio
  37. Codec ID                                 : A_DTS
  38. Duration                                 : 2 h 8 min
  39. Bit rate mode                            : Variable
  40. Bit rate                                 : 2 321 kb/s
  41. Channel(s)                               : 6 channels
  42. Channel layout                           : C L R Ls Rs LFE
  43. Sampling rate                            : 48.0 kHz
  44. Frame rate                               : 93.750 FPS (512 SPF)
  45. Bit depth                                : 16 bits
  46. Compression mode                         : Lossless
  47. Stream size                              : 2.09 GiB (6%)
  48. Language                                 : English
  49. Default                                  : Yes
  50. Forced                                   : No

  51. Text #1
  52. ID                                       : 3
  53. Format                                   : PGS
  54. Muxing mode                              : zlib
  55. Codec ID                                 : S_HDMV/PGS
  56. Codec ID/Info                            : Picture based subtitle format used on BDs/HD-DVDs
  57. Duration                                 : 2 h 0 min
  58. Bit rate                                 : 19.2 kb/s
  59. Count of elements                        : 2500
  60. Stream size                              : 16.5 MiB (0%)
  61. Title                                    : Japanese
  62. Language                                 : Japanese
  63. Default                                  : No
  64. Forced                                   : No

  65. Text #2
  66. ID                                       : 4
  67. Format                                   : PGS
  68. Muxing mode                              : zlib
  69. Codec ID                                 : S_HDMV/PGS
  70. Codec ID/Info                            : Picture based subtitle format used on BDs/HD-DVDs
  71. Duration                                 : 1 h 59 min
  72. Bit rate                                 : 30.7 kb/s
  73. Count of elements                        : 2900
  74. Stream size                              : 26.3 MiB (0%)
  75. Title                                    : English SDH
  76. Language                                 : English
  77. Default                                  : No
  78. Forced                                   : No

  79. Text #3
  80. ID                                       : 5
  81. Format                                   : PGS
  82. Muxing mode                              : zlib
  83. Codec ID                                 : S_HDMV/PGS
  84. Codec ID/Info                            : Picture based subtitle format used on BDs/HD-DVDs
  85. Duration                                 : 1 h 49 min
  86. Bit rate                                 : 580 b/s
  87. Count of elements                        : 128
  88. Stream size                              : 464 KiB (0%)
  89. Title                                    : Japanese
  90. Language                                 : Japanese
  91. Default                                  : No
  92. Forced                                   : No

  93. Text #4
  94. ID                                       : 6
  95. Format                                   : PGS
  96. Muxing mode                              : zlib
  97. Codec ID                                 : S_HDMV/PGS
  98. Codec ID/Info                            : Picture based subtitle format used on BDs/HD-DVDs
  99. Duration                                 : 2 h 8 min
  100. Bit rate                                 : 23.6 kb/s
  101. Count of elements                        : 2342
  102. Stream size                              : 21.7 MiB (0%)
  103. Title                                    : French
  104. Language                                 : French
  105. Default                                  : No
  106. Forced                                   : No

  107. Text #5
  108. ID                                       : 7
  109. Format                                   : PGS
  110. Muxing mode                              : zlib
  111. Codec ID                                 : S_HDMV/PGS
  112. Codec ID/Info                            : Picture based subtitle format used on BDs/HD-DVDs
  113. Duration                                 : 1 h 59 min
  114. Bit rate                                 : 36.5 kb/s
  115. Count of elements                        : 2996
  116. Stream size                              : 31.3 MiB (0%)
  117. Title                                    : German
  118. Language                                 : German
  119. Default                                  : No
  120. Forced                                   : No

  121. Text #6
  122. ID                                       : 8
  123. Format                                   : PGS
  124. Muxing mode                              : zlib
  125. Codec ID                                 : S_HDMV/PGS
  126. Codec ID/Info                            : Picture based subtitle format used on BDs/HD-DVDs
  127. Duration                                 : 2 h 8 min
  128. Bit rate                                 : 23.2 kb/s
  129. Count of elements                        : 2502
  130. Stream size                              : 21.2 MiB (0%)
  131. Title                                    : Spanish
  132. Language                                 : Spanish
  133. Default                                  : No
  134. Forced                                   : No

  135. Text #7
  136. ID                                       : 9
  137. Format                                   : PGS
  138. Muxing mode                              : zlib
  139. Codec ID                                 : S_HDMV/PGS
  140. Codec ID/Info                            : Picture based subtitle format used on BDs/HD-DVDs
  141. Duration                                 : 2 h 8 min
  142. Bit rate                                 : 21.5 kb/s
  143. Count of elements                        : 2090
  144. Stream size                              : 19.7 MiB (0%)
  145. Title                                    : Dutch
  146. Language                                 : Dutch
  147. Default                                  : No
  148. Forced                                   : No

  149. Text #8
  150. ID                                       : 10
  151. Format                                   : PGS
  152. Muxing mode                              : zlib
  153. Codec ID                                 : S_HDMV/PGS
  154. Codec ID/Info                            : Picture based subtitle format used on BDs/HD-DVDs
  155. Duration                                 : 2 h 8 min
  156. Bit rate                                 : 20.6 kb/s
  157. Count of elements                        : 2436
  158. Stream size                              : 18.9 MiB (0%)
  159. Title                                    : Chinese
  160. Language                                 : Chinese
  161. Default                                  : No
  162. Forced                                   : No

  163. Text #9
  164. ID                                       : 11
  165. Format                                   : PGS
  166. Muxing mode                              : zlib
  167. Codec ID                                 : S_HDMV/PGS
  168. Codec ID/Info                            : Picture based subtitle format used on BDs/HD-DVDs
  169. Duration                                 : 2 h 8 min
  170. Bit rate                                 : 22.7 kb/s
  171. Count of elements                        : 2406
  172. Stream size                              : 20.8 MiB (0%)
  173. Title                                    : Chinese
  174. Language                                 : Chinese
  175. Default                                  : No
  176. Forced                                   : No

  177. Text #10
  178. ID                                       : 12
  179. Format                                   : PGS
  180. Muxing mode                              : zlib
  181. Codec ID                                 : S_HDMV/PGS
  182. Codec ID/Info                            : Picture based subtitle format used on BDs/HD-DVDs
  183. Duration                                 : 2 h 8 min
  184. Bit rate                                 : 20.1 kb/s
  185. Count of elements                        : 2408
  186. Stream size                              : 18.4 MiB (0%)
  187. Title                                    : Chinese
  188. Language                                 : Chinese
  189. Default                                  : No
  190. Forced                                   : No

  191. Text #11
  192. ID                                       : 13
  193. Format                                   : PGS
  194. Muxing mode                              : zlib
  195. Codec ID                                 : S_HDMV/PGS
  196. Codec ID/Info                            : Picture based subtitle format used on BDs/HD-DVDs
  197. Duration                                 : 1 h 59 min
  198. Bit rate                                 : 16.2 kb/s
  199. Count of elements                        : 2384
  200. Stream size                              : 13.9 MiB (0%)
  201. Title                                    : Korean
  202. Language                                 : Korean
  203. Default                                  : No
  204. Forced                                   : No

  205. Text #12
  206. ID                                       : 14
  207. Format                                   : PGS
  208. Muxing mode                              : zlib
  209. Codec ID                                 : S_HDMV/PGS
  210. Codec ID/Info                            : Picture based subtitle format used on BDs/HD-DVDs
  211. Duration                                 : 2 h 8 min
  212. Bit rate                                 : 25.2 kb/s
  213. Count of elements                        : 2558
  214. Stream size                              : 23.1 MiB (0%)
  215. Title                                    : Spanish
  216. Language                                 : Spanish
  217. Default                                  : No
  218. Forced                                   : No

  219. Text #13
  220. ID                                       : 15
  221. Format                                   : PGS
  222. Muxing mode                              : zlib
  223. Codec ID                                 : S_HDMV/PGS
  224. Codec ID/Info                            : Picture based subtitle format used on BDs/HD-DVDs
  225. Duration                                 : 2 h 0 min
  226. Bit rate                                 : 13.1 kb/s
  227. Count of elements                        : 2684
  228. Stream size                              : 11.2 MiB (0%)
  229. Title                                    : Arabic
  230. Language                                 : Arabic
  231. Default                                  : No
  232. Forced                                   : No

  233. Text #14
  234. ID                                       : 16
  235. Format                                   : PGS
  236. Muxing mode                              : zlib
  237. Codec ID                                 : S_HDMV/PGS
  238. Codec ID/Info                            : Picture based subtitle format used on BDs/HD-DVDs
  239. Duration                                 : 2 h 8 min
  240. Bit rate                                 : 21.7 kb/s
  241. Count of elements                        : 2390
  242. Stream size                              : 19.9 MiB (0%)
  243. Title                                    : Czech
  244. Language                                 : Czech
  245. Default                                  : No
  246. Forced                                   : No

  247. Text #15
  248. ID                                       : 17
  249. Format                                   : PGS
  250. Muxing mode                              : zlib
  251. Codec ID                                 : S_HDMV/PGS
  252. Codec ID/Info                            : Picture based subtitle format used on BDs/HD-DVDs
  253. Duration                                 : 2 h 8 min
  254. Bit rate                                 : 22.9 kb/s
  255. Count of elements                        : 1922
  256. Stream size                              : 21.0 MiB (0%)
  257. Title                                    : Danish
  258. Language                                 : Danish
  259. Default                                  : No
  260. Forced                                   : No

  261. Text #16
  262. ID                                       : 18
  263. Format                                   : PGS
  264. Muxing mode                              : zlib
  265. Codec ID                                 : S_HDMV/PGS
  266. Codec ID/Info                            : Picture based subtitle format used on BDs/HD-DVDs
  267. Duration                                 : 2 h 8 min
  268. Bit rate                                 : 20.7 kb/s
  269. Count of elements                        : 2048
  270. Stream size                              : 18.9 MiB (0%)
  271. Title                                    : Finnish
  272. Language                                 : Finnish
  273. Default                                  : No
  274. Forced                                   : No

  275. Text #17
  276. ID                                       : 19
  277. Format                                   : PGS
  278. Muxing mode                              : zlib
  279. Codec ID                                 : S_HDMV/PGS
  280. Codec ID/Info                            : Picture based subtitle format used on BDs/HD-DVDs
  281. Duration                                 : 2 h 8 min
  282. Bit rate                                 : 21.8 kb/s
  283. Count of elements                        : 2246
  284. Stream size                              : 20.0 MiB (0%)
  285. Title                                    : Hungarian
  286. Language                                 : Hungarian
  287. Default                                  : No
  288. Forced                                   : No

  289. Text #18
  290. ID                                       : 20
  291. Format                                   : PGS
  292. Muxing mode                              : zlib
  293. Codec ID                                 : S_HDMV/PGS
  294. Codec ID/Info                            : Picture based subtitle format used on BDs/HD-DVDs
  295. Duration                                 : 2 h 8 min
  296. Bit rate                                 : 22.0 kb/s
  297. Count of elements                        : 1938
  298. Stream size                              : 20.1 MiB (0%)
  299. Title                                    : Norwegian
  300. Language                                 : Norwegian
  301. Default                                  : No
  302. Forced                                   : No

  303. Text #19
  304. ID                                       : 21
  305. Format                                   : PGS
  306. Muxing mode                              : zlib
  307. Codec ID                                 : S_HDMV/PGS
  308. Codec ID/Info                            : Picture based subtitle format used on BDs/HD-DVDs
  309. Duration                                 : 2 h 8 min
  310. Bit rate                                 : 20.3 kb/s
  311. Count of elements                        : 2340
  312. Stream size                              : 18.6 MiB (0%)
  313. Title                                    : Polish
  314. Language                                 : Polish
  315. Default                                  : No
  316. Forced                                   : No

  317. Text #20
  318. ID                                       : 22
  319. Format                                   : PGS
  320. Muxing mode                              : zlib
  321. Codec ID                                 : S_HDMV/PGS
  322. Codec ID/Info                            : Picture based subtitle format used on BDs/HD-DVDs
  323. Duration                                 : 2 h 8 min
  324. Bit rate                                 : 23.0 kb/s
  325. Count of elements                        : 2364
  326. Stream size                              : 21.1 MiB (0%)
  327. Title                                    : Romanian
  328. Language                                 : Romanian
  329. Default                                  : No
  330. Forced                                   : No

  331. Text #21
  332. ID                                       : 23
  333. Format                                   : PGS
  334. Muxing mode                              : zlib
  335. Codec ID                                 : S_HDMV/PGS
  336. Codec ID/Info                            : Picture based subtitle format used on BDs/HD-DVDs
  337. Duration                                 : 2 h 8 min
  338. Bit rate                                 : 22.3 kb/s
  339. Count of elements                        : 2004
  340. Stream size                              : 20.5 MiB (0%)
  341. Title                                    : Swedish
  342. Language                                 : Swedish
  343. Default                                  : No
  344. Forced                                   : No

  345. Text #22
  346. ID                                       : 24
  347. Format                                   : PGS
  348. Muxing mode                              : zlib
  349. Codec ID                                 : S_HDMV/PGS
  350. Codec ID/Info                            : Picture based subtitle format used on BDs/HD-DVDs
  351. Duration                                 : 2 h 8 min
  352. Bit rate                                 : 22.4 kb/s
  353. Count of elements                        : 2402
  354. Stream size                              : 20.6 MiB (0%)
  355. Title                                    : Thai
  356. Language                                 : Thai
  357. Default                                  : No
  358. Forced                                   : No

  359. Text #23
  360. ID                                       : 25
  361. Format                                   : PGS
  362. Muxing mode                              : zlib
  363. Codec ID                                 : S_HDMV/PGS
  364. Codec ID/Info                            : Picture based subtitle format used on BDs/HD-DVDs
  365. Duration                                 : 1 h 44 min
  366. Bit rate                                 : 227 b/s
  367. Count of elements                        : 32
  368. Stream size                              : 174 KiB (0%)
  369. Title                                    : French
  370. Language                                 : French
  371. Default                                  : No
  372. Forced                                   : No

  373. Text #24
  374. ID                                       : 26
  375. Format                                   : PGS
  376. Muxing mode                              : zlib
  377. Codec ID                                 : S_HDMV/PGS
  378. Codec ID/Info                            : Picture based subtitle format used on BDs/HD-DVDs
  379. Duration                                 : 1 h 44 min
  380. Bit rate                                 : 151 b/s
  381. Count of elements                        : 22
  382. Stream size                              : 116 KiB (0%)
  383. Title                                    : French
  384. Language                                 : French
  385. Default                                  : No
  386. Forced                                   : No

  387. Text #25
  388. ID                                       : 27
  389. Format                                   : PGS
  390. Muxing mode                              : zlib
  391. Codec ID                                 : S_HDMV/PGS
  392. Codec ID/Info                            : Picture based subtitle format used on BDs/HD-DVDs
  393. Duration                                 : 1 h 21 min
  394. Bit rate                                 : 468 b/s
  395. Count of elements                        : 32
  396. Stream size                              : 281 KiB (0%)
  397. Title                                    : German
  398. Language                                 : German
  399. Default                                  : No
  400. Forced                                   : No

  401. Text #26
  402. ID                                       : 28
  403. Format                                   : PGS
  404. Muxing mode                              : zlib
  405. Codec ID                                 : S_HDMV/PGS
  406. Codec ID/Info                            : Picture based subtitle format used on BDs/HD-DVDs
  407. Duration                                 : 1 h 34 min
  408. Bit rate                                 : 444 b/s
  409. Count of elements                        : 46
  410. Stream size                              : 308 KiB (0%)
  411. Title                                    : Spanish
  412. Language                                 : Spanish
  413. Default                                  : No
  414. Forced                                   : No

  415. Text #27
  416. ID                                       : 29
  417. Format                                   : PGS
  418. Muxing mode                              : zlib
  419. Codec ID                                 : S_HDMV/PGS
  420. Codec ID/Info                            : Picture based subtitle format used on BDs/HD-DVDs
  421. Duration                                 : 1 h 44 min
  422. Bit rate                                 : 786 b/s
  423. Count of elements                        : 68
  424. Stream size                              : 603 KiB (0%)
  425. Title                                    : Spanish
  426. Language                                 : Spanish
  427. Default                                  : No
  428. Forced                                   : No

  429. Text #28
  430. ID                                       : 30
  431. Format                                   : PGS
  432. Muxing mode                              : zlib
  433. Codec ID                                 : S_HDMV/PGS
  434. Codec ID/Info                            : Picture based subtitle format used on BDs/HD-DVDs
  435. Duration                                 : 1 h 34 min
  436. Bit rate                                 : 738 b/s
  437. Count of elements                        : 66
  438. Stream size                              : 509 KiB (0%)
  439. Title                                    : Czech
  440. Language                                 : Czech
  441. Default                                  : No
  442. Forced                                   : No

  443. Text #29
  444. ID                                       : 31
  445. Format                                   : PGS
  446. Muxing mode                              : zlib
  447. Codec ID                                 : S_HDMV/PGS
  448. Codec ID/Info                            : Picture based subtitle format used on BDs/HD-DVDs
  449. Duration                                 : 1 h 32 min
  450. Bit rate                                 : 497 b/s
  451. Count of elements                        : 48
  452. Stream size                              : 338 KiB (0%)
  453. Title                                    : Hungarian
  454. Language                                 : Hungarian
  455. Default                                  : No
  456. Forced                                   : No

  457. Menu
  458. 00:00:00.000                             : en:Chapter 01
  459. 00:09:17.891                             : en:Chapter 02
  460. 00:19:37.259                             : en:Chapter 03
  461. 00:30:46.470                             : en:Chapter 04
  462. 00:40:13.328                             : en:Chapter 05
  463. 00:50:28.651                             : en:Chapter 06
  464. 00:59:45.081                             : en:Chapter 07
  465. 01:09:20.448                             : en:Chapter 08
  466. 01:18:57.900                             : en:Chapter 09
  467. 01:30:08.320                             : en:Chapter 10
  468. 01:39:08.359                             : en:Chapter 11
  469. 01:49:50.000                             : en:Chapter 12
  470. 02:00:24.342                             : en:Chapter 13
复制代码













本帖隐藏的下载地址需要VIP会员才可阅读,您需要升级才可阅读,点击这里升级VIP
回复

使用道具 举报

级别:初级观众 Lv.1

注册时间
2020-8-24
最后登录
2020-10-25
听众
3
收听
0
主题
0
蓝光币
0 枚
贡献
0 点
发表于 2 小时前 | 显示全部楼层

楼主太厉害了!楼主,电影应该很好看我觉得中国高清电影网真是个好地方!
回复

使用道具 举报

懒得打字嘛,点击右侧快捷回复 【右侧内容,后台自定义】
您需要登录后才可以回帖 登录 | 立即注册

本版积分规则

Archiver|手机版|小黑屋| 中国高清网 ( ICP备17007870号-2 ) |网站地图 

GMT+8, 2020-10-25 21:06 , Processed in 0.235754 second(s), 39 queries .

Powered by HDchina X3.4

Copyright 2017-2019©HDchina.All right reserved

返回顶部 联系我们