查看: 71|回复: 3

[其他] 这就是感动我们的东西 What.Moves.Me.1989.720p.BluRay.x264-BiPOLAR 747.15MB

[复制链接]

 成长值: 7660

级别:资源管理组

注册时间
2017-10-20
最后登录
2020-10-17
听众
1
收听
0
主题
104263
蓝光币
206408 枚
贡献
21715 点
发表于 4 天前 | 显示全部楼层 |阅读模式
; N/ u& M; m* J9 r. T
. ]5 d, ?2 M" ^
8 U( S) u2 l+ `! p+ o$ j( C+ E* n

' S4 U. u9 b- i/ H译  名 这就是感动我们的工具
% [" z" b( J1 o/ ]4 _/ z; O" Z片  名 ce qui me meut
6 [0 \# K6 G" b. N8 ]  w年  代 19892 x' {( K0 V0 m' R& o
产  地 法国/ F# }5 F% v  n
类  别 短片. j/ G! [" l7 Y  R  p; y
语  言 法语! G' _: I' O5 N: M
上映日期 1989# M2 ~' P: b# _, {) @5 A1 N
IMDb评分  6.3/10 from 46 users
1 A5 T* z! k; X3 U  v- |& s, ~+ gIMDb链接  https://www.imdb.com/title/tt0276847
5 d7 F: l1 k9 f1 a豆瓣评分 7.8/10 from 48 users
: h2 ~' U. V1 ]2 p豆瓣链接 https://movie.douban.com/subject/1950666/, c' r/ ^) o4 K% a/ i* B* k
片  长 24分钟& \& d- [) K, n% m
导  演 塞德里克·克拉皮斯 Cédric Klapisch
  [4 e3 p- ~! J. M4 v) p: E$ r/ C, \3 ?* I
标  签 短片 | 法国 | Cédric_Klapisch | 1989 | 法国电影 | 法國 | 搞笑 | Short
, u* h/ o; V4 Z- k
* n: A1 r1 Z8 E7 ?简  介  / M, G7 p5 _0 V/ |2 B! {
* `- W5 s$ v! u
  1930年,埃蒂尼 朱尔斯麦利100周年诞辰仪式上科学界展现的以为是天下第一部的真人电影
* `, q+ F' i! P: p) @3 C
1 M/ I" O. v* M7 G1 F3 V8 o; z
  1. Video  G7 b6 a  d, N: d. J& g
  2. ID                                       : 1
    2 }5 z( L' e5 K: `
  3. Format                                   : AVC
    ! {7 h# M! E0 G9 o6 G, F
  4. Format/Info                              : Advanced Video Codec
    & d0 F% |. F2 P) r( `" a: b$ g4 N
  5. Format profile                           : High@L4.1
    5 h: U$ v% [3 _9 q9 o7 T
  6. Format settings                          : CABAC / 12 Ref Frames  a" M0 k/ f7 r
  7. Format settings, CABAC                   : Yes
    ; M5 f0 b) |5 j" j0 [
  8. Format settings, Reference frames        : 12 frames7 T  A+ M/ I0 X$ C
  9. Codec ID                                 : V_MPEG4/ISO/AVC
    + n9 z! |9 L/ a4 v( W
  10. Duration                                 : 22 min 14 s9 q0 Q7 p: g* }# F
  11. Bit rate                                 : 4 127 kb/s& ]) E& z* R5 S; }+ h
  12. Width                                    : 920 pixels. O# f, P  y" M9 _6 k1 b7 [" E
  13. Height                                   : 720 pixels
      ]- t! n8 {: _4 X* z3 c
  14. Display aspect ratio                     : 1.278& r) p' ^: r6 g2 k7 @
  15. Frame rate mode                          : Constant) L" M* ~5 q( [; f$ T  u
  16. Frame rate                               : 23.976 (24000/1001/45378) FPS
    5 a  j8 ~" F% L% u: R0 j% `& c
  17. Color space                              : YUV
    , |$ Y# @* k2 S4 b
  18. Chroma subsampling                       : 4:2:0
    3 |6 ?1 i! _! P1 j& _2 y  T
  19. Bit depth                                : 8 bits- J& B, @* O( b5 L; Z+ ^
  20. Scan type                                : Progressive
    2 i2 i3 f+ X* ~& `1 P1 i
  21. Bits/(Pixel*Frame)                       : 0.260
    9 B+ F& J. c' x
  22. Stream size                              : 657 MiB (88%)$ G2 P$ h  W6 B" B* i
  23. Writing library                          : x264 core 161 r3018 db0d4179 y( D8 I0 i% Y# l
  24. Encoding settings                        : cabac=1 / ref=12 / deblock=1:-3:-3 / analyse=0x3:0x133 / me=umh / subme=10 / psy=1 / psy_rd=1.00:0.15 / mixed_ref=1 / me_range=24 / chroma_me=1 / trellis=2 / 8x8dct=1 / cqm=0 / deadzone=21,11 / fast_pskip=1 / chroma_qp_offset=-3 / threads=18 / lookahead_threads=3 / sliced_threads=0 / nr=0 / decimate=1 / interlaced=0 / bluray_compat=0 / constrained_intra=0 / bframes=8 / b_pyramid=2 / b_adapt=2 / b_bias=0 / direct=3 / weightb=1 / open_gop=0 / weightp=2 / keyint=250 / keyint_min=23 / scenecut=40 / intra_refresh=0 / rc_lookahead=60 / rc=crf / mbtree=1 / crf=17.0 / qcomp=0.60 / qpmin=0 / qpmax=69 / qpstep=4 / ip_ratio=1.40 / aq=3:0.50
    . g( d  v4 T3 G" [( f. x6 U
  25. Language                                 : English
    7 P4 T" m2 A2 f
  26. Default                                  : Yes
    # ^0 H/ ?7 V7 t0 L& z. p
  27. Forced                                   : No
    9 [- U- v1 u$ ?0 t6 M) S
  28. Color range                              : Limited% y5 {1 q* Z) L! k* d" B
  29. Matrix coefficients                      : BT.709
    ! {" p/ \# H$ m! K
  30. Audio
    3 b5 g% L( J( e2 x; s( [
  31. ID                                       : 25 P! R! X8 h: U- s; t
  32. Format                                   : FLAC
    1 v: g$ I- c1 p8 `( \" T* B
  33. Format/Info                              : Free Lossless Audio Codec
    ) y; T7 H6 j: L! g$ c
  34. Codec ID                                 : A_FLAC
    - T9 a8 F/ {3 f' o9 t1 P
  35. Duration                                 : 22 min 14 s
    4 L- u  g; P" Y4 Y: I4 g
  36. Bit rate mode                            : Variable
    2 ~  o1 e# x7 d$ H8 Y) @
  37. Bit rate                                 : 558 kb/s
    9 R$ r" i0 _0 C
  38. Channel(s)                               : 2 channels
    1 Z( L8 f% G9 R0 u" ?5 t
  39. Channel layout                           : L R6 b/ s) L1 B4 \
  40. Sampling rate                            : 48.0 kHz% N6 ^+ D0 C# k3 C! O$ V  B3 P' U
  41. Frame rate                               : 11.719 FPS (4096 SPF)9 I& P, ]' ]# I1 I* h2 X, ~
  42. Bit depth                                : 16 bits- P& m  F5 f( [
  43. Compression mode                         : Lossless$ N) E  k" W8 F7 p
  44. Stream size                              : 88.8 MiB (12%)
    " U& s( t2 Q/ g0 |3 |$ }5 |4 E
  45. Writing library                          : libFLAC 1.2.1 (UTC 2007-09-17)! h7 z: z9 s  ^9 m; ?# J% m! O
  46. Language                                 : French
    - m! P! S8 Z  Y+ @
  47. Default                                  : Yes
    9 I5 {. N/ v$ Y5 X6 p$ e
  48. Forced                                   : No  C" N$ r& g1 Q0 ?2 d/ f8 ]3 T
  49. Text #12 }/ b* p/ e. O0 o% d; j& y/ t
  50. ID                                       : 3; c  A- J  m' W! l3 u/ v
  51. Format                                   : UTF-81 W3 I& S' l1 J3 D1 @9 Y
  52. Codec ID                                 : S_TEXT/UTF8
    0 C! X% a9 j  G+ o8 |1 {1 X& \0 A* C
  53. Codec ID/Info                            : UTF-8 Plain Text
    ; F; u5 v( g8 n( B) I
  54. Duration                                 : 20 min 29 s$ ]# L4 p) i- m% l
  55. Bit rate                                 : 54 b/s3 L! U. R3 L' G; ~$ {/ f
  56. Count of elements                        : 209
    $ ?$ l9 H6 i! v1 A3 |' j! J
  57. Stream size                              : 8.12 KiB (0%)* ?. R2 R5 {; p9 m# a) ]: o/ L
  58. Title                                    : English
    3 Y9 x  L. P. R  K% i% Y$ z
  59. Language                                 : English
    2 @% k3 D% }1 @* o8 u' J' h9 O
  60. Default                                  : Yes- ^# _5 r$ \; _1 L% b: W
  61. Forced                                   : Yes  v9 k7 J. E6 P6 Y3 U0 b/ C1 a( l
  62. Text #2
    0 f* w7 v  d, M
  63. ID                                       : 4; x6 y+ G& |2 _/ P( W  M
  64. Format                                   : PGS
    " R, S# q1 G: _9 p+ X3 }$ L7 h* ]
  65. Muxing mode                              : zlib$ \0 s) }& A# ~) G  @
  66. Codec ID                                 : S_HDMV/PGS
    ( L# b' h0 l$ }/ p- N+ A
  67. Codec ID/Info                            : Picture based subtitle format used on BDs/HD-DVDs
    6 k/ X. a5 \  e
  68. Duration                                 : 20 min 29 s  l* m8 |4 J2 N7 Y. `, v5 Z
  69. Bit rate                                 : 8 618 b/s
    ' I8 q  P: a" g& t" V. T) r, d4 Y
  70. Count of elements                        : 4188 r, t7 P1 r8 A, x
  71. Stream size                              : 1.26 MiB (0%)
    ! e% X2 j4 e" Y0 b, [
  72. Title                                    : English) y( [' L) T( N  t& r% Z
  73. Language                                 : English
    6 h% ]. G9 w$ A0 W* q& j
  74. Default                                  : No
    & Y2 p. S9 b6 E+ @# L- B
  75. Forced                                   : No
复制代码

2 F- j6 |' J  u' ^9 `, ]& {7 W5 M% ?
4 o1 ^' `5 ?7 ?" h+ h: x7 L. @7 f

% P0 n0 O* s$ n9 f
" B, v) s9 y: e& C% F
* o0 n6 V) N- n
: n6 z4 Y; q) W( E+ V# h  A( h
回复

使用道具 举报

级别:群众演员 Lv.3

注册时间
2019-8-7
最后登录
2020-10-20
听众
5
收听
0
主题
0
蓝光币
231 枚
贡献
0 点
发表于 3 天前 | 显示全部楼层

; q( _! T% w  W这个帖子不回对不起自己!我想我是一天也不能离开中国高清电影网
回复

使用道具 举报

级别:初级观众 Lv.1

注册时间
2020-10-17
最后登录
2020-10-17
听众
1
收听
0
主题
0
蓝光币
1 枚
贡献
0 点
发表于 3 天前 | 显示全部楼层
谢谢分享好资源
回复

使用道具 举报

级别:普通观众 Lv.2

注册时间
2019-10-17
最后登录
2020-10-19
听众
5
收听
0
主题
0
蓝光币
89 枚
贡献
0 点
发表于 前天 11:18 | 显示全部楼层
啧啧,这截图亮了
回复

使用道具 举报

懒得打字嘛,点击右侧快捷回复 【右侧内容,后台自定义】
您需要登录后才可以回帖 登录 | 立即注册

本版积分规则

Archiver|手机版|小黑屋| 中国高清网 ( ICP备17007870号-2 ) |网站地图 

GMT+8, 2020-10-20 10:45 , Processed in 0.152585 second(s), 38 queries .

Powered by HDchina X3.4

Copyright 2017-2019©HDchina.All right reserved

返回顶部 联系我们