查看: 176|回复: 4

[动作片] 精灵宝可梦:超梦的逆袭·进化 Pokemon.Mewtwo.Strikes.Back.Evolution.2019.1080p.BluRay.x264-iFPD 7.34GB

[复制链接]

 成长值: 7735

级别:资源管理组

注册时间
2017-10-20
最后登录
2020-10-23
听众
1
收听
0
主题
104417
蓝光币
207790 枚
贡献
21715 点
发表于 2020-10-16 20:59:07 | 显示全部楼层 |阅读模式




译  名 精灵宝可梦:超梦的逆袭·进化 / Pokémon: Mewtwo Strikes Back - Evolution / ミュウツーの逆襲 EVOLUTION
片  名 劇場版 ポケットモンスター ミュウツーの逆襲 EVOLUTION
年  代 2019
产  地 日本
类  别 行动 / 动画 / 家庭
语  言 日语
上映日期 2019-07-12(日本)
IMDb评分  5.7/10 from 4039 users
IMDb链接  https://www.imdb.com/title/tt8856470
豆瓣评分 6.9/10 from 2363 users
豆瓣链接 https://movie.douban.com/subject/30272753/
片  长 98分钟
导  演 矢岛哲生 Tetsuo Yajima / 汤山邦彦 Kunihiko Yuyama
编  剧 首藤刚志 Takeshi Shudo / 田尻智 Satoshi Tajiri
主  演 松本梨香 Rica Matsumoto
       大谷育江 Ikue Ootani
       市村正亲 Masachika Ichimura
       饭冢雅弓 Mayumi Iizuka
       兴梠里美 Satomi Koorogi
       上田祐司 Y?ji Ueda
       林原惠美 Megumi Hayashibara
       三木真一郎 Shinichir? Miki
       犬山犬子 Inuko Inuyama
       爱河里花子 Rikako Aikawa
       高木涉 Wataru Takagi
       山寺宏一 K?ichi Yamadera
       石冢运升 Unsh? Ishizuka
       张琦 Qi Zhang


标  签 精灵宝可梦 | 动画 | 日本 | 戏院版 | 宠物小精灵 | 2019 | Pokemon | 日本动画

简  介  

  《精灵宝可梦:超梦的逆袭·进化》的故事报告的是一群疯狂的科学家,为了自己的胡想,研制出一套只需要少许基因即可复制出宝可梦的机械,并把挖掘到的天下最强宝可梦复制成了具有比梦幻更强才能的超梦。但当超梦醒来后,却因没法找寻到实在的自我而暴走。火箭队的老迈出现在超梦的眼前,用蜜语甘言把丢失自我的超梦撮合过来为自己处事,但没过几多时候,超梦再次对自我感应苍茫。超梦回到阿谁复制它的岛屿,决议起头它的复仇之战。

  1. Video
  2. ID                                       : 1
  3. Format                                   : AVC
  4. Format/Info                              : Advanced Video Codec
  5. Format profile                           : High@L4.1
  6. Format settings                          : CABAC / 4 Ref Frames
  7. Format settings, CABAC                   : Yes
  8. Format settings, Reference frames        : 4 frames
  9. Codec ID                                 : V_MPEG4/ISO/AVC
  10. Duration                                 : 1 h 36 min
  11. Bit rate                                 : 8 747 kb/s
  12. Width                                    : 1 920 pixels
  13. Height                                   : 1 080 pixels
  14. Display aspect ratio                     : 16:9
  15. Frame rate mode                          : Constant
  16. Frame rate                               : 23.976 (24000/1001/45378) FPS
  17. Color space                              : YUV
  18. Chroma subsampling                       : 4:2:0
  19. Bit depth                                : 8 bits
  20. Scan type                                : Progressive
  21. Bits/(Pixel*Frame)                       : 0.176
  22. Stream size                              : 5.88 GiB (80%)
  23. Writing library                          : x264 core 161 r3018 db0d417
  24. Encoding settings                        : cabac=1 / ref=4 / deblock=1:1:1 / analyse=0x3:0x133 / me=umh / subme=9 / psy=1 / psy_rd=0.70:0.00 / mixed_ref=1 / me_range=16 / chroma_me=1 / trellis=2 / 8x8dct=1 / cqm=0 / deadzone=21,11 / fast_pskip=0 / chroma_qp_offset=-2 / threads=24 / lookahead_threads=2 / sliced_threads=0 / nr=0 / decimate=1 / interlaced=0 / bluray_compat=0 / constrained_intra=0 / bframes=3 / b_pyramid=2 / b_adapt=2 / b_bias=0 / direct=3 / weightb=1 / open_gop=0 / weightp=2 / keyint=250 / keyint_min=23 / scenecut=40 / intra_refresh=0 / rc_lookahead=60 / rc=crf / mbtree=1 / crf=17.0 / qcomp=0.60 / qpmin=0 / qpmax=69 / qpstep=4 / ip_ratio=1.40 / aq=3:1.00
  25. Default                                  : Yes
  26. Forced                                   : No
  27. Color range                              : Limited
  28. Color primaries                          : BT.709
  29. Transfer characteristics                 : BT.709
  30. Matrix coefficients                      : BT.709
  31. Audio
  32. ID                                       : 2
  33. Format                                   : DTS XLL
  34. Format/Info                              : Digital Theater Systems
  35. Commercial name                          : DTS-HD Master Audio
  36. Codec ID                                 : A_DTS
  37. Duration                                 : 1 h 36 min
  38. Bit rate mode                            : Variable
  39. Bit rate                                 : 2 168 kb/s
  40. Channel(s)                               : 6 channels
  41. Channel layout                           : C L R Ls Rs LFE
  42. Sampling rate                            : 48.0 kHz
  43. Frame rate                               : 93.750 FPS (512 SPF)
  44. Bit depth                                : 16 bits
  45. Compression mode                         : Lossless
  46. Stream size                              : 1.46 GiB (20%)
  47. Language                                 : English
  48. Default                                  : Yes
  49. Forced                                   : No
  50. Menu
  51. 00:00:00.000                             : en:00:00:00.000
  52. 00:12:12.315                             : en:00:12:12.315
  53. 00:18:50.963                             : en:00:18:50.963
  54. 00:30:19.651                             : en:00:30:19.651
  55. 00:34:23.520                             : en:00:34:23.520
  56. 00:41:24.190                             : en:00:41:24.190
  57. 00:46:03.928                             : en:00:46:03.928
  58. 00:53:40.843                             : en:00:53:40.843
  59. 01:00:24.704                             : en:01:00:24.704
  60. 01:11:55.811                             : en:01:11:55.811
  61. 01:18:35.044                             : en:01:18:35.044
  62. 01:31:11.007                             : en:01:31:11.007
复制代码







回复

使用道具 举报

级别:荣升主角 Lv.5

注册时间
2019-10-27
最后登录
2020-10-25
听众
4
收听
0
主题
0
蓝光币
711 枚
贡献
0 点
发表于 2020-10-16 22:49:57 | 显示全部楼层
楼主发贴辛苦了,谢谢楼主分享!我觉得中国高清电影网是注册对了!
回复

使用道具 举报

级别:初级观众 Lv.1

注册时间
2020-7-29
最后登录
2020-10-17
听众
3
收听
0
主题
0
蓝光币
32 枚
贡献
0 点
发表于 2020-10-17 16:39:45 | 显示全部楼层

既然你诚信诚意的推荐了,那我就勉为其难的看看吧!中国高清电影网不走平凡路。
回复

使用道具 举报

级别:初级观众 Lv.1

注册时间
2020-3-16
最后登录
2020-10-18
听众
2
收听
0
主题
0
蓝光币
12 枚
贡献
0 点
发表于 7 天前 | 显示全部楼层

这个帖子不回对不起自己!我想我是一天也不能离开中国高清电影网
回复

使用道具 举报

 成长值: 4670

级别:尊贵的会员

注册时间
2019-7-24
最后登录
2020-10-23
听众
7
收听
0
主题
0
蓝光币
21 枚
贡献
0 点
发表于 4 天前 | 显示全部楼层
楼主发贴辛苦了,谢谢楼主分享!我觉得中国高清电影网是注册对了!
回复

使用道具 举报

懒得打字嘛,点击右侧快捷回复 【右侧内容,后台自定义】
您需要登录后才可以回帖 登录 | 立即注册

本版积分规则

Archiver|手机版|小黑屋| 中国高清网 ( ICP备17007870号-2 ) |网站地图 

GMT+8, 2020-10-25 22:38 , Processed in 0.205347 second(s), 38 queries .

Powered by HDchina X3.4

Copyright 2017-2019©HDchina.All right reserved

返回顶部 联系我们