查看: 135|回复: 1

[动作片] 看门人/夺命守门人 The.Doorman.2020.1080p.BluRay.x264.TrueHD.5.1-FGT 10.27GB

[复制链接]

 成长值: 7735

级别:资源管理组

注册时间
2017-10-20
最后登录
2020-10-23
听众
1
收听
0
主题
104417
蓝光币
207776 枚
贡献
21715 点
发表于 2020-10-12 21:59:38 | 显示全部楼层 |阅读模式




译  名 看门人 / 夺命守门人(台)
片  名 Doorman
年  代 2020
产  地 美国
类  别 行动 / 惊悚
语  言 英语
上映日期 2020-10-09(美国)
IMDb链接  https://www.imdb.com/title/tt6222118
豆瓣评分 0/10 from 0 users
豆瓣链接 https://movie.douban.com/subject/27190023/
导  演 北村龙平 Ry?hei Kitamura
主  演 鲁比·罗丝 Ruby Rose
       让·雷诺 Jean Reno
       阿卡塞尔·亨涅 Aksel Hennie
       鲁珀特·伊文斯 Rupert Evans
       朱利安·费德 Julian Feder
       大卫·樱井 David Sakurai
       路易·曼迪勒 Louis Mandylor
       伊藤英明 Hideaki Ito
       Philip Whitchurch
       安德烈娅·瓦西里 Andreea Vasile
       Raynor van de Water
       丹·凯德 Dan Cade


标  签 让·雷诺 | 美国电影 | 行动 | 伊藤英明 | 惊悚 | 2020 | 美国 | 犯罪

简  介  

  故事报告一位水兵陆战队军官在退役时代遭到心理创伤,她返国寻觅机遇治疗。她在纽约的一座历史悠久、迷宫一样的公寓大楼当看门人,发现雇佣兵们成心摧毁一切,以便寻觅公寓中的珍宝。

  1. Video
  2. ID                                       : 1
  3. Format                                   : AVC
  4. Format/Info                              : Advanced Video Codec
  5. Format profile                           : High@L4.1
  6. Format settings                          : CABAC / 4 Ref Frames
  7. Format settings, CABAC                   : Yes
  8. Format settings, Reference frames        : 4 frames
  9. Codec ID                                 : V_MPEG4/ISO/AVC
  10. Duration                                 : 1 h 37 min
  11. Bit rate                                 : 11.5 Mb/s
  12. Width                                    : 1 920 pixels
  13. Height                                   : 804 pixels
  14. Display aspect ratio                     : 2.40:1
  15. Frame rate mode                          : Constant
  16. Frame rate                               : 23.976 (24000/1001/45378) FPS
  17. Color space                              : YUV
  18. Chroma subsampling                       : 4:2:0
  19. Bit depth                                : 8 bits
  20. Scan type                                : Progressive
  21. Bits/(Pixel*Frame)                       : 0.311
  22. Stream size                              : 7.81 GiB (76%)
  23. Title                                    : The.Doorman.2020.1080p.BluRay.x264.TrueHD.5.1-FGT
  24. Writing library                          : x264 core 148 r2795M aaa9aa8
  25. Encoding settings                        : cabac=1 / ref=4 / deblock=1:-2:-2 / analyse=0x3:0x113 / me=umh / subme=9 / psy=1 / psy_rd=1.00:0.15 / mixed_ref=1 / me_range=16 / chroma_me=1 / trellis=2 / 8x8dct=1 / cqm=0 / deadzone=21,11 / fast_pskip=1 / chroma_qp_offset=-3 / threads=48 / lookahead_threads=3 / sliced_threads=0 / nr=0 / decimate=1 / interlaced=0 / bluray_compat=0 / constrained_intra=0 / bframes=3 / b_pyramid=2 / b_adapt=1 / b_bias=0 / direct=3 / weightb=1 / open_gop=0 / weightp=2 / keyint=250 / keyint_min=25 / scenecut=40 / intra_refresh=0 / rc_lookahead=50 / rc=2pass / mbtree=1 / bitrate=11500 / ratetol=1.0 / qcomp=0.60 / qpmin=0 / qpmax=69 / qpstep=4 / cplxblur=20.0 / qblur=0.5 / vbv_maxrate=31250 / vbv_bufsize=31250 / nal_hrd=none / filler=0 / ip_ratio=1.40 / aq=1:1.00
  26. Language                                 : English
  27. Default                                  : Yes
  28. Forced                                   : No

  29. Audio #1
  30. ID                                       : 2
  31. ID in the original source medium         : 4352 (0x1100)
  32. Format                                   : MLP FBA
  33. Format/Info                              : Meridian Lossless Packing FBA
  34. Commercial name                          : Dolby TrueHD
  35. Codec ID                                 : A_TRUEHD
  36. Duration                                 : 1 h 37 min
  37. Bit rate mode                            : Variable
  38. Bit rate                                 : 2 865 kb/s
  39. Maximum bit rate                         : 4 665 kb/s
  40. Channel(s)                               : 6 channels
  41. Channel layout                           : L R C LFE Ls Rs
  42. Sampling rate                            : 48.0 kHz
  43. Frame rate                               : 1 200.000 FPS (40 SPF)
  44. Compression mode                         : Lossless
  45. Stream size                              : 1.95 GiB (19%)
  46. Title                                    : The.Doorman.2020.1080p.BluRay.x264.TrueHD.5.1-FGT
  47. Language                                 : English
  48. Default                                  : Yes
  49. Forced                                   : No
  50. Original source medium                   : Blu-ray

  51. Audio #2
  52. ID                                       : 3
  53. ID in the original source medium         : 4352 (0x1100)
  54. Format                                   : AC-3
  55. Format/Info                              : Audio Coding 3
  56. Commercial name                          : Dolby Digital
  57. Codec ID                                 : A_AC3
  58. Duration                                 : 1 h 37 min
  59. Bit rate mode                            : Constant
  60. Bit rate                                 : 640 kb/s
  61. Channel(s)                               : 6 channels
  62. Channel layout                           : L R C LFE Ls Rs
  63. Sampling rate                            : 48.0 kHz
  64. Frame rate                               : 31.250 FPS (1536 SPF)
  65. Compression mode                         : Lossy
  66. Stream size                              : 445 MiB (4%)
  67. Title                                    : The.Doorman.2020.1080p.BluRay.x264.TrueHD.5.1-FGT
  68. Language                                 : English
  69. Service kind                             : Complete Main
  70. Default                                  : No
  71. Forced                                   : No
  72. Original source medium                   : Blu-ray

  73. Text #1
  74. ID                                       : 4
  75. Format                                   : UTF-8
  76. Codec ID                                 : S_TEXT/UTF8
  77. Codec ID/Info                            : UTF-8 Plain Text
  78. Duration                                 : 1 h 30 min
  79. Bit rate                                 : 48 b/s
  80. Count of elements                        : 1069
  81. Stream size                              : 32.0 KiB (0%)
  82. Title                                    : English-SRT
  83. Language                                 : English
  84. Default                                  : Yes
  85. Forced                                   : No

  86. Text #2
  87. ID                                       : 5
  88. ID in the original source medium         : 4608 (0x1200)
  89. Format                                   : PGS
  90. Muxing mode                              : zlib
  91. Codec ID                                 : S_HDMV/PGS
  92. Codec ID/Info                            : Picture based subtitle format used on BDs/HD-DVDs
  93. Duration                                 : 1 h 30 min
  94. Bit rate                                 : 30.1 kb/s
  95. Count of elements                        : 2154
  96. Stream size                              : 19.6 MiB (0%)
  97. Title                                    : English-PGS
  98. Language                                 : English
  99. Default                                  : No
  100. Forced                                   : No
  101. Original source medium                   : Blu-ray

  102. Text #3
  103. ID                                       : 6
  104. ID in the original source medium         : 4609 (0x1201)
  105. Format                                   : PGS
  106. Muxing mode                              : zlib
  107. Codec ID                                 : S_HDMV/PGS
  108. Codec ID/Info                            : Picture based subtitle format used on BDs/HD-DVDs
  109. Duration                                 : 1 h 31 min
  110. Bit rate                                 : 33.7 kb/s
  111. Count of elements                        : 2540
  112. Stream size                              : 22.0 MiB (0%)
  113. Title                                    : English-SDH-PGS
  114. Language                                 : English
  115. Default                                  : No
  116. Forced                                   : No
  117. Original source medium                   : Blu-ray

  118. Text #4
  119. ID                                       : 7
  120. ID in the original source medium         : 4610 (0x1202)
  121. Format                                   : PGS
  122. Muxing mode                              : zlib
  123. Codec ID                                 : S_HDMV/PGS
  124. Codec ID/Info                            : Picture based subtitle format used on BDs/HD-DVDs
  125. Duration                                 : 1 h 35 min
  126. Bit rate                                 : 26.1 kb/s
  127. Count of elements                        : 2050
  128. Stream size                              : 17.8 MiB (0%)
  129. Title                                    : French-PGS
  130. Language                                 : French
  131. Default                                  : No
  132. Forced                                   : No
  133. Original source medium                   : Blu-ray

  134. Text #5
  135. ID                                       : 8
  136. ID in the original source medium         : 4611 (0x1203)
  137. Format                                   : PGS
  138. Muxing mode                              : zlib
  139. Codec ID                                 : S_HDMV/PGS
  140. Codec ID/Info                            : Picture based subtitle format used on BDs/HD-DVDs
  141. Duration                                 : 1 h 35 min
  142. Bit rate                                 : 25.7 kb/s
  143. Count of elements                        : 2168
  144. Stream size                              : 17.6 MiB (0%)
  145. Title                                    : Spanish-PGS
  146. Language                                 : Spanish
  147. Default                                  : No
  148. Forced                                   : No
  149. Original source medium                   : Blu-ray

  150. Menu
  151. 00:00:00.000                             : en:Chapter 01
  152. 00:06:31.641                             : en:Chapter 02
  153. 00:10:30.921                             : en:Chapter 03
  154. 00:17:32.968                             : en:Chapter 04
  155. 00:22:31.308                             : en:Chapter 05
  156. 00:27:07.751                             : en:Chapter 06
  157. 00:34:40.328                             : en:Chapter 07
  158. 00:42:34.301                             : en:Chapter 08
  159. 00:48:29.239                             : en:Chapter 09
  160. 00:55:32.245                             : en:Chapter 10
  161. 00:59:49.877                             : en:Chapter 11
  162. 01:05:47.693                             : en:Chapter 12
  163. 01:10:58.087                             : en:Chapter 13
  164. 01:16:56.486                             : en:Chapter 14
  165. 01:21:18.707                             : en:Chapter 15
  166. 01:29:21.522                             : en:Chapter 16
复制代码













回复

使用道具 举报

级别:群众演员 Lv.3

注册时间
2019-3-25
最后登录
2020-10-17
听众
14
收听
0
主题
0
蓝光币
85 枚
贡献
0 点
发表于 2020-10-17 17:41:59 | 显示全部楼层

楼主太厉害了!楼主,电影应该很好看我觉得中国高清电影网真是个好地方!
回复

使用道具 举报

懒得打字嘛,点击右侧快捷回复 【右侧内容,后台自定义】
您需要登录后才可以回帖 登录 | 立即注册

本版积分规则

Archiver|手机版|小黑屋| 中国高清网 ( ICP备17007870号-2 ) |网站地图 

GMT+8, 2020-10-25 21:52 , Processed in 0.178802 second(s), 39 queries .

Powered by HDchina X3.4

Copyright 2017-2019©HDchina.All right reserved

返回顶部 联系我们