查看: 146|回复: 2

[动作片] 超人:明日之子 Superman.Man.of.Tomorrow.2020.720p.BluRay.x264-WoAT 1.56GB

[复制链接]

 成长值: 7735

级别:资源管理组

注册时间
2017-10-20
最后登录
2020-10-23
听众
1
收听
0
主题
104417
蓝光币
207772 枚
贡献
21715 点
发表于 2020-9-23 14:31:14 | 显示全部楼层 |阅读模式
1 b( k/ u, [  D$ e& Y4 N
. R+ r6 A& ]5 c9 f5 ^
( S/ T2 Z: X6 U' _
) r( z2 f. n) d) D! E% O" P: \
译  名 超人:明日之子
$ T9 \% W& K/ j5 \! Y" U6 K' a片  名 Superman: Man of Tomorrow1 V+ T& X- P6 Y& E% X/ N3 z  K
年  代 2020
" O' s  U+ K5 X! Z9 N3 r产  地 美国
8 F4 m& V5 Z% V( P1 A4 j类  别 行动 / 动画; t/ i7 _0 n0 N- v1 d
语  言 英语
" `; m) D2 |3 @- O$ g0 e# \上映日期 2020-08-23(美国)
6 L1 i% {; c" R' {IMDb链接  https://www.imdb.com/title/tt110791166 C$ |7 Z+ ^8 n2 _! j. c
豆瓣评分 0/10 from 0 users0 H. _2 y/ v: \7 |
豆瓣链接 https://movie.douban.com/subject/34777819/
* d: z6 ^. z5 U' y片  长 86分钟& |( Z# v1 h/ k
编  剧 蒂姆·谢里丹 Tim Sheridan$ r# d% o% e  T" W
主  演 达伦·克里斯 Darren Criss
+ m; r6 u$ ^2 v: k) I+ l" O       亚历珊德拉·达达里奥 Alexandra Daddario% a6 y! [0 d9 e: W0 @. y1 s8 h
       瑞恩·赫斯特 Ryan Hurst
5 M1 L& {7 O/ f       贝拉米·扬 Bellamy Young+ w% C5 d4 W, p6 R$ f0 b4 ~
       扎克瑞·昆图 Zachary Quinto
  i+ t& r/ t" t* D7 `. ]       尼尔·弗林 Neil Flynn% p# t1 y& _9 Z) J1 g& J
       布雷特·道顿 Brett Dalton
' g! \) Z) k$ z, ~) e+ A, e0 L4 J3 d7 v1 k# r$ `4 L
9 z7 c, n( l: A
标  签 DC | 超级豪杰 | 动画 | DC动漫 | 漫画改编 | 科幻 | DCAMU | 美国电影; E0 Q  ~) z6 h7 M9 a6 ^2 m

% a- r2 ^9 a: I# O! k. ^简  介  # I" D- ^( q4 J

- [! L. ?* E; e. I9 W( I/ x  报告一个年轻的克拉克·肯特在超人生活早期的故事。关于这部电影的更多细节没有流露。
% z$ u. o. _- ?* {1 X0 e' t- h' P, F7 m* e' @
  1. Video$ f- }6 `1 D) H, _0 X* ]' V
  2. ID                                       : 1
    - f. S" [3 _# H! j
  3. Format                                   : AVC/ e. C6 O9 {. M, n. n% D7 q! j
  4. Format/Info                              : Advanced Video Codec
    1 w8 q; z3 Z5 l/ r" T, j6 _0 l
  5. Format profile                           : High@L4.11 z4 _+ Y3 C" p, ]5 R3 ~8 |3 ~
  6. Format settings                          : CABAC / 9 Ref Frames
    5 U- D+ a2 `3 v6 u) l& t
  7. Format settings, CABAC                   : Yes
    ) U) c- k- O# O
  8. Format settings, Reference frames        : 9 frames, j' r# Y' E' j# `7 p4 G7 U
  9. Codec ID                                 : V_MPEG4/ISO/AVC
    # \! h: T& ~/ ?4 @
  10. Duration                                 : 1 h 26 min
    8 U$ J) ?) e8 G! a3 D7 d
  11. Bit rate                                 : 1 859 kb/s
    . V" [& C* v, @# k6 F# F5 h& _) r  o
  12. Width                                    : 1 280 pixels3 @% _% R( U. c4 h2 S
  13. Height                                   : 720 pixels
    / y7 _5 [" ~  J* O* G; }
  14. Display aspect ratio                     : 16:96 t& h( M8 x- i9 P& N
  15. Frame rate mode                          : Constant: `- w; j8 |: E7 }* c; n/ ^
  16. Frame rate                               : 23.976 (24000/1001/45378) FPS2 f/ C" E- ^, ?6 B/ `6 e+ ^  V
  17. Color space                              : YUV# p2 ?- ]0 |7 _/ ?8 w
  18. Chroma subsampling                       : 4:2:0( K6 t8 M, A* i/ b
  19. Bit depth                                : 8 bits% y, x- S/ H) H6 q) s
  20. Scan type                                : Progressive- `; s3 u5 P" b! ~3 l  O
  21. Bits/(Pixel*Frame)                       : 0.084) ?0 c2 C; \& Q8 I& l; \" v: O
  22. Stream size                              : 1.12 GiB (72%)
    0 \2 g0 r. C  b. f7 _
  23. Writing library                          : x264 core 161 r3018 db0d417. B1 q! y5 f* M1 N8 {0 T/ l2 t
  24. Encoding settings                        : cabac=1 / ref=9 / deblock=1:1:1 / analyse=0x3:0x133 / me=umh / subme=10 / psy=1 / psy_rd=0.40:0.00 / mixed_ref=1 / me_range=24 / chroma_me=1 / trellis=2 / 8x8dct=1 / cqm=0 / deadzone=21,11 / fast_pskip=1 / chroma_qp_offset=-2 / threads=16 / lookahead_threads=4 / sliced_threads=0 / nr=0 / decimate=1 / interlaced=0 / bluray_compat=0 / constrained_intra=0 / bframes=10 / b_pyramid=2 / b_adapt=2 / b_bias=0 / direct=3 / weightb=1 / open_gop=0 / weightp=2 / keyint=250 / keyint_min=23 / scenecut=40 / intra_refresh=0 / rc_lookahead=60 / rc=crf / mbtree=1 / crf=17.0 / qcomp=0.60 / qpmin=0 / qpmax=69 / qpstep=4 / ip_ratio=1.40 / aq=3:1.003 P2 B% D( d8 D4 N$ N7 j
  25. Default                                  : Yes
    7 {6 l1 a! N- P( G7 [& X1 J
  26. Forced                                   : No
    % Y2 I  [* k% \. K& m
  27. Color range                              : Limited% m5 C/ O1 l. C  Z# m0 w* W! q+ H5 _
  28. Matrix coefficients                      : BT.709( C: l" L1 [% m) F8 L  L
  29. Audio, D. G! {; j1 h
  30. ID                                       : 29 {3 r1 C& _6 Q& g* A
  31. Format                                   : AC-3
    ! g! C- [6 ?/ I/ s- r! j7 m
  32. Format/Info                              : Audio Coding 3
    ! n4 c# P4 J% u: v# t: B
  33. Commercial name                          : Dolby Digital! A$ g* w/ c- j0 Z! P
  34. Codec ID                                 : A_AC3
    " y+ }' |4 T- u" ~
  35. Duration                                 : 1 h 26 min
    + O8 Y+ ]" h( H  O
  36. Bit rate mode                            : Constant
    8 ]: J7 F9 C- U3 [; K) G# }/ v
  37. Bit rate                                 : 640 kb/s$ u1 l5 j5 N: r, F( @4 z( |
  38. Channel(s)                               : 6 channels
    % c1 v( l( K7 b! m! a; z8 i" r
  39. Channel layout                           : L R C LFE Ls Rs: p  E: k6 g$ D( I  R+ e
  40. Sampling rate                            : 48.0 kHz2 |. P+ T" m1 g7 }
  41. Frame rate                               : 31.250 FPS (1536 SPF)
    : O0 A- B4 T0 n+ _2 m! L
  42. Compression mode                         : Lossy0 [% M1 s7 }# T2 O( b. w% Y' P  L
  43. Stream size                              : 396 MiB (25%)
    * O/ G% S3 V' U4 b3 m+ q- D) |
  44. Title                                    : English
    0 ^' n/ V2 y2 C
  45. Language                                 : English
    3 Y& k9 _. P! d) x8 N( B
  46. Service kind                             : Complete Main
    ) a) G' X7 q' @( D$ W0 J2 }' D
  47. Default                                  : No3 N& h' S+ H0 G4 s
  48. Forced                                   : No$ v( i3 ]1 w6 w
  49. Text #1
    . x' H  w% C: }5 D. [% `% [+ E
  50. ID                                       : 3
    / L7 D2 u3 m( V% |, ]& d) e  I
  51. Format                                   : PGS" z$ Y/ W3 B0 C, u8 E  w
  52. Muxing mode                              : zlib6 W+ ?% H) e" e
  53. Codec ID                                 : S_HDMV/PGS  Y- }& j" h. O! E8 @5 b  o
  54. Codec ID/Info                            : Picture based subtitle format used on BDs/HD-DVDs: {7 T# T. a  W( N2 U- i
  55. Duration                                 : 1 h 21 min
    0 W3 m" ~! E/ s
  56. Bit rate                                 : 30.8 kb/s
    4 J1 M, Q) c% M# S8 z+ v+ X! C, a
  57. Count of elements                        : 2154
    ' l9 C- J6 f" b) n8 v* s
  58. Stream size                              : 18.0 MiB (1%)
    " P7 I5 _/ y2 Z0 s  Q
  59. Title                                    : English  Z* w) k! \& @+ b  \. O* ^. X' f, g( K# G! L
  60. Language                                 : English
    , m" H" ^6 r+ e' K
  61. Default                                  : No7 T, H* ^. w. @1 T- v1 }
  62. Forced                                   : No  G* J% h5 ]' v* d- l
  63. Text #2: i4 K) n! z  ]
  64. ID                                       : 4
    7 A, h  }/ _  a( {  J0 H! @, o
  65. Format                                   : PGS
      F- f' \8 [& `! G
  66. Muxing mode                              : zlib3 [% h0 ]3 v3 s  e6 Y
  67. Codec ID                                 : S_HDMV/PGS4 s& G. }% d( t6 a2 |9 ~
  68. Codec ID/Info                            : Picture based subtitle format used on BDs/HD-DVDs
    $ i5 |+ r3 [6 E* i
  69. Duration                                 : 1 h 25 min# q& U/ g" j" Q& R
  70. Bit rate                                 : 25.7 kb/s0 K2 ], c- m8 x0 L' h' S
  71. Count of elements                        : 1706
      N1 U- [; h% I: z/ \' c% p5 w
  72. Stream size                              : 15.8 MiB (1%)
    3 S3 |! n, a5 z' q  W0 R# w
  73. Title                                    : French3 U8 \8 p' n' `& q( E
  74. Language                                 : French4 k/ [- L( Q, C! H9 E2 E, B+ R
  75. Default                                  : No4 X( F1 }1 f2 B% s, ]
  76. Forced                                   : No$ z% M- V. x4 H' J6 L1 _/ e  S+ O
  77. Text #3
    ) N. V0 C3 t% ^5 x! y
  78. ID                                       : 5" d2 @% c+ Y2 y/ \- p) l5 ^
  79. Format                                   : PGS/ l, ^/ B& N" B9 e: }* K3 K( E* L1 P) S
  80. Muxing mode                              : zlib& ]6 u% l. O0 V$ @2 j# |+ y+ o1 ^
  81. Codec ID                                 : S_HDMV/PGS5 \1 ]6 S! l$ R" @! V0 s3 h% ~( ~
  82. Codec ID/Info                            : Picture based subtitle format used on BDs/HD-DVDs9 t1 B( u* k( N8 F( P$ `8 a
  83. Duration                                 : 1 h 25 min! e2 x& Y/ W- \
  84. Bit rate                                 : 29.6 kb/s
    ) d" ^# e+ D! h' T, M+ x
  85. Count of elements                        : 2170. j, z0 }& E+ w8 k& ?
  86. Stream size                              : 18.1 MiB (1%)  o4 S% H; Q0 g  o
  87. Title                                    : German' g% x3 c- ~1 D, L
  88. Language                                 : German
    / j2 q5 A8 t1 b, I
  89. Default                                  : No8 N- K/ u" S4 C* l6 n
  90. Forced                                   : No
    ; @- z  a+ A* d! z! |
  91. Text #4" b" P- i. L  W1 X. h; g3 `
  92. ID                                       : 6
    ) g1 T' \& k$ X) z+ H+ v
  93. Format                                   : PGS$ [1 S2 s1 f# Z. m5 C; Y
  94. Muxing mode                              : zlib
    * P1 Y: ~) a  b" l8 [8 |/ W. F" p8 ]
  95. Codec ID                                 : S_HDMV/PGS6 I6 y( v, v& p$ i6 C- {
  96. Codec ID/Info                            : Picture based subtitle format used on BDs/HD-DVDs
    ( g! {8 W6 i' N9 j8 p. N
  97. Duration                                 : 1 h 25 min
    , z: _1 n  e8 I
  98. Bit rate                                 : 24.8 kb/s9 i5 R2 e( C! S6 g' {
  99. Count of elements                        : 1772
    * x! A) K7 W. C, N. l
  100. Stream size                              : 15.2 MiB (1%)- o; Z* d. m  K' O& Q) t, S" l
  101. Title                                    : Spanish$ X; W8 s* k1 }/ d/ q& W4 V
  102. Language                                 : Spanish
    / J5 W0 D2 b2 ]5 @- |  u9 g
  103. Default                                  : No( q/ w# o) k* _; E& `+ S% c
  104. Forced                                   : No
    ( s: A) A1 F4 k' Z: J, D  r! }
  105. Text #5
    , \! E, v3 d9 H" Q$ h% T
  106. ID                                       : 7
      R1 v( |: ?2 d' D: B. v, W
  107. Format                                   : PGS7 w: k9 e' y/ X4 h, r0 O" i2 s. N& d- x# W
  108. Muxing mode                              : zlib4 X# c: t, @: H  l& Q4 f
  109. Codec ID                                 : S_HDMV/PGS
    - T7 Y$ }% Y5 h# D; f0 s+ Y
  110. Codec ID/Info                            : Picture based subtitle format used on BDs/HD-DVDs
      a4 s1 B% @8 Y+ X% s: }# Q8 U# \
  111. Duration                                 : 1 h 25 min
    5 w& b- t/ U+ u
  112. Bit rate                                 : 24.2 kb/s
    3 \+ z* u9 @! Y/ h/ d9 g9 z- A
  113. Count of elements                        : 15420 V0 c0 ?+ H/ p, C
  114. Stream size                              : 14.7 MiB (1%)
    8 A- K1 T3 y; _2 r/ f$ u- Q
  115. Title                                    : Danish: ^+ `$ o# c& E" Y3 U& j! e
  116. Language                                 : Danish9 G( i! Y. _/ V( |5 V) [
  117. Default                                  : No
    / l$ Y+ @/ I3 H6 H. \2 P8 |# l0 q# h
  118. Forced                                   : No
    0 R# L. E' D* ~
  119. Text #6
    / W  a5 i% \9 O
  120. ID                                       : 8% d; T) G! [' a8 D% x
  121. Format                                   : PGS
    & L5 o: I, {( h9 N- R7 b
  122. Muxing mode                              : zlib
    8 b& x% R0 @; L2 E" `2 g
  123. Codec ID                                 : S_HDMV/PGS
    . p8 g" v- l5 X0 ]
  124. Codec ID/Info                            : Picture based subtitle format used on BDs/HD-DVDs! j* _* y" h8 y+ s, N
  125. Duration                                 : 1 h 25 min$ }- X/ d9 S, c0 b+ F% Q# B
  126. Bit rate                                 : 26.0 kb/s
    0 u1 E  Q* c$ T6 r) b6 w9 I
  127. Count of elements                        : 1588
    ; u' d+ K3 {3 g! f# U! P
  128. Stream size                              : 15.9 MiB (1%)& M4 `0 I$ n( F
  129. Title                                    : Finnish+ a3 b% j6 a% S$ a. H% G& l
  130. Language                                 : Finnish
    + J/ L0 O. z' Y( j9 W4 _# K
  131. Default                                  : No% \4 J+ }3 X3 ?, b& t9 x% E
  132. Forced                                   : No, \) _: y/ s& {4 b* c: e; ^% f2 q& N
  133. Text #7
    $ r# g  t  L* n0 ]- o$ {' r
  134. ID                                       : 9: X# {9 x$ ^* F/ E. f' k( a# Z
  135. Format                                   : PGS5 ?6 I; |+ c! I4 i* L' D1 U& y
  136. Muxing mode                              : zlib
    - o: ?5 K! U  Z2 q/ {+ F
  137. Codec ID                                 : S_HDMV/PGS' y6 W4 N3 I% Q4 \0 b( m
  138. Codec ID/Info                            : Picture based subtitle format used on BDs/HD-DVDs
    : L8 v8 e* f; N. m' F
  139. Duration                                 : 1 h 25 min
    , }8 H6 j/ T5 X( V4 |" X
  140. Bit rate                                 : 23.8 kb/s" U' v  k0 ]: V0 \' X5 g* V& Q
  141. Count of elements                        : 16561 G6 i0 F8 X( r  `
  142. Stream size                              : 14.5 MiB (1%). `# y' _6 r, d% Q& ?9 ~# o$ Q# n
  143. Title                                    : Norwegian) y' D$ J/ V: T
  144. Language                                 : Norwegian Bokmal" Y, b" D$ i& z! }/ w1 w
  145. Default                                  : No
    8 v8 ~9 }0 K' J& q7 n+ h, h
  146. Forced                                   : No) R; P8 ?7 [7 l- s
  147. Text #8& Z6 M6 M/ Z  q9 U/ i& C! N
  148. ID                                       : 10$ e) U% A1 J* X  O! T0 T! ^* u
  149. Format                                   : PGS% p* h& Y$ h! J. k
  150. Muxing mode                              : zlib7 J! p  Q* j$ ~! S" S" D
  151. Codec ID                                 : S_HDMV/PGS5 R# b3 k9 ?5 ]. Q
  152. Codec ID/Info                            : Picture based subtitle format used on BDs/HD-DVDs
    : g5 i0 Z1 m# ^8 y
  153. Duration                                 : 1 h 25 min* ^8 m- B5 c5 F* N+ b" X2 I) C
  154. Bit rate                                 : 25.4 kb/s
    . P6 A4 y+ }( y# L
  155. Count of elements                        : 17647 n( V8 \0 r& i6 a* N
  156. Stream size                              : 15.5 MiB (1%)
    , L3 f6 B6 y7 e5 K8 a+ x
  157. Title                                    : Swedish; w, R: g: `& U) {9 n5 d, b1 l
  158. Language                                 : Swedish
    9 r' k2 |7 R0 O
  159. Default                                  : No8 M9 y4 g' B$ z! z2 U
  160. Forced                                   : No  ~/ W1 @! j  Y  n+ q, |
  161. Text #9! }3 q" K* U$ R
  162. ID                                       : 11
    ! W0 `# [4 _$ t* W# k- E6 w
  163. Format                                   : PGS
    & ?  K: o8 W- V+ e' D
  164. Muxing mode                              : zlib  R( H, r9 x" J
  165. Codec ID                                 : S_HDMV/PGS% i1 b6 ^4 Y8 [  t. G
  166. Codec ID/Info                            : Picture based subtitle format used on BDs/HD-DVDs
    3 k0 ^, W! T! J6 ~; c* I
  167. Duration                                 : 55 min 51 s& r: l! U2 F; Q  l  g
  168. Bit rate                                 : 474 b/s
      I+ ^: d( ?* D' s7 _- H" H2 p5 K7 U
  169. Count of elements                        : 244 k& M: Y* N1 b3 Q* O- q: t
  170. Stream size                              : 194 KiB (0%)
    & ^3 f( E( b; b  W+ [" p
  171. Title                                    : French
    # C& x& s9 s$ {( g7 J  V
  172. Language                                 : French
    8 n8 b: @- w$ j
  173. Default                                  : No- y! q6 _% ^* `4 Z! s0 p- F
  174. Forced                                   : No2 k0 Q, k  C6 b, i; ~& s# j( @  A
  175. Text #102 ]* h- M7 \/ s% E7 ^
  176. ID                                       : 12
    $ g& L2 s: k4 [( M0 u
  177. Format                                   : PGS
    0 s: Y' }/ ~8 ]# l( e/ X1 }$ |
  178. Muxing mode                              : zlib  T# a* M/ v( ~2 M, R* e9 m
  179. Codec ID                                 : S_HDMV/PGS4 Z, r2 v0 C4 O% l3 B
  180. Codec ID/Info                            : Picture based subtitle format used on BDs/HD-DVDs
    ) G9 }- F& Z, F) S2 T
  181. Duration                                 : 55 min 51 s
      G, V- [+ N$ K
  182. Bit rate                                 : 474 b/s6 s" v4 y% j/ I% Z/ q
  183. Count of elements                        : 24
    ( E9 [: V( ~" Y* q& [
  184. Stream size                              : 194 KiB (0%)3 o2 }' L( X" p  m
  185. Title                                    : French! j/ G3 \4 |& Q' `7 s& X7 U
  186. Language                                 : French
    ; ]$ }! a/ s4 I- D; S; t* \4 H
  187. Default                                  : No
    9 }4 g- R, N$ y( _' O- F) B1 r: h: T
  188. Forced                                   : No
    # i; i% ^% G: A. |7 _& i% k" ^& n
  189. Text #11- S9 n9 z; `4 ~" p; B5 z
  190. ID                                       : 130 m# j, Y, q5 t
  191. Format                                   : PGS
    + j6 f3 V0 e* Q0 W$ l
  192. Muxing mode                              : zlib6 C% V! C# j; {  V
  193. Codec ID                                 : S_HDMV/PGS
    1 N& S! J5 P5 z+ A' o' A0 L
  194. Codec ID/Info                            : Picture based subtitle format used on BDs/HD-DVDs
    ) _" J5 o: H4 x, r" l
  195. Duration                                 : 55 min 14 s
    ! J- |" h3 {/ c% J
  196. Bit rate                                 : 197 b/s# V2 f6 D6 i$ t7 @3 k' Z
  197. Count of elements                        : 8
    ! t/ ^/ q6 V# ?' ]; K9 Z
  198. Stream size                              : 79.8 KiB (0%)4 d/ e0 y. w; g7 i9 Q
  199. Title                                    : Spanish
    5 r  {. a% [% e
  200. Language                                 : Spanish
    * k$ G- |- F4 l3 `! o/ f
  201. Default                                  : No% l$ y5 s& X4 c
  202. Forced                                   : No
    ; ^6 b( b# v  j& n- N2 {
  203. Text #12, f* w2 d4 P$ H2 j+ v
  204. ID                                       : 14
    ! b* b* `$ |8 ?% x& s/ x
  205. Format                                   : PGS% o$ y% C) P+ X2 z, t& ^
  206. Muxing mode                              : zlib
    , j. l" N7 G1 A4 }) ]. ~4 o; t6 u- b
  207. Codec ID                                 : S_HDMV/PGS4 U: |4 e" n. Q! D2 Y8 x
  208. Codec ID/Info                            : Picture based subtitle format used on BDs/HD-DVDs
    9 N% _* f" h. \8 B2 R+ I4 _/ ^8 ]- z- l
  209. Duration                                 : 55 min 14 s
    9 F$ K. M$ w& q; a
  210. Bit rate                                 : 197 b/s; ], A  {  D8 }7 U: }/ M9 j$ G% f
  211. Count of elements                        : 8
    ( R+ J/ s8 G+ O7 K1 C0 t5 z, M% Z
  212. Stream size                              : 79.8 KiB (0%)
    8 d' g* i. n4 W/ h2 @  O1 U$ L6 [
  213. Title                                    : Spanish
    " g; K. r* D1 E. D1 }- |
  214. Language                                 : Spanish
    * R) g6 `, E4 b: `
  215. Default                                  : No
    ( g# Z8 [) J5 i4 N1 B: R+ `
  216. Forced                                   : No  p& x! F6 ]/ y. S. b$ _. l7 G
  217. Menu
    $ Y( f- Z4 G5 r% u6 `! q
  218. 00:00:00.000                             : en:Chapter 01) H. t4 n1 X$ O- w! h
  219. 00:09:25.356                             : en:Chapter 02
    : v( h' _6 t4 U# B0 ~3 g
  220. 00:20:07.539                             : en:Chapter 03
    / R, u: k+ g4 I4 `5 r3 U- b0 q
  221. 00:31:07.657                             : en:Chapter 04
    - U  h4 e; }0 @
  222. 00:40:24.797                             : en:Chapter 05/ q& j& b2 g1 h" g
  223. 00:47:56.498                             : en:Chapter 068 t' d% z8 R: f* b+ b! L  K5 v& b
  224. 00:57:28.236                             : en:Chapter 078 E3 F8 P3 w/ U5 o& v7 h! Y+ q
  225. 01:07:09.650                             : en:Chapter 08
    3 T/ m4 x3 n) Y- O4 E7 V( d  B
  226. 01:15:53.882                             : en:Chapter 09" O! F% f. x1 E4 O) ?1 E4 d
  227. 01:22:48.254                             : en:Chapter 10
复制代码

, J  ~4 ]: L  G: Z0 y* k
1 L* f* e6 g* s1 G
7 l5 ^. U9 I" w! V' S8 Z
" [; n" W6 t1 x' I
& W5 J* W3 f( Z( k  D6 k/ h7 I1 c0 D: F/ _9 E# Q+ G5 `2 a
$ \, }; S8 ~3 M& B) C, M7 \: {+ E
回复

使用道具 举报

级别:初级观众 Lv.1

注册时间
2020-9-26
最后登录
2020-9-26
听众
2
收听
0
主题
0
蓝光币
0 枚
贡献
0 点
发表于 2020-9-26 11:25:09 | 显示全部楼层

/ n* c' `4 l# f/ }5 t! S楼主太厉害了!楼主,电影应该很好看我觉得中国高清电影网真是个好地方!
回复

使用道具 举报

级别:初级观众 Lv.1

注册时间
2020-10-17
最后登录
2020-10-20
听众
2
收听
0
主题
0
蓝光币
2 枚
贡献
0 点
发表于 2020-10-17 19:56:08 | 显示全部楼层
1111111111
回复

使用道具 举报

懒得打字嘛,点击右侧快捷回复 【右侧内容,后台自定义】
您需要登录后才可以回帖 登录 | 立即注册

本版积分规则

Archiver|手机版|小黑屋| 中国高清网 ( ICP备17007870号-2 ) |网站地图 

GMT+8, 2020-10-25 21:08 , Processed in 0.206050 second(s), 39 queries .

Powered by HDchina X3.4

Copyright 2017-2019©HDchina.All right reserved

返回顶部 联系我们