查看: 300|回复: 0

[REMUX.HEVC] 七宝奇谋/小灵精 The.Goonies.1985.2160p.BluRay.REMUX.HEVC.DTS-HD.MA.5.1-FGT 53.62GB

[复制链接]

 成长值: 7255

级别:资源管理组

注册时间
2017-10-20
最后登录
2020-9-23
听众
1
收听
0
主题
103189
蓝光币
198101 枚
贡献
21715 点
发表于 2020-9-12 15:27:56 | 显示全部楼层 |阅读模式
七宝奇谋/小灵精 The.Goonies.1985.2160p.BluRay.REMUX.HEVC.DTS-HD.MA.5.1-FGT 53.62GB-1.jpg



译  名 七宝奇谋 / 小灵精
片  名 The Goonies
年  代 1985
产  地 美国
类  别 笑剧 / 家庭 / 冒险
语  言 英语 / 西班牙语 / 粤语 / 意大利语
上映日期 1985-06-07
IMDb评分  7.8/10 from 230723 users
IMDb链接  https://www.imdb.com/title/tt0089218
豆瓣评分 7.6/10 from 2850 users
豆瓣链接 https://movie.douban.com/subject/1298273/
片  长 114 分钟
导  演 理查德·唐纳 Richard Donner
编  剧 克里斯·哥伦布 Chris Columbus / 史蒂文·斯皮尔伯格 Steven Spielberg
主  演 西恩·奥斯汀 Sean Astin
       乔什·布洛林 Josh Brolin
       杰夫·科恩 Jeff Cohen
       科里·费尔德曼 Corey Feldman
       凯利·格林 Kerri Green
       玛莎·普林顿 Martha Plimpton
       关继威 Jonathan Ke Quan
       John Matuszak
       罗伯特·戴维 Robert Davi
       乔·潘托里亚诺 Joe Pantoliano
       安妮·拉姆塞 Anne Ramsey
       露贝·安缇维洛 Lupe Ontiveros
       玛丽·艾伦·特雷纳 Mary Ellen Trainor
       基思·沃克 Keith Walker
       Curt Hanson
       史蒂芬·安汀 Steven Antin
       George Robotham
       Charles McDaniel
       迈克尔·保罗·陈 Michael Paul Chan
       Nick McLean
       Jeb Stuart Adams
       吉纳·罗斯 Gene Ross
       纽维特·阿诺 Newt Arnold
       理查德·唐纳 Richard Donner
       辛迪·劳帕 Cyndi Lauper


标  签 冒险 | 美国 | 儿童 | 笑剧 | 1985 | 斯皮尔伯格 | 探险 | 美国电影

简  介  

  故事发生在美国西岸的一个小镇中,开辟者的到来侵扰了当地居民的安静生活,他们诡计将这片人们赖以保存的地盘据为己有,对于居民们来说,流浪失所的生活似乎在所难免。米奇(西恩·奥斯汀 Sean Astin 饰)和布莱登(乔什·布洛林 Josh Brolin 饰)是一对兄弟,一次偶然中,他们获得了一张年月久远的海盗藏宝图。这一发现让兄弟两人欣喜若狂,由于假如藏宝图所言不假,那末他们就可以守住他们的故里。
  在朋友们的帮助下,兄弟两人找到了宝藏的进口,它不在别处,正在福瑞特利家的楼下。让众人感应非常头痛的是,这个福瑞特利家属在小镇上有着远扬的坏名声,当宝藏存在的消息风行一时后,他们明显已经为了可以将其据为己有而展开了行动。

  1. Video
  2. ID                                       : 1
  3. ID in the original source medium         : 4113 (0x1011)
  4. Format                                   : HEVC
  5. Format/Info                              : High Efficiency Video Coding
  6. Format profile                           : Main 10@L5.1@High
  7. HDR format                               : SMPTE ST 2086, HDR10 compatible
  8. Codec ID                                 : V_MPEGH/ISO/HEVC
  9. Duration                                 : 1 h 53 min
  10. Bit rate                                 : 63.7 Mb/s
  11. Width                                    : 3 840 pixels
  12. Height                                   : 2 160 pixels
  13. Display aspect ratio                     : 16:9
  14. Frame rate mode                          : Constant
  15. Frame rate                               : 23.976 (24000/1001/45378) FPS
  16. Color space                              : YUV
  17. Chroma subsampling                       : 4:2:0 (Type 2)
  18. Bit depth                                : 10 bits
  19. Bits/(Pixel*Frame)                       : 0.321
  20. Stream size                              : 50.7 GiB (95%)
  21. Title                                    : The.Goonies.1985.2160p.BluRay.REMUX.HEVC.DTS-HD.MA.5.1-FGT
  22. Writing library                          : ATEME Titan File 3.9.0 (4.9.0.0)        
  23. Language                                 : English
  24. Default                                  : No
  25. Forced                                   : No
  26. Color range                              : Limited
  27. Color primaries                          : BT.2020
  28. Transfer characteristics                 : PQ
  29. Matrix coefficients                      : BT.2020 non-constant
  30. Mastering display color primaries        : Display P3
  31. Mastering display luminance              : min: 0.0050 cd/m2, max: 4000 cd/m2
  32. Maximum Content Light Level              : 343 cd/m2
  33. Maximum Frame-Average Light Level        : 106 cd/m2
  34. Original source medium                   : Blu-ray

  35. Audio #1
  36. ID                                       : 2
  37. ID in the original source medium         : 4352 (0x1100)
  38. Format                                   : DTS XLL
  39. Format/Info                              : Digital Theater Systems
  40. Commercial name                          : DTS-HD Master Audio
  41. Codec ID                                 : A_DTS
  42. Duration                                 : 1 h 53 min
  43. Bit rate mode                            : Variable
  44. Bit rate                                 : 2 300 kb/s
  45. Channel(s)                               : 6 channels
  46. Channel layout                           : C L R Ls Rs LFE
  47. Sampling rate                            : 48.0 kHz
  48. Frame rate                               : 93.750 FPS (512 SPF)
  49. Bit depth                                : 16 bits
  50. Compression mode                         : Lossless
  51. Stream size                              : 1.83 GiB (3%)
  52. Title                                    : The.Goonies.1985.2160p.BluRay.REMUX.HEVC.DTS-HD.MA.5.1-FGT
  53. Language                                 : English
  54. Default                                  : Yes
  55. Forced                                   : No
  56. Original source medium                   : Blu-ray

  57. Audio #2
  58. ID                                       : 3
  59. ID in the original source medium         : 4353 (0x1101)
  60. Format                                   : AC-3
  61. Format/Info                              : Audio Coding 3
  62. Commercial name                          : Dolby Digital
  63. Codec ID                                 : A_AC3
  64. Duration                                 : 1 h 53 min
  65. Bit rate mode                            : Constant
  66. Bit rate                                 : 192 kb/s
  67. Channel(s)                               : 2 channels
  68. Channel layout                           : L R
  69. Sampling rate                            : 48.0 kHz
  70. Frame rate                               : 31.250 FPS (1536 SPF)
  71. Compression mode                         : Lossy
  72. Stream size                              : 157 MiB (0%)
  73. Title                                    : The.Goonies.1985.2160p.BluRay.REMUX.HEVC.DTS-HD.MA.5.1-FGT
  74. Language                                 : French
  75. Service kind                             : Complete Main
  76. Default                                  : No
  77. Forced                                   : No
  78. Original source medium                   : Blu-ray

  79. Audio #3
  80. ID                                       : 4
  81. ID in the original source medium         : 4354 (0x1102)
  82. Format                                   : AC-3
  83. Format/Info                              : Audio Coding 3
  84. Commercial name                          : Dolby Digital
  85. Codec ID                                 : A_AC3
  86. Duration                                 : 1 h 53 min
  87. Bit rate mode                            : Constant
  88. Bit rate                                 : 192 kb/s
  89. Channel(s)                               : 2 channels
  90. Channel layout                           : L R
  91. Sampling rate                            : 48.0 kHz
  92. Frame rate                               : 31.250 FPS (1536 SPF)
  93. Compression mode                         : Lossy
  94. Stream size                              : 157 MiB (0%)
  95. Title                                    : The.Goonies.1985.2160p.BluRay.REMUX.HEVC.DTS-HD.MA.5.1-FGT
  96. Language                                 : Spanish
  97. Service kind                             : Complete Main
  98. Default                                  : No
  99. Forced                                   : No
  100. Original source medium                   : Blu-ray

  101. Audio #4
  102. ID                                       : 5
  103. ID in the original source medium         : 4355 (0x1103)
  104. Format                                   : AC-3
  105. Format/Info                              : Audio Coding 3
  106. Commercial name                          : Dolby Digital
  107. Codec ID                                 : A_AC3
  108. Duration                                 : 1 h 53 min
  109. Bit rate mode                            : Constant
  110. Bit rate                                 : 192 kb/s
  111. Channel(s)                               : 2 channels
  112. Channel layout                           : L R
  113. Sampling rate                            : 48.0 kHz
  114. Frame rate                               : 31.250 FPS (1536 SPF)
  115. Compression mode                         : Lossy
  116. Stream size                              : 157 MiB (0%)
  117. Title                                    : The.Goonies.1985.2160p.BluRay.REMUX.HEVC.DTS-HD.MA.5.1-FGT
  118. Language                                 : Dutch
  119. Service kind                             : Complete Main
  120. Default                                  : No
  121. Forced                                   : No
  122. Original source medium                   : Blu-ray

  123. Audio #5
  124. ID                                       : 6
  125. ID in the original source medium         : 4356 (0x1104)
  126. Format                                   : AC-3
  127. Format/Info                              : Audio Coding 3
  128. Commercial name                          : Dolby Digital
  129. Codec ID                                 : A_AC3
  130. Duration                                 : 1 h 53 min
  131. Bit rate mode                            : Constant
  132. Bit rate                                 : 192 kb/s
  133. Channel(s)                               : 1 channel
  134. Channel layout                           : C
  135. Sampling rate                            : 48.0 kHz
  136. Frame rate                               : 31.250 FPS (1536 SPF)
  137. Compression mode                         : Lossy
  138. Stream size                              : 157 MiB (0%)
  139. Title                                    : The.Goonies.1985.2160p.BluRay.REMUX.HEVC.DTS-HD.MA.5.1-FGT
  140. Language                                 : Spanish
  141. Service kind                             : Complete Main
  142. Default                                  : No
  143. Forced                                   : No
  144. Original source medium                   : Blu-ray

  145. Audio #6
  146. ID                                       : 7
  147. ID in the original source medium         : 4357 (0x1105)
  148. Format                                   : AC-3
  149. Format/Info                              : Audio Coding 3
  150. Commercial name                          : Dolby Digital
  151. Codec ID                                 : A_AC3
  152. Duration                                 : 1 h 53 min
  153. Bit rate mode                            : Constant
  154. Bit rate                                 : 192 kb/s
  155. Channel(s)                               : 2 channels
  156. Channel layout                           : L R
  157. Sampling rate                            : 48.0 kHz
  158. Frame rate                               : 31.250 FPS (1536 SPF)
  159. Compression mode                         : Lossy
  160. Stream size                              : 157 MiB (0%)
  161. Title                                    : The.Goonies.1985.2160p.BluRay.REMUX.HEVC.DTS-HD.MA.5.1-FGT
  162. Language                                 : Czech
  163. Service kind                             : Complete Main
  164. Default                                  : No
  165. Forced                                   : No
  166. Original source medium                   : Blu-ray

  167. Audio #7
  168. ID                                       : 8
  169. ID in the original source medium         : 4360 (0x1108)
  170. Format                                   : AC-3
  171. Format/Info                              : Audio Coding 3
  172. Commercial name                          : Dolby Digital
  173. Codec ID                                 : A_AC3
  174. Duration                                 : 1 h 53 min
  175. Bit rate mode                            : Constant
  176. Bit rate                                 : 192 kb/s
  177. Channel(s)                               : 2 channels
  178. Channel layout                           : L R
  179. Sampling rate                            : 48.0 kHz
  180. Frame rate                               : 31.250 FPS (1536 SPF)
  181. Compression mode                         : Lossy
  182. Stream size                              : 157 MiB (0%)
  183. Title                                    : The.Goonies.1985.2160p.BluRay.REMUX.HEVC.DTS-HD.MA.5.1-FGT
  184. Language                                 : Italian
  185. Service kind                             : Complete Main
  186. Default                                  : No
  187. Forced                                   : No
  188. Original source medium                   : Blu-ray

  189. Text #1
  190. ID                                       : 9
  191. Format                                   : UTF-8
  192. Codec ID                                 : S_TEXT/UTF8
  193. Codec ID/Info                            : UTF-8 Plain Text
  194. Duration                                 : 1 h 47 min
  195. Bit rate                                 : 60 b/s
  196. Count of elements                        : 1422
  197. Stream size                              : 48.1 KiB (0%)
  198. Title                                    : English-SRT
  199. Language                                 : English
  200. Default                                  : Yes
  201. Forced                                   : No

  202. Text #2
  203. ID                                       : 10
  204. ID in the original source medium         : 4769 (0x12A1)
  205. Format                                   : PGS
  206. Muxing mode                              : zlib
  207. Codec ID                                 : S_HDMV/PGS
  208. Codec ID/Info                            : Picture based subtitle format used on BDs/HD-DVDs
  209. Duration                                 : 1 h 48 min
  210. Bit rate                                 : 38.2 kb/s
  211. Count of elements                        : 3258
  212. Stream size                              : 29.6 MiB (0%)
  213. Title                                    : English-PGS
  214. Language                                 : English
  215. Default                                  : No
  216. Forced                                   : No
  217. Original source medium                   : Blu-ray

  218. Text #3
  219. ID                                       : 11
  220. ID in the original source medium         : 4770 (0x12A2)
  221. Format                                   : PGS
  222. Muxing mode                              : zlib
  223. Codec ID                                 : S_HDMV/PGS
  224. Codec ID/Info                            : Picture based subtitle format used on BDs/HD-DVDs
  225. Duration                                 : 1 h 53 min
  226. Bit rate                                 : 23.4 kb/s
  227. Count of elements                        : 2286
  228. Stream size                              : 18.9 MiB (0%)
  229. Title                                    : French-PGS
  230. Language                                 : French
  231. Default                                  : No
  232. Forced                                   : No
  233. Original source medium                   : Blu-ray

  234. Text #4
  235. ID                                       : 12
  236. ID in the original source medium         : 4771 (0x12A3)
  237. Format                                   : PGS
  238. Muxing mode                              : zlib
  239. Codec ID                                 : S_HDMV/PGS
  240. Codec ID/Info                            : Picture based subtitle format used on BDs/HD-DVDs
  241. Duration                                 : 1 h 53 min
  242. Bit rate                                 : 26.3 kb/s
  243. Count of elements                        : 2750
  244. Stream size                              : 21.3 MiB (0%)
  245. Title                                    : Spanish-PGS
  246. Language                                 : Spanish
  247. Default                                  : No
  248. Forced                                   : No
  249. Original source medium                   : Blu-ray

  250. Text #5
  251. ID                                       : 13
  252. ID in the original source medium         : 4772 (0x12A4)
  253. Format                                   : PGS
  254. Muxing mode                              : zlib
  255. Codec ID                                 : S_HDMV/PGS
  256. Codec ID/Info                            : Picture based subtitle format used on BDs/HD-DVDs
  257. Duration                                 : 1 h 53 min
  258. Bit rate                                 : 28.6 kb/s
  259. Count of elements                        : 2190
  260. Stream size                              : 23.2 MiB (0%)
  261. Title                                    : Dutch-PGS
  262. Language                                 : Dutch
  263. Default                                  : No
  264. Forced                                   : No
  265. Original source medium                   : Blu-ray

  266. Text #6
  267. ID                                       : 14
  268. ID in the original source medium         : 4773 (0x12A5)
  269. Format                                   : PGS
  270. Muxing mode                              : zlib
  271. Codec ID                                 : S_HDMV/PGS
  272. Codec ID/Info                            : Picture based subtitle format used on BDs/HD-DVDs
  273. Duration                                 : 1 h 53 min
  274. Bit rate                                 : 30.0 kb/s
  275. Count of elements                        : 2806
  276. Stream size                              : 24.3 MiB (0%)
  277. Title                                    : Chinese-PGS
  278. Language                                 : Chinese
  279. Default                                  : No
  280. Forced                                   : No
  281. Original source medium                   : Blu-ray

  282. Text #7
  283. ID                                       : 15
  284. ID in the original source medium         : 4774 (0x12A6)
  285. Format                                   : PGS
  286. Muxing mode                              : zlib
  287. Codec ID                                 : S_HDMV/PGS
  288. Codec ID/Info                            : Picture based subtitle format used on BDs/HD-DVDs
  289. Duration                                 : 1 h 53 min
  290. Bit rate                                 : 19.7 kb/s
  291. Count of elements                        : 2738
  292. Stream size                              : 16.0 MiB (0%)
  293. Title                                    : Korean-PGS
  294. Language                                 : Korean
  295. Default                                  : No
  296. Forced                                   : No
  297. Original source medium                   : Blu-ray

  298. Text #8
  299. ID                                       : 16
  300. ID in the original source medium         : 4775 (0x12A7)
  301. Format                                   : PGS
  302. Muxing mode                              : zlib
  303. Codec ID                                 : S_HDMV/PGS
  304. Codec ID/Info                            : Picture based subtitle format used on BDs/HD-DVDs
  305. Duration                                 : 1 h 53 min
  306. Bit rate                                 : 28.7 kb/s
  307. Count of elements                        : 2784
  308. Stream size                              : 23.2 MiB (0%)
  309. Title                                    : Spanish-PGS
  310. Language                                 : Spanish
  311. Default                                  : No
  312. Forced                                   : No
  313. Original source medium                   : Blu-ray

  314. Text #9
  315. ID                                       : 17
  316. ID in the original source medium         : 4776 (0x12A8)
  317. Format                                   : PGS
  318. Muxing mode                              : zlib
  319. Codec ID                                 : S_HDMV/PGS
  320. Codec ID/Info                            : Picture based subtitle format used on BDs/HD-DVDs
  321. Duration                                 : 1 h 53 min
  322. Bit rate                                 : 24.5 kb/s
  323. Count of elements                        : 2764
  324. Stream size                              : 19.8 MiB (0%)
  325. Title                                    : Czech-PGS
  326. Language                                 : Czech
  327. Default                                  : No
  328. Forced                                   : No
  329. Original source medium                   : Blu-ray

  330. Text #10
  331. ID                                       : 18
  332. ID in the original source medium         : 4777 (0x12A9)
  333. Format                                   : PGS
  334. Muxing mode                              : zlib
  335. Codec ID                                 : S_HDMV/PGS
  336. Codec ID/Info                            : Picture based subtitle format used on BDs/HD-DVDs
  337. Duration                                 : 1 h 53 min
  338. Bit rate                                 : 28.7 kb/s
  339. Count of elements                        : 2762
  340. Stream size                              : 23.3 MiB (0%)
  341. Title                                    : Romanian-PGS
  342. Language                                 : Romanian
  343. Default                                  : No
  344. Forced                                   : No
  345. Original source medium                   : Blu-ray

  346. Text #11
  347. ID                                       : 19
  348. ID in the original source medium         : 4778 (0x12AA)
  349. Format                                   : PGS
  350. Muxing mode                              : zlib
  351. Codec ID                                 : S_HDMV/PGS
  352. Codec ID/Info                            : Picture based subtitle format used on BDs/HD-DVDs
  353. Duration                                 : 1 h 53 min
  354. Bit rate                                 : 32.3 kb/s
  355. Count of elements                        : 2810
  356. Stream size                              : 26.2 MiB (0%)
  357. Title                                    : Thai-PGS
  358. Language                                 : Thai
  359. Default                                  : No
  360. Forced                                   : No
  361. Original source medium                   : Blu-ray

  362. Text #12
  363. ID                                       : 20
  364. ID in the original source medium         : 4779 (0x12AB)
  365. Format                                   : PGS
  366. Muxing mode                              : zlib
  367. Codec ID                                 : S_HDMV/PGS
  368. Codec ID/Info                            : Picture based subtitle format used on BDs/HD-DVDs
  369. Duration                                 : 1 h 32 min
  370. Bit rate                                 : 370 b/s
  371. Count of elements                        : 24
  372. Stream size                              : 251 KiB (0%)
  373. Title                                    : French-FORCED-PGS
  374. Language                                 : French
  375. Default                                  : No
  376. Forced                                   : No
  377. Original source medium                   : Blu-ray

  378. Text #13
  379. ID                                       : 21
  380. ID in the original source medium         : 4780 (0x12AC)
  381. Format                                   : PGS
  382. Muxing mode                              : zlib
  383. Codec ID                                 : S_HDMV/PGS
  384. Codec ID/Info                            : Picture based subtitle format used on BDs/HD-DVDs
  385. Duration                                 : 1 h 43 min
  386. Bit rate                                 : 410 b/s
  387. Count of elements                        : 34
  388. Stream size                              : 310 KiB (0%)
  389. Title                                    : Spanish-FORCED-PGS
  390. Language                                 : Spanish
  391. Default                                  : No
  392. Forced                                   : No
  393. Original source medium                   : Blu-ray

  394. Text #14
  395. ID                                       : 22
  396. ID in the original source medium         : 4781 (0x12AD)
  397. Format                                   : PGS
  398. Muxing mode                              : zlib
  399. Codec ID                                 : S_HDMV/PGS
  400. Codec ID/Info                            : Picture based subtitle format used on BDs/HD-DVDs
  401. Duration                                 : 1 h 44 min
  402. Bit rate                                 : 369 b/s
  403. Count of elements                        : 30
  404. Stream size                              : 283 KiB (0%)
  405. Title                                    : Dutch-FORCED-PGS
  406. Language                                 : Dutch
  407. Default                                  : No
  408. Forced                                   : No
  409. Original source medium                   : Blu-ray

  410. Text #15
  411. ID                                       : 23
  412. ID in the original source medium         : 4782 (0x12AE)
  413. Format                                   : PGS
  414. Muxing mode                              : zlib
  415. Codec ID                                 : S_HDMV/PGS
  416. Codec ID/Info                            : Picture based subtitle format used on BDs/HD-DVDs
  417. Duration                                 : 53 min 42 s
  418. Bit rate                                 : 610 b/s
  419. Count of elements                        : 24
  420. Stream size                              : 240 KiB (0%)
  421. Title                                    : Spanish-FORCED-PGS
  422. Language                                 : Spanish
  423. Default                                  : No
  424. Forced                                   : No
  425. Original source medium                   : Blu-ray

  426. Text #16
  427. ID                                       : 24
  428. ID in the original source medium         : 4783 (0x12AF)
  429. Format                                   : PGS
  430. Muxing mode                              : zlib
  431. Codec ID                                 : S_HDMV/PGS
  432. Codec ID/Info                            : Picture based subtitle format used on BDs/HD-DVDs
  433. Duration                                 : 53 min 42 s
  434. Bit rate                                 : 155 b/s
  435. Count of elements                        : 10
  436. Stream size                              : 61.2 KiB (0%)
  437. Title                                    : Czech-FORCED-PGS
  438. Language                                 : Czech
  439. Default                                  : No
  440. Forced                                   : No
  441. Original source medium                   : Blu-ray

  442. Text #17
  443. ID                                       : 25
  444. ID in the original source medium         : 4786 (0x12B2)
  445. Format                                   : PGS
  446. Muxing mode                              : zlib
  447. Codec ID                                 : S_HDMV/PGS
  448. Codec ID/Info                            : Picture based subtitle format used on BDs/HD-DVDs
  449. Duration                                 : 1 h 53 min
  450. Bit rate                                 : 35.3 kb/s
  451. Count of elements                        : 3254
  452. Stream size                              : 28.7 MiB (0%)
  453. Title                                    : Italian-PGS
  454. Language                                 : Italian
  455. Default                                  : No
  456. Forced                                   : No
  457. Original source medium                   : Blu-ray

  458. Text #18
  459. ID                                       : 26
  460. ID in the original source medium         : 4787 (0x12B3)
  461. Format                                   : PGS
  462. Muxing mode                              : zlib
  463. Codec ID                                 : S_HDMV/PGS
  464. Codec ID/Info                            : Picture based subtitle format used on BDs/HD-DVDs
  465. Duration                                 : 1 h 43 min
  466. Bit rate                                 : 406 b/s
  467. Count of elements                        : 32
  468. Stream size                              : 307 KiB (0%)
  469. Title                                    : Italian-FORCED-PGS
  470. Language                                 : Italian
  471. Default                                  : No
  472. Forced                                   : No
  473. Original source medium                   : Blu-ray

  474. Menu
  475. 00:00:00.000                             : en:Chapter 01
  476. 00:05:04.554                             : en:Chapter 02
  477. 00:07:08.636                             : en:Chapter 03
  478. 00:09:54.302                             : en:Chapter 04
  479. 00:13:49.370                             : en:Chapter 05
  480. 00:20:02.159                             : en:Chapter 06
  481. 00:22:44.738                             : en:Chapter 07
  482. 00:25:37.327                             : en:Chapter 08
  483. 00:27:13.006                             : en:Chapter 09
  484. 00:30:40.421                             : en:Chapter 10
  485. 00:33:33.970                             : en:Chapter 11
  486. 00:36:48.164                             : en:Chapter 12
  487. 00:38:42.194                             : en:Chapter 13
  488. 00:42:13.113                             : en:Chapter 14
  489. 00:46:10.434                             : en:Chapter 15
  490. 00:48:42.836                             : en:Chapter 16
  491. 00:49:47.442                             : en:Chapter 17
  492. 00:52:52.002                             : en:Chapter 18
  493. 00:55:47.802                             : en:Chapter 19
  494. 00:58:12.155                             : en:Chapter 20
  495. 00:59:31.150                             : en:Chapter 21
  496. 01:03:34.018                             : en:Chapter 22
  497. 01:07:11.736                             : en:Chapter 23
  498. 01:09:45.681                             : en:Chapter 24
  499. 01:12:47.571                             : en:Chapter 25
  500. 01:15:19.848                             : en:Chapter 26
  501. 01:18:18.443                             : en:Chapter 27
  502. 01:22:06.630                             : en:Chapter 28
  503. 01:23:39.639                             : en:Chapter 29
  504. 01:27:14.896                             : en:Chapter 30
  505. 01:30:33.970                             : en:Chapter 31
  506. 01:33:39.113                             : en:Chapter 32
  507. 01:38:38.704                             : en:Chapter 33
  508. 01:41:27.456                             : en:Chapter 34
  509. 01:45:15.058                             : en:Chapter 35
  510. 01:47:13.051                             : en:Chapter 36
  511. 01:48:31.004                             : en:Chapter 37
复制代码


七宝奇谋/小灵精 The.Goonies.1985.2160p.BluRay.REMUX.HEVC.DTS-HD.MA.5.1-FGT 53.62GB-2.png


七宝奇谋/小灵精 The.Goonies.1985.2160p.BluRay.REMUX.HEVC.DTS-HD.MA.5.1-FGT 53.62GB-3.png


七宝奇谋/小灵精 The.Goonies.1985.2160p.BluRay.REMUX.HEVC.DTS-HD.MA.5.1-FGT 53.62GB-4.png




本帖隐藏的下载地址需要VIP会员才可阅读,您需要升级才可阅读,点击这里升级VIP
回复

使用道具 举报

懒得打字嘛,点击右侧快捷回复 【右侧内容,后台自定义】
您需要登录后才可以回帖 登录 | 立即注册

本版积分规则

Archiver|手机版|小黑屋| 中国高清网 ( ICP备17007870号-2 ) |网站地图 

GMT+8, 2020-9-26 00:34 , Processed in 0.268371 second(s), 40 queries .

Powered by HDchina X3.4

Copyright 2017-2019©HDchina.All right reserved

返回顶部 联系我们