查看: 259|回复: 4

[动作片] 艾娃/伊芙 Ava.2020.1080p.BluRay.x264.DTS-HD.MA.5.1-FGT 10.33GB

[复制链接]

 成长值: 7315

级别:资源管理组

注册时间
2017-10-20
最后登录
2020-9-29
听众
1
收听
0
主题
103319
蓝光币
199195 枚
贡献
21715 点
发表于 2020-9-12 14:51:46 | 显示全部楼层 |阅读模式




译  名 艾娃 / Eve / 伊芙 / 追杀艾娃(台)
片  名 Ava
年  代 2020
产  地 美国
类  别 行动 / 惊悚 / 犯罪
语  言 英语
上映日期 2020-07-02(匈牙利) / 2020-08-25(加拿大收集) / 2020-09-25(美国)
IMDb评分  5.7/10 from 872 users
IMDb链接  https://www.imdb.com/title/tt8784956
豆瓣评分 0/10 from 0 users
豆瓣链接 https://movie.douban.com/subject/30289869/
片  长 96分钟
导  演 泰特·泰勒 Tate Taylor
编  剧 马修·纽顿 Matthew Newton
主  演 杰西卡·查斯坦 Jessica Chastain
       科林·法瑞尔 Colin Farrell
       约翰·马尔科维奇 John Malkovich
       吉娜·戴维斯 Geena Davis
       陈冲 Joan Chen
       戴安娜·西尔弗斯 Diana Silvers
       科曼 Common
       艾恩·格拉法德 Ioan Gruffudd
       杰丝·威克斯勒 Jess Weixler
       埃夫卡·科瓦拉西尤斯 Efka Kvaraciejus
       安妮·比萨比亚 Annie Pisapia
       克里斯托弗·J·多米格 Christopher J. Domig


标  签 行动 | 杰西卡·查斯坦 | 美国 | 美国电影 | 2020 | 电影 | Jessica·Chastain | 剧情

简  介  

  顶尖杀手艾娃效忠于一个神祕构造,在全球各地履行高代价方针的暗杀行动。但是,一次出了过失的行动,让艾娃身陷生死危机。面临各路杀手遮天蔽日的追杀,无路可退的艾娃惟有杀出血路,才有活下去的机遇…

  1. Video
  2. ID                                       : 1
  3. Format                                   : AVC
  4. Format/Info                              : Advanced Video Codec
  5. Format profile                           : High@L4.1
  6. Format settings                          : CABAC / 4 Ref Frames
  7. Format settings, CABAC                   : Yes
  8. Format settings, Reference frames        : 4 frames
  9. Codec ID                                 : V_MPEG4/ISO/AVC
  10. Duration                                 : 1 h 36 min
  11. Bit rate                                 : 11.5 Mb/s
  12. Width                                    : 1 920 pixels
  13. Height                                   : 800 pixels
  14. Display aspect ratio                     : 2.40:1
  15. Frame rate mode                          : Constant
  16. Frame rate                               : 23.976 (24000/1001/45378) FPS
  17. Color space                              : YUV
  18. Chroma subsampling                       : 4:2:0
  19. Bit depth                                : 8 bits
  20. Scan type                                : Progressive
  21. Bits/(Pixel*Frame)                       : 0.312
  22. Stream size                              : 7.78 GiB (75%)
  23. Title                                    : Ava.2020.1080p.BluRay.x264.DTS-HD.MA.5.1-FGT
  24. Writing library                          : x264 core 148 r2795M aaa9aa8
  25. Encoding settings                        : cabac=1 / ref=4 / deblock=1:-2:-2 / analyse=0x3:0x113 / me=umh / subme=9 / psy=1 / psy_rd=1.00:0.15 / mixed_ref=1 / me_range=16 / chroma_me=1 / trellis=2 / 8x8dct=1 / cqm=0 / deadzone=21,11 / fast_pskip=1 / chroma_qp_offset=-3 / threads=72 / lookahead_threads=3 / sliced_threads=0 / nr=0 / decimate=1 / interlaced=0 / bluray_compat=0 / constrained_intra=0 / bframes=3 / b_pyramid=2 / b_adapt=1 / b_bias=0 / direct=3 / weightb=1 / open_gop=0 / weightp=2 / keyint=250 / keyint_min=25 / scenecut=40 / intra_refresh=0 / rc_lookahead=50 / rc=2pass / mbtree=1 / bitrate=11500 / ratetol=1.0 / qcomp=0.60 / qpmin=0 / qpmax=69 / qpstep=4 / cplxblur=20.0 / qblur=0.5 / vbv_maxrate=31250 / vbv_bufsize=31250 / nal_hrd=none / filler=0 / ip_ratio=1.40 / aq=1:1.00
  26. Language                                 : English
  27. Default                                  : Yes
  28. Forced                                   : No

  29. Audio
  30. ID                                       : 2
  31. Format                                   : DTS XLL
  32. Format/Info                              : Digital Theater Systems
  33. Commercial name                          : DTS-HD Master Audio
  34. Codec ID                                 : A_DTS
  35. Duration                                 : 1 h 36 min
  36. Bit rate mode                            : Variable
  37. Bit rate                                 : 3 753 kb/s
  38. Channel(s)                               : 6 channels
  39. Channel layout                           : C L R Ls Rs LFE
  40. Sampling rate                            : 48.0 kHz
  41. Frame rate                               : 93.750 FPS (512 SPF)
  42. Bit depth                                : 24 bits
  43. Compression mode                         : Lossless
  44. Stream size                              : 2.54 GiB (25%)
  45. Title                                    : Ava.2020.1080p.BluRay.x264.DTS-HD.MA.5.1-FGT
  46. Language                                 : English
  47. Default                                  : Yes
  48. Forced                                   : No

  49. Text #1
  50. ID                                       : 3
  51. Format                                   : UTF-8
  52. Codec ID                                 : S_TEXT/UTF8
  53. Codec ID/Info                            : UTF-8 Plain Text
  54. Duration                                 : 1 h 30 min
  55. Bit rate                                 : 45 b/s
  56. Count of elements                        : 909
  57. Stream size                              : 30.5 KiB (0%)
  58. Title                                    : English-SRT
  59. Language                                 : English
  60. Default                                  : Yes
  61. Forced                                   : No

  62. Text #2
  63. ID                                       : 4
  64. Format                                   : PGS
  65. Muxing mode                              : zlib
  66. Codec ID                                 : S_HDMV/PGS
  67. Codec ID/Info                            : Picture based subtitle format used on BDs/HD-DVDs
  68. Duration                                 : 1 h 31 min
  69. Bit rate                                 : 24.5 kb/s
  70. Count of elements                        : 1810
  71. Stream size                              : 16.0 MiB (0%)
  72. Title                                    : English-PGS
  73. Language                                 : English
  74. Default                                  : No
  75. Forced                                   : No

  76. Menu
  77. 00:00:00.000                             : en:Chapter 01
  78. 00:11:07.542                             : en:Chapter 02
  79. 00:21:53.145                             : en:Chapter 03
  80. 00:32:22.899                             : en:Chapter 04
  81. 00:44:26.497                             : en:Chapter 05
  82. 00:58:33.427                             : en:Chapter 06
  83. 01:10:38.192                             : en:Chapter 07
  84. 01:18:23.949                             : en:Chapter 08
  85. 01:32:28.752                             : en:Chapter 09
复制代码













回复

使用道具 举报

级别:普通观众 Lv.2

注册时间
2020-5-26
最后登录
2020-9-26
听众
4
收听
0
主题
0
蓝光币
60 枚
贡献
0 点
发表于 2020-9-16 16:34:03 | 显示全部楼层
楼主发贴辛苦了,谢谢楼主分享!我觉得中国高清电影网是注册对了!
回复

使用道具 举报

级别:荣升主角 Lv.5

注册时间
2019-10-27
最后登录
2020-9-28
听众
5
收听
0
主题
0
蓝光币
694 枚
贡献
0 点
QQ
发表于 2020-9-18 08:59:13 | 显示全部楼层

楼主太厉害了!楼主,电影应该很好看我觉得中国高清电影网真是个好地方!
回复

使用道具 举报

级别:普通观众 Lv.2

注册时间
2020-5-18
最后登录
2020-9-21
听众
5
收听
0
主题
0
蓝光币
58 枚
贡献
0 点
发表于 2020-9-21 09:31:14 | 显示全部楼层

既然你诚信诚意的推荐了,那我就勉为其难的看看吧!中国高清电影网不走平凡路。
回复

使用道具 举报

级别:初级观众 Lv.1

注册时间
2020-9-22
最后登录
2020-9-28
听众
2
收听
0
主题
0
蓝光币
1 枚
贡献
0 点
发表于 7 天前 | 显示全部楼层
这是个好平台 竟然有这样的片源 开心
回复

使用道具 举报

懒得打字嘛,点击右侧快捷回复 【右侧内容,后台自定义】
您需要登录后才可以回帖 登录 | 立即注册

本版积分规则

Archiver|手机版|小黑屋| 中国高清网 ( ICP备17007870号-2 ) |网站地图 

GMT+8, 2020-9-29 03:33 , Processed in 0.158465 second(s), 40 queries .

Powered by HDchina X3.4

Copyright 2017-2019©HDchina.All right reserved

返回顶部 联系我们