查看: 322|回复: 1

[REMUX.HEVC] 揭秘海军陆战队 We.the.Marines.2017.DOCU.2160p.BluRay.REMUX.HEVC.SDR.DTS-HD.MA.TrueHD.7.1.Atmos-FGT 9.73GB

[复制链接]

 成长值: 7660

级别:资源管理组

注册时间
2017-10-20
最后登录
2020-10-17
听众
1
收听
0
主题
104263
蓝光币
206406 枚
贡献
21715 点
发表于 2020-9-6 19:25:34 | 显示全部楼层 |阅读模式
揭秘水兵陆战队 We.the.Marines.2017.DOCU.2160p.BluRay.REMUX.HEVC.SDR.DTS-HD.MA.TrueHD.7.1.Atmos-FGT 9.73GB-1.jpg



译  名 揭秘水兵陆战队
片  名 We, the Marines
年  代 2017
产  地 美国
类  别 记载片 / 短片
语  言 英语
上映日期 2017-07-21(美国)
IMDb评分  5.4/10 from 372 users
IMDb链接  https://www.imdb.com/title/tt7422506
豆瓣评分 0/10 from 0 users
豆瓣链接 https://movie.douban.com/subject/30269830/
片  长 38分钟
导  演 格雷戈·迈吉里弗雷 Greg MacGillivray
主  演 吉恩·哈克曼 Gene Hackman


标  签 记载片 | 军事 | 美国 | IMAX | 2017 | 短片 | 美国电影 | 紀錄片

简  介  

  这部记载片由身位演员和前水兵陆战队员的金·哈可曼讲解,展现了美国水兵陆战队成员的长大履历。

  1. Video
  2. ID                                       : 1
  3. ID in the original source medium         : 4113 (0x1011)
  4. Format                                   : HEVC
  5. Format/Info                              : High Efficiency Video Coding
  6. Format profile                           : Main 10@L5.1@High
  7. Codec ID                                 : V_MPEGH/ISO/HEVC
  8. Duration                                 : 37 min 53 s
  9. Bit rate                                 : 29.1 Mb/s
  10. Width                                    : 3 840 pixels
  11. Height                                   : 2 160 pixels
  12. Display aspect ratio                     : 16:9
  13. Frame rate mode                          : Constant
  14. Frame rate                               : 24.000 FPS
  15. Color space                              : YUV
  16. Chroma subsampling                       : 4:2:0
  17. Bit depth                                : 10 bits
  18. Bits/(Pixel*Frame)                       : 0.146
  19. Stream size                              : 7.71 GiB (79%)
  20. Title                                    : We.the.Marines.2017.DOCU.2160p.BluRay.REMUX.HEVC.SDR.DTS-HD.MA.TrueHD.7.1.Atmos-FGT
  21. Language                                 : English
  22. Default                                  : No
  23. Forced                                   : No
  24. Color range                              : Limited
  25. Color primaries                          : BT.709
  26. Transfer characteristics                 : BT.709
  27. Matrix coefficients                      : BT.709
  28. Original source medium                   : Blu-ray

  29. Audio #1
  30. ID                                       : 2
  31. ID in the original source medium         : 4352 (0x1100)
  32. Format                                   : MLP FBA 16-ch
  33. Format/Info                              : Meridian Lossless Packing FBA with 16-channel presentation
  34. Commercial name                          : Dolby TrueHD with Dolby Atmos
  35. Codec ID                                 : A_TRUEHD
  36. Duration                                 : 37 min 53 s
  37. Bit rate mode                            : Variable
  38. Bit rate                                 : 2 943 kb/s
  39. Maximum bit rate                         : 4 014 kb/s
  40. Channel(s)                               : 8 channels
  41. Channel layout                           : L R C LFE Ls Rs Lb Rb
  42. Sampling rate                            : 48.0 kHz
  43. Frame rate                               : 1 200.000 FPS (40 SPF)
  44. Compression mode                         : Lossless
  45. Stream size                              : 798 MiB (8%)
  46. Title                                    : We.the.Marines.2017.DOCU.2160p.BluRay.REMUX.HEVC.SDR.DTS-HD.MA.TrueHD.7.1.Atmos-FGT
  47. Language                                 : English
  48. Default                                  : Yes
  49. Forced                                   : No
  50. Original source medium                   : Blu-ray
  51. Number of dynamic objects                : 15
  52. Bed channel count                        : 1 channel
  53. Bed channel configuration                : LFE

  54. Audio #2
  55. ID                                       : 3
  56. Format                                   : DTS XLL
  57. Format/Info                              : Digital Theater Systems
  58. Commercial name                          : DTS-HD Master Audio
  59. Codec ID                                 : A_DTS
  60. Duration                                 : 37 min 53 s
  61. Bit rate mode                            : Variable
  62. Bit rate                                 : 3 979 kb/s
  63. Channel(s)                               : 8 channels
  64. Channel layout                           : C L R LFE Lb Rb Lss Rss
  65. Sampling rate                            : 48.0 kHz
  66. Frame rate                               : 93.750 FPS (512 SPF)
  67. Bit depth                                : 24 bits
  68. Compression mode                         : Lossless
  69. Stream size                              : 1.05 GiB (11%)
  70. Title                                    : We.the.Marines.2017.DOCU.2160p.BluRay.REMUX.HEVC.SDR.DTS-HD.MA.TrueHD.7.1.Atmos-FGT
  71. Language                                 : English
  72. Default                                  : No
  73. Forced                                   : No

  74. Audio #3
  75. ID                                       : 4
  76. ID in the original source medium         : 4352 (0x1100)
  77. Format                                   : AC-3
  78. Format/Info                              : Audio Coding 3
  79. Commercial name                          : Dolby Digital
  80. Codec ID                                 : A_AC3
  81. Duration                                 : 37 min 53 s
  82. Bit rate mode                            : Constant
  83. Bit rate                                 : 640 kb/s
  84. Channel(s)                               : 6 channels
  85. Channel layout                           : L R C LFE Ls Rs
  86. Sampling rate                            : 48.0 kHz
  87. Frame rate                               : 31.250 FPS (1536 SPF)
  88. Compression mode                         : Lossy
  89. Stream size                              : 173 MiB (2%)
  90. Title                                    : We.the.Marines.2017.DOCU.2160p.BluRay.REMUX.HEVC.SDR.DTS-HD.MA.TrueHD.7.1.Atmos-FGT
  91. Language                                 : English
  92. Service kind                             : Complete Main
  93. Default                                  : No
  94. Forced                                   : No
  95. Original source medium                   : Blu-ray

  96. Text #1
  97. ID                                       : 5
  98. Format                                   : UTF-8
  99. Codec ID                                 : S_TEXT/UTF8
  100. Codec ID/Info                            : UTF-8 Plain Text
  101. Duration                                 : 37 min 23 s
  102. Bit rate                                 : 65 b/s
  103. Count of elements                        : 572
  104. Stream size                              : 17.9 KiB (0%)
  105. Title                                    : English-SRT
  106. Language                                 : English
  107. Default                                  : Yes
  108. Forced                                   : No

  109. Text #2
  110. ID                                       : 6
  111. Format                                   : UTF-8
  112. Codec ID                                 : S_TEXT/UTF8
  113. Codec ID/Info                            : UTF-8 Plain Text
  114. Duration                                 : 37 min 48 s
  115. Bit rate                                 : 72 b/s
  116. Count of elements                        : 643
  117. Stream size                              : 20.2 KiB (0%)
  118. Title                                    : English-SDH-SRT
  119. Language                                 : English
  120. Default                                  : No
  121. Forced                                   : No

  122. Text #3
  123. ID                                       : 7
  124. ID in the original source medium         : 4608 (0x1200)
  125. Format                                   : PGS
  126. Muxing mode                              : zlib
  127. Codec ID                                 : S_HDMV/PGS
  128. Codec ID/Info                            : Picture based subtitle format used on BDs/HD-DVDs
  129. Duration                                 : 37 min 48 s
  130. Bit rate                                 : 30.3 kb/s
  131. Count of elements                        : 1292
  132. Stream size                              : 8.20 MiB (0%)
  133. Title                                    : English-PGS
  134. Language                                 : English
  135. Default                                  : No
  136. Forced                                   : No
  137. Original source medium                   : Blu-ray

  138. Menu
  139. 00:00:00.000                             : en:Chapter 01
  140. 00:04:14.500                             : en:Chapter 02
  141. 00:09:58.375                             : en:Chapter 03
  142. 00:14:02.416                             : en:Chapter 04
  143. 00:18:11.625                             : en:Chapter 05
  144. 00:21:08.583                             : en:Chapter 06
  145. 00:25:02.708                             : en:Chapter 07
  146. 00:28:49.333                             : en:Chapter 08
  147. 00:32:38.958                             : en:Chapter 09
  148. 00:37:04.125                             : en:Chapter 10
复制代码


揭秘水兵陆战队 We.the.Marines.2017.DOCU.2160p.BluRay.REMUX.HEVC.SDR.DTS-HD.MA.TrueHD.7.1.Atmos-FGT 9.73GB-2.png


揭秘水兵陆战队 We.the.Marines.2017.DOCU.2160p.BluRay.REMUX.HEVC.SDR.DTS-HD.MA.TrueHD.7.1.Atmos-FGT 9.73GB-3.png


揭秘水兵陆战队 We.the.Marines.2017.DOCU.2160p.BluRay.REMUX.HEVC.SDR.DTS-HD.MA.TrueHD.7.1.Atmos-FGT 9.73GB-4.png




本帖隐藏的下载地址需要VIP会员才可阅读,您需要升级才可阅读,点击这里升级VIP
回复

使用道具 举报

 成长值: 3805

级别:尊贵的会员

注册时间
2020-2-27
最后登录
2020-10-17
听众
3
收听
0
主题
0
蓝光币
139 枚
贡献
0 点
QQ
发表于 3 天前 | 显示全部楼层
楼主发贴辛苦了,谢谢楼主分享!我觉得中国高清电影网是注册对了!
回复

使用道具 举报

懒得打字嘛,点击右侧快捷回复 【右侧内容,后台自定义】
您需要登录后才可以回帖 登录 | 立即注册

本版积分规则

Archiver|手机版|小黑屋| 中国高清网 ( ICP备17007870号-2 ) |网站地图 

GMT+8, 2020-10-20 10:19 , Processed in 0.159373 second(s), 41 queries .

Powered by HDchina X3.4

Copyright 2017-2019©HDchina.All right reserved

返回顶部 联系我们