查看: 551|回复: 5

[10bit.SDR] 航空母舰:七海卫士 Aircraft.Carrier.Guardian.of.the.Seas.2016.DOCU.2160p.BluRay.x265.10bit.SDR.DTS-HD.MA.TrueHD.7.1.Atmos-SWTYBLZ 15.80GB

[复制链接]

 成长值: 7255

级别:资源管理组

注册时间
2017-10-20
最后登录
2020-9-23
听众
1
收听
0
主题
103189
蓝光币
198111 枚
贡献
21715 点
发表于 2020-9-6 19:25:21 | 显示全部楼层 |阅读模式
航空母舰:七海卫士 Aircraft.Carrier.Guardian.of.the.Seas.2016.DOCU.2160p.BluRay.x265.10bit.SDR.DTS-HD.MA.TrueHD.7.1.Atmos-SWTYBLZ 15.80GB-1.jpg



译  名 航空母舰:七海卫士
片  名 Aircraft Carrier: Guardian of the Seas
年  代 2016
产  地 美国
类  别 记载片
语  言 英语
上映日期 2016-06-17(美国) / 2017-05-26(美国)
IMDb评分  7.6/10 from 47 users
IMDb链接  https://www.imdb.com/title/tt7221840
豆瓣评分 8.4/10 from 83 users
豆瓣链接 https://movie.douban.com/subject/30289421/
片  长 25分钟(2016年首映的短版) 43分钟(2017年首映的长版)
导  演 Stephen Low
编  剧 Stephen Low
主  演 毛里斯·迪恩·温特 Maurice Dean Wint


标  签 记载片 | 美国 | 2016 | IMAX | 4K | 紀錄片 | 原盘 | 军事

简  介  

  天下水域的平安与飞行自在日益遭到严重应战,水兵航空兵是制胜的关键。置身于最大的跨国海上练习RIMPAC(环承平洋军事练习)中,兵舰巨舰结阵而行,一列列伸向海天之际,其中巍峨如山者,正是最巨大的工程壮举之一——现代化的美国核动力航空母舰。与舰上5,000名海空精英一同乡历这一场模拟战争练习吧。你将看到:尼米兹级核动力航空母舰、福特级核动力航空母舰,美国级两栖进犯舰,弗吉尼亚级进犯核潜艇,自力级滨海战役舰,F/A-18E/F战役机...以及最受期待的,初次出现在IMAX银幕上的F-35“闪电-2”战役机。

  1. Video
  2. ID                                       : 1
  3. Format                                   : HEVC
  4. Format/Info                              : High Efficiency Video Coding
  5. Format profile                           : Main 10@L5.1@High
  6. Codec ID                                 : V_MPEGH/ISO/HEVC
  7. Duration                                 : 43 min 4 s
  8. Bit rate                                 : 43.2 Mb/s
  9. Width                                    : 3 840 pixels
  10. Height                                   : 2 074 pixels
  11. Display aspect ratio                     : 1.85:1
  12. Frame rate mode                          : Constant
  13. Frame rate                               : 23.976 (24000/1001/45378) FPS
  14. Color space                              : YUV
  15. Chroma subsampling                       : 4:2:0
  16. Bit depth                                : 10 bits
  17. Bits/(Pixel*Frame)                       : 0.226
  18. Stream size                              : 13.0 GiB (83%)
  19. Title                                    : Aircraft.Carrier.Guardian.of.the.Seas.2016.DOCU.2160p.BluRay.x265.10bit.SDR.DTS-HD.MA.TrueHD.7.1.Atmos-SWTYBLZ
  20. Writing library                          : x265 3.0+1-ed72af837053:[Windows][GCC 8.2.0][64 bit] 10bit
  21. Encoding settings                        : cpuid=1111039 / frame-threads=6 / numa-pools=40 / wpp / no-pmode / no-pme / no-psnr / no-ssim / log-level=2 / input-csp=1 / input-res=3840x2074 / interlace=0 / total-frames=61957 / level-idc=51 / high-tier=1 / uhd-bd=0 / ref=3 / no-allow-non-conformance / repeat-headers / annexb / aud / hrd / info / hash=0 / no-temporal-layers / no-open-gop / min-keyint=1 / keyint=24 / gop-lookahead=0 / bframes=4 / b-adapt=2 / b-pyramid / bframe-bias=0 / rc-lookahead=25 / lookahead-slices=4 / scenecut=40 / radl=0 / no-splice / no-intra-refresh / ctu=64 / min-cu-size=8 / no-rect / no-amp / max-tu-size=32 / tu-inter-depth=1 / tu-intra-depth=1 / limit-tu=0 / rdoq-level=0 / dynamic-rd=0.00 / no-ssim-rd / signhide / no-tskip / nr-intra=0 / nr-inter=0 / no-constrained-intra / strong-intra-smoothing / max-merge=2 / limit-refs=3 / no-limit-modes / me=1 / subme=2 / merange=57 / temporal-mvp / weightp / no-weightb / no-analyze-src-pics / deblock=0:0 / no-sao / no-sao-non-deblock / rd=3 / no-early-skip / rskip / no-fast-intra / no-tskip-fast / no-cu-lossless / no-b-intra / no-splitrd-skip / rdpenalty=0 / psy-rd=2.00 / psy-rdoq=0.00 / no-rd-refine / no-lossless / cbqpoffs=0 / crqpoffs=0 / rc=crf / crf=16.0 / qcomp=0.60 / qpstep=4 / stats-write=0 / stats-read=0 / vbv-maxrate=160000 / vbv-bufsize=160000 / vbv-init=0.9 / crf-max=0.0 / crf-min=0.0 / ipratio=1.40 / pbratio=1.30 / aq-mode=1 / aq-strength=1.00 / cutree / zone-count=0 / no-strict-cbr / qg-size=32 / no-rc-grain / qpmax=69 / qpmin=0 / no-const-vbv / sar=1 / overscan=0 / videoformat=5 / range=0 / colorprim=2 / transfer=2 / colormatrix=2 / chromaloc=0 / display-window=0 / max-cll=0,0 / min-luma=0 / max-luma=1023 / log2-max-poc-lsb=8 / vui-timing-info / vui-hrd-info / slices=1 / opt-qp-pps / opt-ref-list-length-pps / no-multi-pass-opt-rps / scenecut-bias=0.05 / no-opt-cu-delta-qp / no-aq-motion / no-hdr / no-hdr-opt / no-dhdr10-opt / no-idr-recovery-sei / analysis-reuse-level=5 / scale-factor=0 / refine-intra=0 / refine-inter=0 / refine-mv=0 / refine-ctu-distortion=0 / no-limit-sao / ctu-info=0 / no-lowpass-dct / refine-analysis-type=0 / copy-pic=1 / max-ausize-factor=1.0 / no-dynamic-refine / no-single-sei / no-hevc-aq / qp-adaptation-range=1.00
  22. Default                                  : Yes
  23. Forced                                   : No

  24. Audio #1
  25. ID                                       : 2
  26. ID in the original source medium         : 4352 (0x1100)
  27. Format                                   : MLP FBA 16-ch
  28. Format/Info                              : Meridian Lossless Packing FBA with 16-channel presentation
  29. Commercial name                          : Dolby TrueHD with Dolby Atmos
  30. Codec ID                                 : A_TRUEHD
  31. Duration                                 : 43 min 4 s
  32. Bit rate mode                            : Variable
  33. Bit rate                                 : 3 939 kb/s
  34. Maximum bit rate                         : 5 259 kb/s
  35. Channel(s)                               : 8 channels
  36. Channel layout                           : L R C LFE Ls Rs Lb Rb
  37. Sampling rate                            : 48.0 kHz
  38. Frame rate                               : 1 200.000 FPS (40 SPF)
  39. Compression mode                         : Lossless
  40. Stream size                              : 1.19 GiB (8%)
  41. Title                                    : Aircraft.Carrier.Guardian.of.the.Seas.2016.DOCU.2160p.BluRay.x265.10bit.SDR.DTS-HD.MA.TrueHD.7.1.Atmos-SWTYBLZ
  42. Language                                 : English
  43. Default                                  : Yes
  44. Forced                                   : No
  45. Original source medium                   : Blu-ray
  46. Number of dynamic objects                : 11
  47. Bed channel count                        : 1 channel
  48. Bed channel configuration                : LFE

  49. Audio #2
  50. ID                                       : 3
  51. Format                                   : DTS XLL
  52. Format/Info                              : Digital Theater Systems
  53. Commercial name                          : DTS-HD Master Audio
  54. Codec ID                                 : A_DTS
  55. Duration                                 : 43 min 4 s
  56. Bit rate mode                            : Variable
  57. Bit rate                                 : 4 115 kb/s
  58. Channel(s)                               : 8 channels
  59. Channel layout                           : C L R LFE Lb Rb Lss Rss
  60. Sampling rate                            : 48.0 kHz
  61. Frame rate                               : 93.750 FPS (512 SPF)
  62. Bit depth                                : 24 bits
  63. Compression mode                         : Lossless
  64. Stream size                              : 1.24 GiB (8%)
  65. Title                                    : Aircraft.Carrier.Guardian.of.the.Seas.2016.DOCU.2160p.BluRay.x265.10bit.SDR.DTS-HD.MA.TrueHD.7.1.Atmos-SWTYBLZ
  66. Default                                  : No
  67. Forced                                   : No

  68. Audio #3
  69. ID                                       : 4
  70. ID in the original source medium         : 4352 (0x1100)
  71. Format                                   : AC-3
  72. Format/Info                              : Audio Coding 3
  73. Commercial name                          : Dolby Digital
  74. Codec ID                                 : A_AC3
  75. Duration                                 : 43 min 4 s
  76. Bit rate mode                            : Constant
  77. Bit rate                                 : 640 kb/s
  78. Channel(s)                               : 6 channels
  79. Channel layout                           : L R C LFE Ls Rs
  80. Sampling rate                            : 48.0 kHz
  81. Frame rate                               : 31.250 FPS (1536 SPF)
  82. Compression mode                         : Lossy
  83. Stream size                              : 197 MiB (1%)
  84. Title                                    : Aircraft.Carrier.Guardian.of.the.Seas.2016.DOCU.2160p.BluRay.x265.10bit.SDR.DTS-HD.MA.TrueHD.7.1.Atmos-SWTYBLZ
  85. Language                                 : English
  86. Service kind                             : Complete Main
  87. Default                                  : No
  88. Forced                                   : No
  89. Original source medium                   : Blu-ray

  90. Text #1
  91. ID                                       : 5
  92. Format                                   : UTF-8
  93. Codec ID                                 : S_TEXT/UTF8
  94. Codec ID/Info                            : UTF-8 Plain Text
  95. Duration                                 : 40 min 58 s
  96. Bit rate                                 : 61 b/s
  97. Count of elements                        : 445
  98. Stream size                              : 18.4 KiB (0%)
  99. Title                                    : English-SRT
  100. Language                                 : English
  101. Default                                  : Yes
  102. Forced                                   : No

  103. Text #2
  104. ID                                       : 6
  105. ID in the original source medium         : 4768 (0x12A0)
  106. Format                                   : PGS
  107. Muxing mode                              : zlib
  108. Codec ID                                 : S_HDMV/PGS
  109. Codec ID/Info                            : Picture based subtitle format used on BDs/HD-DVDs
  110. Duration                                 : 41 min 6 s
  111. Bit rate                                 : 33.3 kb/s
  112. Count of elements                        : 1046
  113. Stream size                              : 9.80 MiB (0%)
  114. Title                                    : English-PGS
  115. Language                                 : English
  116. Default                                  : No
  117. Forced                                   : No
  118. Original source medium                   : Blu-ray

  119. Menu
  120. 00:00:00.000                             : en:Chapter 01
  121. 00:02:56.843                             : en:Chapter 02
  122. 00:05:27.327                             : en:Chapter 03
  123. 00:09:01.582                             : en:Chapter 04
  124. 00:12:28.664                             : en:Chapter 05
  125. 00:17:00.019                             : en:Chapter 06
  126. 00:20:02.910                             : en:Chapter 07
  127. 00:26:46.771                             : en:Chapter 08
  128. 00:29:32.645                             : en:Chapter 09
  129. 00:33:21.624                             : en:Chapter 10
  130. 00:36:54.462                             : en:Chapter 11
  131. 00:41:32.781                             : en:Chapter 12
复制代码



航空母舰:七海卫士 Aircraft.Carrier.Guardian.of.the.Seas.2016.DOCU.2160p.BluRay.x265.10bit.SDR.DTS-HD.MA.TrueHD.7.1.Atmos-SWTYBLZ 15.80GB-2.png

航空母舰:七海卫士 Aircraft.Carrier.Guardian.of.the.Seas.2016.DOCU.2160p.BluRay.x265.10bit.SDR.DTS-HD.MA.TrueHD.7.1.Atmos-SWTYBLZ 15.80GB-3.png

航空母舰:七海卫士 Aircraft.Carrier.Guardian.of.the.Seas.2016.DOCU.2160p.BluRay.x265.10bit.SDR.DTS-HD.MA.TrueHD.7.1.Atmos-SWTYBLZ 15.80GB-4.png

航空母舰:七海卫士 Aircraft.Carrier.Guardian.of.the.Seas.2016.DOCU.2160p.BluRay.x265.10bit.SDR.DTS-HD.MA.TrueHD.7.1.Atmos-SWTYBLZ 15.80GB-5.png

航空母舰:七海卫士 Aircraft.Carrier.Guardian.of.the.Seas.2016.DOCU.2160p.BluRay.x265.10bit.SDR.DTS-HD.MA.TrueHD.7.1.Atmos-SWTYBLZ 15.80GB-6.png

航空母舰:七海卫士 Aircraft.Carrier.Guardian.of.the.Seas.2016.DOCU.2160p.BluRay.x265.10bit.SDR.DTS-HD.MA.TrueHD.7.1.Atmos-SWTYBLZ 15.80GB-7.png




本帖隐藏的下载地址需要VIP会员才可阅读,您需要升级才可阅读,点击这里升级VIP
回复

使用道具 举报

级别:初级观众 Lv.1

注册时间
2020-9-12
最后登录
2020-9-14
听众
2
收听
0
主题
0
蓝光币
1 枚
贡献
0 点
发表于 2020-9-12 13:46:52 | 显示全部楼层
楼主发贴辛苦了,谢谢楼主分享!我觉得中国高清电影网是注册对了!
回复

使用道具 举报

级别:初级观众 Lv.1

注册时间
2020-9-11
最后登录
2020-9-13
听众
2
收听
0
主题
0
蓝光币
1 枚
贡献
0 点
QQ
发表于 2020-9-13 04:31:48 | 显示全部楼层
楼主发贴辛苦了,谢谢楼主分享!我觉得中国高清电影网是注册对了!
回复

使用道具 举报

级别:初级观众 Lv.1

注册时间
2020-8-8
最后登录
2020-9-18
听众
3
收听
0
主题
0
蓝光币
5 枚
贡献
0 点
发表于 2020-9-13 06:31:11 | 显示全部楼层
楼主发贴辛苦了,谢谢楼主分享!我觉得中国高清电影网是注册对了!
回复

使用道具 举报

级别:初级观众 Lv.1

注册时间
2020-9-16
最后登录
2020-9-16
听众
2
收听
0
主题
0
蓝光币
0 枚
贡献
0 点
QQ
发表于 2020-9-16 15:41:26 | 显示全部楼层
楼主发贴辛苦了,谢谢楼主分享!我觉得中国高清电影网是注册对了!
回复

使用道具 举报

级别:群众演员 Lv.3

注册时间
2019-10-30
最后登录
2020-9-22
听众
5
收听
0
主题
0
蓝光币
112 枚
贡献
0 点
发表于 6 天前 | 显示全部楼层
谢谢楼主分享!我觉得中国高清电影网是注册对了!
回复

使用道具 举报

懒得打字嘛,点击右侧快捷回复 【右侧内容,后台自定义】
您需要登录后才可以回帖 登录 | 立即注册

本版积分规则

Archiver|手机版|小黑屋| 中国高清网 ( ICP备17007870号-2 ) |网站地图 

GMT+8, 2020-9-26 00:44 , Processed in 0.259351 second(s), 41 queries .

Powered by HDchina X3.4

Copyright 2017-2019©HDchina.All right reserved

返回顶部 联系我们