查看: 37|回复: 0

[惊悚片] 红圈 The.Red.Circle.1960.720p.BluRay.x264-UNVEiL 5.18GB

[复制链接]

 成长值: 6410

级别:资源管理组

注册时间
2017-10-20
最后登录
2020-8-7
听众
1
收听
0
主题
100960
蓝光币
179200 枚
贡献
21715 点
发表于 5 天前 | 显示全部楼层 |阅读模式
5 ]3 G4 g* V: D2 Q1 D6 l+ B/ F

( u* ], U5 ^4 n6 I8 ]4 A
8 O- [' O; X( `8 y1 U+ s& I# w; j2 r0 n; Z8 r
译  名 红圈 / The Crimson Circle
# K9 _. Q7 l  u' v) w1 j; `- }% J片  名 Der Rote Kreis% \2 R: h' J# G  \! A/ ~  Y6 O
年  代 1960
; k: v  k! ?3 \7 b/ h) M产  地 丹麦 / 西德
: I  z7 u& @: g$ e- w5 s类  别 惊悚 / 犯罪
- ], k% g+ M7 Z& a3 n. }语  言 德语4 M: ~- C/ F% W- p+ t" Z4 |5 E
上映日期 1960-03-02
! o' u" s% I2 I& ^0 T+ NIMDb评分  6.2/10 from 376 users
$ c) X) O, O' H* @! `IMDb链接  https://www.imdb.com/title/tt0053228- D( m& |3 E3 V$ k" s1 ]
豆瓣评分 0/10 from 0 users2 |% T. x& _, P. |0 \: w
豆瓣链接 https://movie.douban.com/subject/3250959/
! }0 ?& r9 f& [0 r, O片  长 Germany: 92 分钟
1 e- r) H+ k# G1 e& o. }导  演 Jürgen Roland
+ i; q: b7 x6 w编  剧 Edgar Wallace (novel) / Egon Eis (writer)0 [: a* W! ?, f0 h
主  演 Renate Ewert/ `. @: }4 A0 n& N" `, X" r
       Klausjürgen Wussow
( r# i/ q$ d6 g) m0 ~; H& B
+ i" f" m8 j; U7 z# `# Q1 z% |5 j( i
标  签 悬疑 | 已下2 z* Q, M8 h: v3 ?, c4 g  }. t
- N6 R, I0 K3 a) _# d
简  介  ( M8 }" L, Y- S" ~) k" X
& {* [, Y  H4 q6 W  ?7 P% r
  A strange, red circle appears on the neck of a man saved from the guillotine. What is its mysterious meaning? Tragically, it turns out to be something of a family curse, as each generation thereafter bears the same sign, which in turn leads to blackmail and murder.2 u. p$ i& Y3 ?7 J  m' X- N8 Y
. Q: l. C. j; ]* T6 y
  谷歌为您翻译:
6 G7 I' l# ~1 d0 _  一个从断头台上救出的汉子的脖子上出现一个希奇的红色圆圈。它的奥秘寄义是什么?可悲的是,究竟证实这是一种家庭诅咒,由于尔后的每一代人都具有不异的征象,进而致使勒索和谋杀。
. U" l: p- M. e! c  L+ d0 t4 e9 z5 i
  腾讯为您翻译:6 M7 w1 S, _8 l9 U7 Z, d/ b
  一位从断头台获救的男人的脖子上出现了一个希奇的红色圆圈。它的奥秘寄义是什么?可悲的是,这被证实是某种家属诅咒,由于尔后的每一代人都有不异的标志,这反过来又致使了勒索和谋杀。! n. y" t/ M% u8 j6 X0 m" @2 y
1 @/ I  ^( h( s' M
  本站为您翻译:
& }9 X- w- k7 ]& q# g  一个从断头台上被救下来的人的脖子上出现了一个希奇的红圈。它的奥秘寄义是什么?悲剧的是,它成了某种家属诅咒,由于尔后的每一代人都有着不异的标志,这反过来又致使了敲诈和谋杀。
4 A& D" O4 u3 _) v7 d4 R2 e# p4 V8 _; B. V. \0 V

) r1 P0 l4 m6 w! f' k  X
  1. Video
    $ x9 k- _* t. H( b  _4 O
  2. ID                                       : 1
    . Q" o5 G, j9 }+ P
  3. Format                                   : AVC
    5 W; r9 s: ~4 \, R, q# f
  4. Format/Info                              : Advanced Video Codec
    ' v: V9 t. k. n" B
  5. Format profile                           : High@L4.1( W' q+ ~$ A$ \
  6. Format settings                          : CABAC / 8 Ref Frames+ U( \# K! I; V1 _% X% D9 u
  7. Format settings, CABAC                   : Yes- u% V. [4 k( l: ^3 h( i4 H3 O* q
  8. Format settings, Reference frames        : 8 frames
    7 D" v5 H; f+ S
  9. Codec ID                                 : V_MPEG4/ISO/AVC4 J; Y: j' v% o! E
  10. Duration                                 : 1 h 31 min, M9 c$ N( b0 O& v7 v/ T1 L
  11. Bit rate                                 : 6 776 kb/s
    : W. J6 z. y+ F
  12. Width                                    : 1 196 pixels% u6 I8 c! x% K" a8 V& b, i
  13. Height                                   : 720 pixels/ o, u4 B+ O9 R3 P
  14. Display aspect ratio                     : 5:3
    ; W8 J8 F: E% z, f% p* z, p9 J0 v
  15. Frame rate mode                          : Constant
    ( J( l0 N( W6 E6 }6 [' m4 l) |) C
  16. Frame rate                               : 24.000 FPS
    7 w: Z4 l6 W  p# _2 I; q
  17. Color space                              : YUV( ]5 w$ n- R/ \1 c
  18. Chroma subsampling                       : 4:2:0
    3 [: q$ \+ y9 f) [( L( L
  19. Bit depth                                : 8 bits
      h" c5 F/ L9 V
  20. Scan type                                : Progressive
    ( [) S) @: I3 A$ ]
  21. Bits/(Pixel*Frame)                       : 0.328
      @: ^/ r, r2 J  O/ l' s4 ?! |# @  A7 J
  22. Stream size                              : 4.34 GiB (84%)
    3 |' |: K, ?' `
  23. Writing library                          : x264 core 161 r3018 db0d417. ?5 b  M9 O% B
  24. Encoding settings                        : cabac=1 / ref=8 / deblock=1:-3:-3 / analyse=0x3:0x133 / me=umh / subme=9 / psy=1 / psy_rd=1.00:0.00 / mixed_ref=1 / me_range=16 / chroma_me=1 / trellis=2 / 8x8dct=1 / cqm=0 / deadzone=21,11 / fast_pskip=0 / chroma_qp_offset=-2 / threads=22 / lookahead_threads=1 / sliced_threads=0 / nr=0 / decimate=1 / interlaced=0 / bluray_compat=0 / constrained_intra=0 / bframes=3 / b_pyramid=2 / b_adapt=2 / b_bias=0 / direct=3 / weightb=1 / open_gop=0 / weightp=2 / keyint=250 / keyint_min=24 / scenecut=40 / intra_refresh=0 / rc_lookahead=60 / rc=crf / mbtree=1 / crf=18.0 / qcomp=0.60 / qpmin=0 / qpmax=69 / qpstep=4 / ip_ratio=1.40 / aq=1:1.001 C0 s  E" }, a
  25. Language                                 : English9 X1 P1 j0 x0 ]% ^" Q
  26. Default                                  : Yes
    - n' s  s- F' y; R
  27. Forced                                   : No
    0 I8 s8 G8 w  |' h3 q! U1 v) ]
  28. Audio #19 E6 s- V: ?7 r
  29. ID                                       : 2* e) `6 D2 Z9 i: J1 P, S6 g1 Q
  30. Format                                   : AC-39 `$ v0 Y: ?# o" ^& r
  31. Format/Info                              : Audio Coding 3
    5 p1 F' P5 n$ |& ]
  32. Commercial name                          : Dolby Digital
    ( [4 B) L- H- y& _1 x! ?2 u
  33. Codec ID                                 : A_AC3
    - B8 m$ ]5 x3 {5 V, P) l2 N
  34. Duration                                 : 1 h 31 min- ^2 N. @0 ^8 w. ^8 _
  35. Bit rate mode                            : Constant8 ~" O9 x) e# V" t# C2 u
  36. Bit rate                                 : 640 kb/s
    # _1 J; e/ R; J* c" G  f# W
  37. Channel(s)                               : 2 channels
    . U7 U% J! u8 ]! L8 J
  38. Channel layout                           : L R# o* Z7 D6 r; K& E
  39. Sampling rate                            : 48.0 kHz6 ~! s# [( y! p8 r- O
  40. Frame rate                               : 31.250 FPS (1536 SPF)! n6 ~4 o, _1 G
  41. Bit depth                                : 16 bits1 ]5 k- P% g/ K# ]. F7 l: s
  42. Compression mode                         : Lossy
    ' {2 A/ n0 @7 q2 Q
  43. Stream size                              : 420 MiB (8%)
    7 L4 ~7 y* W# w! r
  44. Language                                 : German
    + `3 e/ O% e5 T
  45. Service kind                             : Complete Main5 s' M: G' o5 H' q, a2 y: S: f" d
  46. Default                                  : Yes
    , l0 C" R( q+ M+ B/ e
  47. Forced                                   : No
    / j$ T2 ~0 \8 V9 x/ S2 e1 [
  48. Audio #24 `4 O# ?+ y; B6 C& r+ q/ w
  49. ID                                       : 3) T* G! }" c# ^
  50. Format                                   : AC-3
    + F7 R+ \8 S$ E6 E4 i/ q: p
  51. Format/Info                              : Audio Coding 3& N4 i4 P" z2 ?
  52. Commercial name                          : Dolby Digital  P$ K9 d4 u) [
  53. Codec ID                                 : A_AC38 f3 \% u: p1 \6 o' B9 ~7 v
  54. Duration                                 : 1 h 31 min) \3 ^$ ^: B5 W3 z) j/ ]) b
  55. Bit rate mode                            : Constant' p% g: N' k0 T0 O0 |
  56. Bit rate                                 : 640 kb/s; w( ]" d. O% W  s3 `
  57. Channel(s)                               : 2 channels
    + Y6 {1 h* b1 f9 q7 }( u
  58. Channel layout                           : L R# Z8 _% O. ]4 s( i' a0 T/ o4 Q+ G
  59. Sampling rate                            : 48.0 kHz+ i* z: F. @4 a( K! D- ~; T$ u. b% r
  60. Frame rate                               : 31.250 FPS (1536 SPF)* C! Q  n: y' x6 V8 X7 V
  61. Bit depth                                : 16 bits" Q( @/ K4 ~4 r" F0 }" K2 Z
  62. Compression mode                         : Lossy* P3 x  y  \2 [. ]- W" K! P0 y8 [& D
  63. Stream size                              : 420 MiB (8%)
    8 z. n; U& N0 h
  64. Language                                 : English
    ' G' X' `" }  N, X& G0 I
  65. Service kind                             : Complete Main
    5 O: X0 A  j% l
  66. Default                                  : No
    $ ]9 \6 a5 ~/ J- F/ D2 ]" {) u
  67. Forced                                   : No/ q3 r7 w; Z$ [. P2 T7 `' U
  68. Text #1
    4 p+ S, J& V7 t  H- T  W  W
  69. ID                                       : 4
    + s3 K% u" q, s$ _: g5 k
  70. Format                                   : UTF-8
    ' Z5 X1 v; j2 T. o/ R5 c
  71. Codec ID                                 : S_TEXT/UTF8
    5 T0 _. k4 d8 a6 |/ j9 k- B
  72. Codec ID/Info                            : UTF-8 Plain Text
    ! n' h4 L: U$ t) F0 O5 u: y
  73. Duration                                 : 1 h 31 min# U9 y+ a! G, E& ?
  74. Bit rate                                 : 70 b/s2 O, ?/ X0 {( I- o% n. @
  75. Count of elements                        : 8867 X$ i  V  h6 _1 J: c
  76. Stream size                              : 47.2 KiB (0%)' S# s& ~! A8 E  x+ ]5 |
  77. Language                                 : English
    & ?& a+ c1 t2 v& M  A: {7 @( r3 ]
  78. Default                                  : Yes
    8 G; Q( |8 r4 Y! ]
  79. Forced                                   : No
    ! V' A2 K! L: u9 C
  80. Text #2
    # k% t1 f. E* d1 J; a" F# b  t5 @
  81. ID                                       : 5
    ) m. v. r. y% @. ~" ^9 |
  82. Format                                   : PGS
    * @2 O8 A- b- T) _$ j; ?' i
  83. Muxing mode                              : zlib2 _3 \0 w0 N% x
  84. Codec ID                                 : S_HDMV/PGS  M* T$ m" t8 f+ J
  85. Codec ID/Info                            : Picture based subtitle format used on BDs/HD-DVDs
    4 I5 }: H5 k  t
  86. Duration                                 : 1 h 31 min
    & D7 _9 M$ w* g' E. r' H
  87. Bit rate                                 : 37.7 kb/s6 {6 D* ^; g, {) b/ V
  88. Count of elements                        : 17721 \' Z& U& y  ]6 ?* }
  89. Stream size                              : 24.5 MiB (0%)
    ' Q$ Y/ a3 F3 Q' U- f7 \( u  _
  90. Language                                 : English6 e- v: z" D. d( r1 p) B, o5 ~
  91. Default                                  : No
    ' R  f; G2 i/ d* `: E# S& L% \
  92. Forced                                   : No3 V  K' |2 g  W) a8 T; ?+ _% G' c/ F
  93. Text #34 s& u, r+ Q- F+ A8 q: J6 w
  94. ID                                       : 6
    7 Z5 Y, X6 V$ F+ a$ W5 Y! X
  95. Format                                   : PGS: t) f, I6 a6 v, P7 m7 p. V7 _
  96. Muxing mode                              : zlib
    . ], z& i. v+ F7 A% q# M1 u
  97. Codec ID                                 : S_HDMV/PGS! _+ E8 G4 U5 N9 }
  98. Codec ID/Info                            : Picture based subtitle format used on BDs/HD-DVDs
    ) M3 j, Y5 t- b% R$ k8 ]# z1 `6 w) L
  99. Duration                                 : 1 h 31 min
    : ~5 r4 o, x& v1 b1 T1 [& X
  100. Bit rate                                 : 40.3 kb/s
    0 n2 B# q0 Q+ w, S
  101. Count of elements                        : 18583 e. ?) }% s+ i# ^  b9 O/ [
  102. Stream size                              : 26.3 MiB (0%)
    3 q+ f0 |! e  X# q+ B
  103. Language                                 : German2 D6 K2 b! {& t: k& F1 [  ^
  104. Default                                  : No
    * N" x/ D% `& h' h' v7 J: z
  105. Forced                                   : No1 q  y/ B0 m5 k% _
  106. Menu( O; Y" n$ O( P' X5 _" C! ^
  107. 00:00:00.000                             : :Kapitel 011 V- A, d% ]: W
  108. 00:12:35.750                             : :Kapitel 02$ }+ j3 B9 t2 r2 e1 |1 Q3 `
  109. 00:21:36.125                             : :Kapitel 034 p6 U  [/ P5 R
  110. 00:30:59.375                             : :Kapitel 04+ U7 q) m8 G3 m9 Z/ E2 K6 ]9 q- ]1 F
  111. 00:42:10.083                             : :Kapitel 05: L7 Z; e: ?3 J  X- z6 p
  112. 00:52:16.958                             : :Kapitel 06
    ) U6 }+ |0 w! K5 q
  113. 01:04:23.292                             : :Kapitel 07
    & ~0 B! ?2 l7 f. b  n$ Y; N  Q% d
  114. 01:15:12.792                             : :Kapitel 08
    # F2 B& Z' ~' b( X' I0 }6 U* {% j- `6 j
  115. 01:23:04.167                             : :Kapitel 09
复制代码

) x, N( f2 f1 ~5 u: A; J  s) Y- v2 F" h/ X" v2 }

0 ^7 n8 T$ G2 [! n6 F( E5 f, n" H9 p1 y3 F8 c; A4 k* R: [
, K; a/ Y% p  b- g& f9 h
% I; b4 p5 P2 v1 ~0 o+ |2 _

: U5 Q; H( P7 m8 o9 s+ }
回复

使用道具 举报

懒得打字嘛,点击右侧快捷回复 【右侧内容,后台自定义】
您需要登录后才可以回帖 登录 | 立即注册

本版积分规则

Archiver|手机版|小黑屋| 中国高清网 ( ICP备17007870号-2 ) |网站地图 

GMT+8, 2020-8-7 17:19 , Processed in 0.160309 second(s), 39 queries .

Powered by HDchina X3.4

Copyright 2017-2019©HDchina.All right reserved

返回顶部 联系我们