查看: 28|回复: 0

[喜剧片] 绝命战警/潜在威力 Cyberflic.1997.DUBBED.720p.BluRay.x264-GUACAMOLE 4.00GB

[复制链接]

 成长值: 6410

级别:资源管理组

注册时间
2017-10-20
最后登录
2020-8-7
听众
1
收听
0
主题
100960
蓝光币
179200 枚
贡献
21715 点
发表于 5 天前 | 显示全部楼层 |阅读模式

2 H. X/ N. }7 I* @  g# X
) L: ~' G, p) y7 m/ Z8 B# Y  u! y5 H1 s$ @4 C

9 J$ ~5 B% E9 |6 ]# k译  名 绝命战警 / 潜伏能力3 D  E. ?+ D1 m$ P: j& R' `
片  名 Cyberflic$ _! P" d0 Y1 G. L
年  代 1997
  ?7 O$ H0 B; r8 w6 t4 J3 i产  地 法国 / 意大利
6 M6 f: i" \# m类  别 笑剧 / 犯罪* X, I  f# G; G$ T* K/ L
语  言 意大利语
+ w) S' W; C$ o* f$ G3 ?; V- Z% t上映日期 1997-08-25- G$ S8 F" L) R4 e+ h4 k! }
IMDb评分  4.7/10 from 363 users( @1 H/ c/ E  k/ O7 u7 I
IMDb链接  https://www.imdb.com/title/tt0275287
/ r2 G# e5 c/ _9 a9 X  A: V% `3 e豆瓣评分 0/10 from 0 users) o1 _" L5 o4 w2 b; W  Z
豆瓣链接 https://movie.douban.com/subject/1298110/# d! J/ ~1 T: g+ q) c1 d/ q& S: w
片  长 Argentina: 90 分钟1 K, Y: U+ _6 Q$ X6 h$ E
导  演 Antonio Margheriti
- c4 m# U' s+ N编  剧 布鲁诺·科尔布奇 Bruno Corbucci / Ferdie Pacheco6 e. ?: h- y* c% L5 H8 @4 X
主  演 Terence Hill
, E! e" y/ S) J  i! I, k
( [: F; X" V) D9 h# A$ b
5 F6 }0 M3 K; e! Q+ B' I5 r# }标  签 意大利 | 笑剧
- d3 S: ^/ x- H* b9 P
+ h/ U5 r5 d$ q. N简  介  
2 J1 Q5 k1 J$ r/ N, V- n& k- z0 B
  为破获黑帮销售军械一案,神探斯基姆斯受命回到阔别已久的迈阿密警局。由于使命机密,斯基姆斯请求精通电脑的小女孩莉莉辅佐工作。经过大胆细致的观察,斯基姆斯发现黑帮头子阿克塞尔正在倾销一种新型炸药,因而他与老同伴迈克深入虎穴观察取证,不幸落入早有提防的阿克塞尔设下的圈套......
1 D) u* y: D, t+ [! r4 Z0 j$ G" b; R% }* ?& Q& e% e0 B9 S' X
  1. Video
    # y2 [5 l" p8 Y
  2. ID                                       : 1
    % p  B# w: Z# j% s8 Z2 f
  3. Format                                   : AVC
    ) }& I1 Z1 M8 J' p% _
  4. Format/Info                              : Advanced Video Codec9 n- p# Z0 b1 l+ d! `) _
  5. Format profile                           : High@L4.18 {: s% A( }- z0 A+ r
  6. Format settings                          : CABAC / 8 Ref Frames
    5 L: R/ c  o6 b: w  q, Y
  7. Format settings, CABAC                   : Yes
    ; @# n" |& ?, K9 S
  8. Format settings, Reference frames        : 8 frames5 I( i* \. F3 `3 `/ P2 ?- }
  9. Codec ID                                 : V_MPEG4/ISO/AVC4 Z& S( n5 ]- ~$ M# P0 G* ~7 g
  10. Duration                                 : 1 h 29 min9 P8 \/ A9 t1 ?( ~( Y$ m
  11. Bit rate                                 : 5 028 kb/s
    6 J& \+ e5 P: S% H) O: K
  12. Width                                    : 1 188 pixels( W2 X0 z- h& U1 q
  13. Height                                   : 720 pixels
    * T3 R6 _+ x+ r1 j5 B% j" a
  14. Display aspect ratio                     : 5:3* a; p8 v6 q, D' H3 E7 ?
  15. Frame rate mode                          : Constant
    2 K, u+ A& J0 ^7 o
  16. Frame rate                               : 25.000 FPS
    : J  v5 m. ~2 @' N3 D, d+ J! C
  17. Color space                              : YUV' @: _* H. o4 U" {
  18. Chroma subsampling                       : 4:2:0
    " s/ Z% F: N' v. L! F: w
  19. Bit depth                                : 8 bits
    . A( D/ ?3 y* i! W' Z3 t
  20. Scan type                                : Progressive' |3 }! T( e9 z7 p; o$ v
  21. Bits/(Pixel*Frame)                       : 0.235
    + L% T6 \6 y* t' V
  22. Stream size                              : 3.15 GiB (79%)
    7 p" Q7 X& D" {& R; D: t  k$ Y
  23. Writing library                          : x264 core 161 r3015 4c2aafd
    6 Y1 o  v' t% H& z
  24. Encoding settings                        : cabac=1 / ref=8 / deblock=1:-3:-3 / analyse=0x3:0x133 / me=umh / subme=9 / psy=1 / psy_rd=1.00:0.00 / mixed_ref=1 / me_range=16 / chroma_me=1 / trellis=2 / 8x8dct=1 / cqm=0 / deadzone=21,11 / fast_pskip=0 / chroma_qp_offset=-2 / threads=22 / lookahead_threads=1 / sliced_threads=0 / nr=0 / decimate=1 / interlaced=0 / bluray_compat=0 / constrained_intra=0 / bframes=3 / b_pyramid=2 / b_adapt=2 / b_bias=0 / direct=3 / weightb=1 / open_gop=0 / weightp=2 / keyint=250 / keyint_min=23 / scenecut=40 / intra_refresh=0 / rc_lookahead=60 / rc=crf / mbtree=1 / crf=17.0 / qcomp=0.60 / qpmin=0 / qpmax=69 / qpstep=4 / ip_ratio=1.40 / aq=3:0.90
    ' N5 w4 U; Q& m2 o/ b/ l
  25. Default                                  : Yes' M' r+ C9 J: e/ D9 Y' S
  26. Forced                                   : No) o3 H# V& U7 P  _  q" [
  27. Color range                              : Limited
    0 S# S: A8 |2 r, S' Q+ H4 j
  28. Color primaries                          : BT.709- _6 T& B4 C+ X
  29. Transfer characteristics                 : BT.7095 D! p0 K) [& T/ P& C( {% O8 m8 k
  30. Matrix coefficients                      : BT.709
    ) w  X# t. r# V
  31. Audio$ B: d4 E. Y; B2 O- T7 V
  32. ID                                       : 2  Y  ~+ Z$ v+ D3 n
  33. Format                                   : FLAC
    3 G5 h- N9 t1 Q) a4 g
  34. Format/Info                              : Free Lossless Audio Codec6 c) S5 [2 q" t; ^" j
  35. Codec ID                                 : A_FLAC0 W  v/ r' H" z; b+ x4 [
  36. Duration                                 : 1 h 29 min
    ' {5 U: t1 A( N
  37. Bit rate mode                            : Variable
    ' g8 H. A5 s$ p
  38. Bit rate                                 : 1 352 kb/s1 \/ y% s9 o- a5 L) q2 G
  39. Channel(s)                               : 2 channels4 {2 I# n; _3 W7 @$ _, t5 E
  40. Channel layout                           : L R( }" }' r1 P- ^* H& @1 i- ~
  41. Sampling rate                            : 48.0 kHz& K' f( k% N. M: J" E
  42. Frame rate                               : 10.417 FPS (4608 SPF)( b4 w1 j+ @! O+ t2 C
  43. Bit depth                                : 24 bits1 \6 [9 w* K0 K) _9 W
  44. Compression mode                         : Lossless( Q+ C% V1 i# {. U
  45. Stream size                              : 866 MiB (21%)
    , V  G+ t- d0 x* M
  46. Writing library                          : MakeMKV v1.15.1 win(x64-release)5 G! [% ?0 a/ o
  47. Language                                 : English4 }3 \5 Q* E- ?% U
  48. Default                                  : Yes- b. G5 u6 t1 s( b
  49. Forced                                   : No& k! D! n2 ?# D7 R& U
  50. Text( g! d& \: g3 a! Y& N4 f9 y
  51. ID                                       : 3
    8 k& P, d; v. I) ?/ H& u
  52. Format                                   : PGS3 N0 y( L3 o( v. u2 {9 W8 |8 u
  53. Muxing mode                              : zlib
    : M# n8 ^' d9 l9 u
  54. Codec ID                                 : S_HDMV/PGS, z$ Y: P: S) y. m7 t5 ~" M$ d
  55. Codec ID/Info                            : Picture based subtitle format used on BDs/HD-DVDs$ R) `. _, B6 u! R0 t3 c
  56. Duration                                 : 1 h 27 min) q% q$ G  E: C  j/ R" D" C+ `8 ~
  57. Bit rate                                 : 28.7 kb/s
    3 C' F5 I# t: {1 f
  58. Count of elements                        : 16120 w7 [5 j& m$ ?! s8 U
  59. Stream size                              : 18.0 MiB (0%)9 T  ?( P, i) H1 v9 W  l
  60. Title                                    : SDH- C8 C' O3 J! h; T! T8 r# \
  61. Language                                 : German
    9 u: a/ M8 r0 M
  62. Default                                  : No
    / [7 @6 {  Z; [$ J* n9 [
  63. Forced                                   : No6 k0 r+ E% J7 t5 V: l+ Y6 Q
  64. Menu
    1 `+ q* f7 S; R! B+ c! Q7 `
  65. 00:00:00.000                             : en:00:00:00.000  g4 q4 M* X; Y# C% v' a* C
  66. 00:07:28.320                             : en:00:07:28.320- K! n4 ?4 }, O7 U0 h6 u  k
  67. 00:13:12.480                             : en:00:13:12.480; ~2 Q: e4 d" D4 U! _( U2 K
  68. 00:19:08.640                             : en:00:19:08.640
    " x# }/ q" E9 j! _7 X1 v
  69. 00:26:01.440                             : en:00:26:01.440
    / h9 D- q2 p0 s5 z5 k% x, T6 T
  70. 00:31:58.080                             : en:00:31:58.080
    . _! j" N- A+ ?/ G. X. M' Q
  71. 00:39:36.960                             : en:00:39:36.960! Z7 q2 Q2 K1 |
  72. 00:47:37.920                             : en:00:47:37.920! D! s$ Q8 h- w, s3 m* L
  73. 00:57:10.080                             : en:00:57:10.080" |3 q5 Q; O- h. G4 A* o7 {
  74. 01:05:43.200                             : en:01:05:43.200  U- T0 @# f+ }4 [7 I: z
  75. 01:12:27.840                             : en:01:12:27.8409 X. Y( Y9 G4 l* E
  76. 01:19:25.920                             : en:01:19:25.920
复制代码
6 J$ a  w6 D/ f0 d4 G1 S

  `7 r' \8 ?$ X& Y! u
. ^+ O' }/ C+ s' C3 L7 F$ _1 G$ u: d* Y1 Y* t1 G" P
$ R& q; Y; I- e$ L

5 j0 A9 J2 ^0 P9 @2 D- p: T" A  f8 R5 G& _* R( R" q
回复

使用道具 举报

懒得打字嘛,点击右侧快捷回复 【右侧内容,后台自定义】
您需要登录后才可以回帖 登录 | 立即注册

本版积分规则

Archiver|手机版|小黑屋| 中国高清网 ( ICP备17007870号-2 ) |网站地图 

GMT+8, 2020-8-7 17:11 , Processed in 0.151289 second(s), 39 queries .

Powered by HDchina X3.4

Copyright 2017-2019©HDchina.All right reserved

返回顶部 联系我们