查看: 19|回复: 0

[喜剧片] 象棋热 Chess.Fever.1925.720p.BluRay.x264-BiPOLAR 1.08GB

[复制链接]

 成长值: 6410

级别:资源管理组

注册时间
2017-10-20
最后登录
2020-8-7
听众
1
收听
0
主题
100960
蓝光币
179204 枚
贡献
21715 点
发表于 5 天前 | 显示全部楼层 |阅读模式

2 _1 V! v: I$ E4 P$ J; q3 `
+ \& ?( `0 Q# L2 a7 ]4 X+ b" N
! E: [# i# b  z5 y8 D: ~7 y  v- ?3 K& t8 |1 C; N! M
译  名 象棋热 / Chess Fever4 X3 B3 n+ `# f$ y; k
片  名 Шахматная горячка0 c3 O0 t! K3 H1 x* i) T1 n
年  代 1925* X; `3 C/ }  [+ x. @2 w
产  地 苏联. S% i9 |% K# D8 I% J; h
类  别 笑剧 / 短片
) p0 l. ]. x/ [8 T语  言 无对白' C  w. d* I3 i( s7 ]+ q3 K
上映日期 1925-12-212 U9 b! N. O9 K9 n( e
IMDb评分  7.2/10 from 1109 users! W2 Y9 Y; w$ ~8 [/ l
IMDb链接  https://www.imdb.com/title/tt0015673
2 v6 ]% Q! d/ Q, f- u0 T2 ?! Z, G2 F豆瓣评分 7.7/10 from 92 users) i) F6 D4 T( Z
豆瓣链接 https://movie.douban.com/subject/1987684/) g# ^$ E% \# O% c" ?( Z4 ~! W
片  长 28 分钟( }8 u+ g8 l/ O8 X9 T
导  演 伍瑟沃罗德·普多夫金 Vsevolod Pudovkin / Nikolai Shpikovsky5 f- G. H9 z: u$ U8 j
编  剧 Nikolai Shpikovsky
( ~7 `3 f4 Y' V  @5 q- M; P主  演 鲍里斯·巴尔涅特 Boris Barnet
8 h9 g. a! f/ d7 j       José Raúl Capablanca
. `) r3 H4 e5 [- k) s9 Z7 ?       Zakhar Agranenko
- ]7 Q8 S. v. B& Z' @7 M, k. J8 P4 l/ ?9 A: `" C9 d
" ?- n5 C+ i+ Y6 h
标  签 短片 | 默片 | 苏联 | 1920s | 苏俄 | Vsevolod_Pudovkin | 俄罗斯 | 1925* U& R: L! ?) L  E# |$ t
; \1 i3 H+ B/ @, v/ }
简  介  
2 f0 M; z7 v5 n9 y. s! W: F3 f) k' p2 R3 W' W
  国际象棋迷的戏剧般生活
( {4 |2 v% R' a( W
" {0 ?. t, R$ y9 }1 ~8 a
  1. Video+ o3 h4 Q5 x$ K6 @
  2. ID                                       : 10 T1 o- F0 |" i8 ~
  3. Format                                   : AVC2 `2 k3 s' R1 e# z% a8 R& l
  4. Format/Info                              : Advanced Video Codec
    . O& F) v! M& v8 f
  5. Format profile                           : High@L4.1
    ! K) @" i: Z; W/ m+ H
  6. Format settings                          : CABAC / 12 Ref Frames- A7 e; a4 j! g2 W4 [
  7. Format settings, CABAC                   : Yes. w" e/ i( t8 B5 n2 ~
  8. Format settings, Reference frames        : 12 frames
      g! j2 R7 v: V0 ^- ]7 [$ ]
  9. Codec ID                                 : V_MPEG4/ISO/AVC
    & `' Z  y, A; |" ~( O$ ]/ R9 E
  10. Duration                                 : 20 min 0 s4 g5 ?, m5 B7 w/ u  v' v& B
  11. Bit rate                                 : 7 039 kb/s
    1 a3 J/ `# M% D" n5 E; t
  12. Width                                    : 934 pixels
    + S! D4 `& F) T* F" f/ H6 ]
  13. Height                                   : 720 pixels
    3 l9 k( v: D" Y% s8 e4 O" c1 l: N
  14. Display aspect ratio                     : 1.2975 @9 i0 E2 i9 A# s: E
  15. Frame rate mode                          : Constant
    7 f% G* e% P& K4 _  l2 Q
  16. Frame rate                               : 23.976 (24000/1001/45378) FPS, U2 Z* L" x7 \1 W- t
  17. Color space                              : YUV
    + g1 S& C8 u& T0 k
  18. Chroma subsampling                       : 4:2:01 d, o2 A! n9 B# [  I* |9 r
  19. Bit depth                                : 8 bits/ u4 o& L; P3 j* y; }7 j
  20. Scan type                                : Progressive
    ( o. I0 J5 A9 `6 ?* G7 @
  21. Bits/(Pixel*Frame)                       : 0.437& X7 C6 d* Y- S- y* {' t
  22. Stream size                              : 1 007 MiB (91%)
    2 K! I0 @- S( F" f0 c. S
  23. Writing library                          : x264 core 161 r3018 db0d4179 [# u1 d* }) Z; p2 p' I( ?
  24. Encoding settings                        : cabac=1 / ref=12 / deblock=1:-3:-3 / analyse=0x3:0x133 / me=umh / subme=10 / psy=1 / psy_rd=1.00:0.15 / mixed_ref=1 / me_range=24 / chroma_me=1 / trellis=2 / 8x8dct=1 / cqm=0 / deadzone=21,11 / fast_pskip=1 / chroma_qp_offset=-3 / threads=18 / lookahead_threads=3 / sliced_threads=0 / nr=0 / decimate=1 / interlaced=0 / bluray_compat=0 / constrained_intra=0 / bframes=8 / b_pyramid=2 / b_adapt=2 / b_bias=0 / direct=3 / weightb=1 / open_gop=0 / weightp=2 / keyint=250 / keyint_min=23 / scenecut=40 / intra_refresh=0 / rc_lookahead=60 / rc=crf / mbtree=1 / crf=14.0 / qcomp=0.60 / qpmin=0 / qpmax=69 / qpstep=4 / ip_ratio=1.40 / aq=3:0.50; q8 g+ k) v6 }( M- Q
  25. Language                                 : English
    9 M) T# R5 N; N7 m
  26. Default                                  : Yes) Q; b1 ^& ~0 W% s" \
  27. Forced                                   : No
    ) w- F+ y9 Y1 e+ L
  28. Color range                              : Limited  D8 I( u: u2 k( B0 }9 g1 o; ~' u
  29. Matrix coefficients                      : BT.709
    ! h3 Q/ k( G. G' }" M3 \& |
  30. Audio
    - C( h; _0 n5 o6 k3 \* i5 K- Z
  31. ID                                       : 2  y( m8 h3 [2 G6 H5 ]
  32. Format                                   : FLAC- R' Q  F/ q* Y
  33. Format/Info                              : Free Lossless Audio Codec
    6 y, E7 Q0 ~: o6 a
  34. Codec ID                                 : A_FLAC0 r5 b) R8 W$ |5 {' n
  35. Duration                                 : 20 min 0 s
    % W4 v# l+ a9 u1 i. y# h
  36. Bit rate mode                            : Variable2 j6 ]& F8 ^) {7 r/ \  b) Z
  37. Bit rate                                 : 719 kb/s
    ! ?4 m" [, g, }$ B
  38. Channel(s)                               : 2 channels
    9 b. R$ c. ~' F) {: I9 Y
  39. Channel layout                           : L R
    9 J- @0 X1 B; x+ D, y5 P
  40. Sampling rate                            : 48.0 kHz
    5 U. z4 d/ _' F: K/ j5 H
  41. Frame rate                               : 11.719 FPS (4096 SPF): J; `; V6 d$ c" l6 N+ }  x
  42. Bit depth                                : 24 bits
    & D8 l/ Z1 K$ `+ g4 w6 d- [
  43. Compression mode                         : Lossless/ q* r# j  y( [4 ]' h. D4 T% j. M
  44. Stream size                              : 103 MiB (9%)
    ' d" c6 w& ^8 w7 P
  45. Title                                    : Score
    + {- k" n; l% U3 g; G
  46. Writing library                          : libFLAC 1.2.1 (UTC 2007-09-17)
      L" D+ n% O1 N( E4 z- K$ ?4 F
  47. Default                                  : Yes& A2 R7 @* f8 Q5 w
  48. Forced                                   : No; c2 J8 @) l5 T
  49. Text #1
    $ `" F4 m  H; C6 l/ }
  50. ID                                       : 39 m7 ?; q6 N* z8 P$ E9 v
  51. Format                                   : UTF-8
    " w& ^1 Y8 }* v
  52. Codec ID                                 : S_TEXT/UTF8( w9 b3 E$ D' X0 p6 q
  53. Codec ID/Info                            : UTF-8 Plain Text1 E& w% a; A) c$ p! J
  54. Duration                                 : 19 min 56 s
    $ _6 o7 r6 V+ L4 `
  55. Bit rate                                 : 11 b/s
    * A' \) Q. q7 W* P. c8 M1 e
  56. Count of elements                        : 57
      C2 _1 E9 o+ h+ c' ~, s5 X* }
  57. Stream size                              : 1.75 KiB (0%)- K: H3 f6 c7 s5 }
  58. Title                                    : English8 U2 T4 S# X0 V
  59. Language                                 : English
    8 O) q- H/ `& b: F
  60. Default                                  : Yes" s% t' L3 m7 k% a
  61. Forced                                   : Yes& T; ]  n4 ?" \8 l7 t
  62. Text #2
    , c1 c0 k" p. ?2 u# v
  63. ID                                       : 4( ], L0 e# f4 i1 ~0 u6 P# Q3 g2 v
  64. Format                                   : PGS' D3 ]6 o& w; H7 e% P  O
  65. Muxing mode                              : zlib: n3 W8 p: R0 q
  66. Codec ID                                 : S_HDMV/PGS. j5 G3 f+ p/ `8 o
  67. Codec ID/Info                            : Picture based subtitle format used on BDs/HD-DVDs
    8 G6 o- L! u+ }+ \/ i* }& }
  68. Duration                                 : 19 min 59 s
    7 T: D% \( A, Z: g. j# z4 c% p
  69. Bit rate                                 : 3 028 b/s. Y$ O8 h6 v- |4 b" f4 Q! ]% J
  70. Count of elements                        : 116
    0 p. ^) t, `' }, r. S# K6 m
  71. Stream size                              : 443 KiB (0%)9 h) [( Q+ o3 O* C# y+ j
  72. Title                                    : English
    # |: V1 p% ^! F& X) ]. v
  73. Language                                 : English
    # g- Y) `: X# l
  74. Default                                  : No
    7 b) e$ v7 p- t4 G
  75. Forced                                   : No
复制代码
! V7 Z" H2 p$ S! t3 T. z
: l: b+ t# _# V
+ Z" v$ ^5 J" i5 Z& d
+ p7 x+ q3 {' `- Q( C
* {5 T! n( i/ Q/ V+ l7 x

# @+ w7 f$ S' X" J
" O8 F  _6 Y) c4 m, C2 _) J6 u( i
回复

使用道具 举报

懒得打字嘛,点击右侧快捷回复 【右侧内容,后台自定义】
您需要登录后才可以回帖 登录 | 立即注册

本版积分规则

Archiver|手机版|小黑屋| 中国高清网 ( ICP备17007870号-2 ) |网站地图 

GMT+8, 2020-8-7 17:37 , Processed in 0.275756 second(s), 39 queries .

Powered by HDchina X3.4

Copyright 2017-2019©HDchina.All right reserved

返回顶部 联系我们