查看: 42|回复: 2

[惊悚片] 黄蜂网络 Wasp.Network.2019.720p.BluRay.x264.DTS-FGT 6.24GB

[复制链接]

 成长值: 6410

级别:资源管理组

注册时间
2017-10-20
最后登录
2020-8-7
听众
1
收听
0
主题
100960
蓝光币
179200 枚
贡献
21715 点
发表于 5 天前 | 显示全部楼层 |阅读模式

9 c. \7 `; ]* q2 x2 B: s, `0 H6 H
+ K$ i/ j+ }! u4 s1 t! N# c: e, A* p3 |

4 J+ t% _" Y) R译  名 黄蜂收集 / 蜂起云涌(台)
: `4 F  g. l" K% @) `- f6 g. s片  名 Wasp Network
0 Y) b5 o/ G( n1 G# D年  代 2019
; k8 g% f1 S  P& |3 T1 D) A" }产  地 法国 / 西班牙 / 比利时 / 巴西
* s+ [6 D3 G4 {1 y. B类  别 惊悚
: o" H" j, m  S9 F' S3 Q0 F" c语  言 英语 / 西班牙语5 J, e* `5 ]- m8 @. j: b
上映日期 2019-09-01(威尼斯电影节) / 2020-06-19(美国)
4 P9 F: Y" p5 W2 `. v1 LIMDb评分  5.7/10 from 1853 users
# O1 z" R0 T0 k9 {! K2 F& P; yIMDb链接  https://www.imdb.com/title/tt6760876) @. i2 G' c) Y" E# `
豆瓣评分 5.3/10 from 218 users
) ?3 ^0 J8 u1 B: W% e! B. Q豆瓣链接 https://movie.douban.com/subject/30204527/. O! d2 D: G3 K1 t4 x5 g: D/ }
片  长 127分钟
- b4 j) x8 p" E( a+ Q- D导  演 奥利维耶·阿萨亚斯 Olivier Assayas
* o2 W+ @0 \; S2 E) v编  剧 奥利维耶·阿萨亚斯 Olivier Assayas
& ~( }3 ^# c. L  T+ O主  演 安娜·德·阿玛斯 Ana de Armas* M& R: B6 ?# E2 o5 \
       佩内洛普·克鲁兹 Penélope Cruz+ ?+ j; Z; _- q
       亚德里亚·霍纳 Adria Arjona" h9 F/ c9 w: k" e: k4 t
       埃德加·拉米雷兹 édgar Ramírez# v7 R, ^3 j1 ~! I/ c; X: u
       瓦格纳·马拉 Wagner Moura
+ Z  _( b+ ~& |: t8 P' w% ^, n       盖尔·加西亚·贝纳尔 Gael García Bernal
; h  G5 v( `( ~0 p: C! @       Michael Vitovich0 f" T. C2 y+ h% a8 D# x8 e. v
       Steve Howard: W8 I# W( G4 Q- |+ Q
       Stephen W. Tenner
% l2 \* h' g6 H" S+ p2 Z       莱昂纳多·斯巴拉格利亚 Leonardo Sbaraglia
  a; \7 ~* y( Q5 u+ a3 d5 n+ G' T
, P7 j% L, `/ X* P+ X" Y* j! F" m8 R0 @# O' Z* J: _
标  签 2019 | 法国 | 奥利维耶·阿萨亚斯 | 剧情 | 惊悚 | 佩内洛普·克鲁兹 | 安娜·德·阿玛斯 | OlivierAssayas* `: j+ g/ w/ Y! Z

7 {- K" q- E0 ~5 e/ F' [5 M4 G( H简  介  
: L. p- R; H; A3 s4 S! P# K4 u3 U3 @
/ m# k: h& \: w: ^* B9 L" \  20 世纪 90 年月早期,古巴飞翔员瑞尼·贡萨雷斯(埃德加·拉米雷兹饰)潜逃到美国并起头了全新的自在生活,将他的妻子(佩内洛普·克鲁兹饰)和年幼的女儿留在了共产主义的祖国。但瑞尼并不但是一个简单的美国奋斗者新贵。他加入了南佛罗里达州的“黄蜂收集”。这个构造由一群古巴放逐者组成,奥秘奸细曼努埃尔·韦拉蒙特斯(别名杰拉尔多·埃尔南德斯,盖尔·加西亚·贝纳尔饰演)带领。他成为亲卡斯特罗特务圈的成员,负责监视和渗透古巴裔美国可骇构造,这些构造诡计进犯古巴这个社会主义共和国。
& C% W3 g. `$ u6 ]$ Z, j5 L& O  《黄蜂收集》按照“古巴五人组”(包括贡萨雷斯在内的情报官,于 1998 年 9 月在佛罗里达州被捕,随后因处置特务活动和其他不法活动而被科罪)的实在故事改编,这是一部扣民气弦、气概怪异的政治惊悚片,暗含多重深意,聚集了一群古巴百姓和古巴裔美国亡命者,他们卷入了一场复杂而奥妙的认识形状之争和虔诚与变节的挣扎当中。
! S" M6 @9 s% h: ]$ E) \  E/ X: E) b  该影片改编公费尔南德·莫莱斯所著书籍《The Last Soldiers of the Cold War》,编剧兼导演奥利维耶·阿萨亚斯(《卡洛斯》《私人采购员》)率领强大的演员声势(包括佩内洛普·克鲁兹、埃德加·拉米雷兹、盖尔·加西亚·贝纳尔、安娜·德·阿玛斯、莱昂纳多·斯巴拉格利亚和瓦格纳·马拉),在跨越这两个邻国的“镜厅”展开了一场爆炸性的告急特务游戏,两国长达数十年的对峙给现在带来了深入的影响。
) P2 c% k; P: L  o* x* ~1 I+ t& |1 o% R' r1 e) L
获奖情况  
: A0 Z  g* d5 O: ?9 v3 n4 w4 ~
+ Z9 h+ s; w  q1 S! i/ b) o0 n2 S  第76届威尼斯电影节(2019)
+ {# @- W6 l# W; ~8 I% p5 C9 r  主比赛单元 金狮奖 (提名) 奥利维耶·阿萨亚斯& ^! F# {) X' T$ K8 K+ T! H3 W' d% v

; u. C/ j: }* D9 g/ E
  1. Video1 y1 U3 Q' Y: Y( ~, p# P
  2. ID                                       : 1
    5 Z7 P4 O* ]. j, L! a4 F
  3. Format                                   : AVC4 O% e5 ^. I, w+ J, a
  4. Format/Info                              : Advanced Video Codec
    ) C' Z+ z- \2 J: t1 H7 Q
  5. Format profile                           : High@L4.1
    2 X9 ^* T* s) q4 @
  6. Format settings                          : CABAC / 4 Ref Frames" M  U0 d. B1 T7 c/ Y
  7. Format settings, CABAC                   : Yes0 ~2 @% B' w) G. R
  8. Format settings, Reference frames        : 4 frames+ l0 m! `; w% ^- W8 s* Z
  9. Codec ID                                 : V_MPEG4/ISO/AVC  J7 e2 F: c* Z0 w+ ^
  10. Duration                                 : 2 h 7 min
    ! i$ L; y/ m' f- h- Y- d
  11. Bit rate                                 : 5 500 kb/s" b, S' h3 r6 X8 m9 s. c
  12. Width                                    : 1 280 pixels
    " }: U2 p2 s( Z$ k& o) T
  13. Height                                   : 534 pixels, J+ G5 e- f& D4 h( \
  14. Display aspect ratio                     : 2.40:1
    6 v3 x$ F; z9 D6 \5 [7 {
  15. Original display aspect ratio            : 2.40:1
    5 p5 R) o1 @/ H( ]: y
  16. Frame rate mode                          : Constant) J; V9 k3 g1 [
  17. Frame rate                               : 24.000 FPS( m2 v) W% u* m/ q. E# M& N$ R
  18. Color space                              : YUV, |5 U( S/ F9 E$ _' C
  19. Chroma subsampling                       : 4:2:0
      x8 T5 Q# V0 ~& @3 I
  20. Bit depth                                : 8 bits
    $ f' @: \, C9 y' m& R! u6 _
  21. Scan type                                : Progressive1 b/ p( I, r9 Y4 k( c
  22. Bits/(Pixel*Frame)                       : 0.3356 ]$ M6 w2 e$ l1 m- z* P- b
  23. Stream size                              : 4.90 GiB (78%)% s, l+ @& s. g9 j
  24. Title                                    : Wasp.Network.2019.720p.BluRay.x264.DTS-FGT
    $ v6 U% W* }3 z" f6 m* Q2 L8 I' t
  25. Writing library                          : x264 core 148 r2748 97eaef23 f7 m" f% `' e
  26. Encoding settings                        : cabac=1 / ref=4 / deblock=1:-2:-2 / analyse=0x3:0x113 / me=umh / subme=9 / psy=1 / psy_rd=1.00:0.15 / mixed_ref=1 / me_range=16 / chroma_me=1 / trellis=2 / 8x8dct=1 / cqm=0 / deadzone=21,11 / fast_pskip=1 / chroma_qp_offset=-3 / threads=72 / lookahead_threads=3 / sliced_threads=0 / nr=0 / decimate=1 / interlaced=0 / bluray_compat=0 / constrained_intra=0 / bframes=3 / b_pyramid=2 / b_adapt=1 / b_bias=0 / direct=3 / weightb=1 / open_gop=0 / weightp=2 / keyint=250 / keyint_min=25 / scenecut=40 / intra_refresh=0 / rc_lookahead=50 / rc=2pass / mbtree=1 / bitrate=5500 / ratetol=1.0 / qcomp=0.60 / qpmin=0 / qpmax=69 / qpstep=4 / cplxblur=20.0 / qblur=0.5 / vbv_maxrate=31250 / vbv_bufsize=31250 / nal_hrd=none / filler=0 / ip_ratio=1.40 / aq=1:1.00
    3 [( w, h! L7 L; C
  27. Language                                 : English
    : l2 a% `7 M+ R& E; n" v2 s
  28. Default                                  : Yes& r6 N! Y- E3 O" B/ ]  F4 }$ q4 b
  29. Forced                                   : No7 F+ B- Q7 c% C+ V6 w( R

  30. 1 o$ F9 g$ x( G' f
  31. Audio
    ( S, e$ Z' Z- X. y; k
  32. ID                                       : 2% ?7 F, ]/ F" e1 m
  33. Format                                   : DTS' d0 H* A+ k0 Y* V
  34. Format/Info                              : Digital Theater Systems
    2 b* A0 U5 X3 i) g7 u: C) A
  35. Codec ID                                 : A_DTS* }$ e! [) a' n
  36. Duration                                 : 2 h 7 min/ E2 ?/ _$ e0 a* N
  37. Bit rate mode                            : Constant/ O) K1 ?/ y* k
  38. Bit rate                                 : 1 509 kb/s: O2 U7 j5 F. `+ O. K+ D
  39. Channel(s)                               : 6 channels
    7 M' ~  Z4 N: F# M
  40. Channel layout                           : C L R Ls Rs LFE
    - c+ g9 [0 h: F2 @8 t: P+ o4 k
  41. Sampling rate                            : 48.0 kHz
      K* M. `* a( r2 J
  42. Frame rate                               : 93.750 FPS (512 SPF)
    ( |- D5 ~/ X% z2 V  ^
  43. Bit depth                                : 24 bits
    - W* N# |- X( Y7 W( @
  44. Compression mode                         : Lossy' f) Q3 F4 Q, b3 f
  45. Stream size                              : 1.34 GiB (22%)
    2 T0 L- A2 L" X# x' k
  46. Title                                    : Wasp.Network.2019.720p.BluRay.x264.DTS-FGT
    5 J0 r# K7 q1 s. A7 R" h% V
  47. Default                                  : Yes
    1 Y6 Y! b5 Z, o- @
  48. Forced                                   : No
    ) c5 j1 C2 A1 B  [3 F( \
  49. ! d: g/ _' v) K2 E
  50. Text #1
    6 ^: I& E5 G% l% y+ `
  51. ID                                       : 3: J; i. ]" {4 b/ ]# o+ ~
  52. Format                                   : UTF-8
    : z5 A( n" Q! G; }3 d7 Q- b" Y
  53. Codec ID                                 : S_TEXT/UTF8
    ! I# x0 `6 R" b' J% y( b
  54. Codec ID/Info                            : UTF-8 Plain Text) ^: j  R8 e! x& `7 v, ~3 {+ U
  55. Duration                                 : 1 h 59 min
    , G4 |, U5 M4 Q( p" V9 D1 c1 f
  56. Bit rate                                 : 33 b/s+ c' q9 Y: |* c! q! @$ n
  57. Count of elements                        : 1112
    + }+ f4 r% x/ [* s0 V# M% H
  58. Stream size                              : 28.9 KiB (0%)
    ! E) h* I, i$ g! w" X
  59. Title                                    : FORCED
    * Z# l) u0 E2 |) {. D* k
  60. Language                                 : English
    3 q/ r7 L' T$ c0 ]1 L
  61. Default                                  : Yes
    * D( w+ X4 k! `" i* E8 m
  62. Forced                                   : Yes3 w8 G9 q9 K* }( Z$ j. M

  63. * k- J# r$ W+ u$ F* M7 `
  64. Text #2
    % U1 `3 t& ?3 y, C! L- G* u/ t4 D4 i
  65. ID                                       : 4
    + \/ N" a! f# i
  66. Format                                   : UTF-84 I) ~: P0 x3 a" i, O
  67. Codec ID                                 : S_TEXT/UTF8
    8 d1 M, a# x$ z
  68. Codec ID/Info                            : UTF-8 Plain Text9 e4 |* R5 D4 l% d0 ]* F2 g
  69. Duration                                 : 2 h 4 min6 \, Z3 ]; B- v. W+ s. O! T; n
  70. Bit rate                                 : 80 b/s
    1 l$ M& Y  m- e9 P
  71. Count of elements                        : 1880& {( c8 |7 E9 E4 X5 |; J
  72. Stream size                              : 72.9 KiB (0%). Q+ i9 {- k; a- b! Z
  73. Language                                 : English6 @- D; s; W" v' q" ~0 v/ ]- ?
  74. Default                                  : No
    / u3 Q0 h. @2 b5 q
  75. Forced                                   : No( s9 x3 c' v3 A
  76. % k7 r0 f4 O$ |) c
  77. Text #3* h) u: L# l" e" e1 p" v- w
  78. ID                                       : 5! U& ^% Z& l6 @+ m7 ]
  79. Format                                   : UTF-85 z: i2 d& d$ k
  80. Codec ID                                 : S_TEXT/UTF8
    ( h0 ?; {  W( ^" M) j
  81. Codec ID/Info                            : UTF-8 Plain Text4 P) N- T! D& ]! @
  82. Duration                                 : 2 h 6 min7 q' I. s# L* [* V- _; p; E
  83. Bit rate                                 : 90 b/s  m# L# Y* s4 @9 B5 L
  84. Count of elements                        : 1664
    0 N; Y0 M: A: R1 d0 I3 D, J
  85. Stream size                              : 84.2 KiB (0%), C5 o) s- \: @# x, N8 D0 l% D. Y6 `
  86. Language                                 : Arabic
    : O* h: s# i8 I/ V3 \" R6 `+ [, X
  87. Default                                  : No
    ( Q4 F$ Z( }. x7 B. ^0 o3 T
  88. Forced                                   : No
    3 }- g( s  R. Q% l8 \

  89. # o2 H, ?* x2 L! b7 A: P
  90. Text #4
    6 A/ l; L; Z& j3 U& f3 r
  91. ID                                       : 61 i3 f( U: q5 y/ a) h, s
  92. Format                                   : UTF-8
      N$ E& m) j, q; C/ B
  93. Codec ID                                 : S_TEXT/UTF8
    ; p7 b& g0 A3 y& ~2 k( P; j
  94. Codec ID/Info                            : UTF-8 Plain Text
    - u4 C8 G. i6 ~/ b5 m  `7 C
  95. Duration                                 : 2 h 6 min
    : [, D3 ^" i9 T& d( I2 E
  96. Bit rate                                 : 56 b/s7 D* q0 Q4 l& j( F3 @3 O, l
  97. Count of elements                        : 1645
    ! t+ q1 {# A( O+ C! x
  98. Stream size                              : 52.1 KiB (0%)* h5 D; @) t8 H$ y+ ]7 Q
  99. Title                                    : Chinese Simplified; }- W# o  }) e9 |% p* P$ o
  100. Language                                 : Chinese
    " @, C$ L8 h! l: J& K& |; @+ _
  101. Default                                  : No
    6 i( w; n: j/ p  y$ D& `" d6 U$ m& G
  102. Forced                                   : No! l  N  ~9 F! b1 D7 [/ }4 L- i( O$ O
  103. 2 L& `' Z* |3 Q; T) w" i
  104. Text #5
    . c" `7 W6 a* ~2 r5 N( R: D0 t! D; J
  105. ID                                       : 79 z* o! \- @0 }. a2 Q
  106. Format                                   : UTF-8
    ! l0 U) S2 G' k: E/ k, t4 \, \
  107. Codec ID                                 : S_TEXT/UTF8
    . ?& F1 F5 o; U! Q3 c4 c- m# u
  108. Codec ID/Info                            : UTF-8 Plain Text
    * c/ F5 W+ Y3 q% i8 }
  109. Duration                                 : 2 h 6 min3 E: D7 |5 `2 y; G# C
  110. Bit rate                                 : 49 b/s
    # |5 H+ W, r+ @4 p
  111. Count of elements                        : 1616
    5 O& @# T: \2 @' ^& T
  112. Stream size                              : 46.0 KiB (0%)& C! s3 v/ o; W" J+ M" ]
  113. Language                                 : Danish
    ! G) F6 X5 T* \" I
  114. Default                                  : No4 |  P, L0 W* z3 Q4 t) T
  115. Forced                                   : No
    ' _4 X0 k8 r4 g
  116. ' |/ d" w3 b1 h
  117. Text #65 i1 g4 i* m# W# Q+ R5 f6 I
  118. ID                                       : 87 h8 k8 x7 N" I' F: ~6 L) W
  119. Format                                   : UTF-80 u& p  \5 u) o
  120. Codec ID                                 : S_TEXT/UTF8) r5 o; c. J4 d( q! l
  121. Codec ID/Info                            : UTF-8 Plain Text
      z. e) o0 j) Z8 \! a, F6 w! S9 P
  122. Duration                                 : 2 h 6 min4 o. M7 {+ w; N1 Z+ G
  123. Bit rate                                 : 48 b/s& N" _0 Z) t- @  ^
  124. Count of elements                        : 1602
      |8 z, g( V4 F# p9 [
  125. Stream size                              : 44.8 KiB (0%)0 M3 q% T- `' \- r$ I% T0 z7 y* R
  126. Language                                 : Dutch" d5 j1 o5 L: g( a2 ~% [
  127. Default                                  : No
    # j" T9 s5 J1 k$ r% n' R* T
  128. Forced                                   : No
    ! p* Z  x! \; r. r6 ^' A
  129.   h. N/ `2 }4 v9 I5 ~; r$ A
  130. Text #75 ?# {: t2 D. D) N# s" h7 E
  131. ID                                       : 95 s+ @  |# l/ e& S
  132. Format                                   : UTF-82 j' O/ \' H' p7 Y
  133. Codec ID                                 : S_TEXT/UTF8
    - P( D6 W" @8 r4 b, Y( j
  134. Codec ID/Info                            : UTF-8 Plain Text! x; E, n5 K+ i( f+ i% m3 Z  ^
  135. Duration                                 : 2 h 6 min; Y8 a" h, b4 n
  136. Bit rate                                 : 51 b/s( L5 o7 P4 f, z8 v. ]  ^
  137. Count of elements                        : 1636. c6 A$ `2 Z, A. N- d
  138. Stream size                              : 48.1 KiB (0%)# K9 F/ D. t# N  Y
  139. Language                                 : Finnish! k5 |. e6 D% S; Z& P
  140. Default                                  : No+ ^+ S, d; O$ h% n6 Y% F
  141. Forced                                   : No
    : v5 h) a  B! F# g% ]& _9 f# s! z8 q
  142. ; N4 |; l, q' D& s% C
  143. Text #8
    ! V/ ~$ m' S+ p- y5 h* A
  144. ID                                       : 10
    : j1 `3 n9 a# \, _4 `: H
  145. Format                                   : UTF-8
      \- f- T1 G! K! V$ [( z& R
  146. Codec ID                                 : S_TEXT/UTF8! O. X8 Y8 B- V, r) G1 ~5 l, ?* f
  147. Codec ID/Info                            : UTF-8 Plain Text; D$ e5 f6 I" ~/ i9 `
  148. Duration                                 : 2 h 3 min
    1 V3 M2 T$ O' |. D# d4 T1 F
  149. Bit rate                                 : 55 b/s
    3 J. h* N5 n/ F$ B
  150. Count of elements                        : 1593$ e. R  }# L3 e; i
  151. Stream size                              : 50.8 KiB (0%). i8 U6 C+ Y2 q8 C7 h  ^* F2 t
  152. Language                                 : French6 v4 ]0 y3 Q2 M0 v; }+ ^& q/ k
  153. Default                                  : No
    ! u0 U# M+ h* r. v5 ]# ?. ]! e
  154. Forced                                   : No
    6 U$ x  d2 i6 O! \. S( ]
  155. % S& B" P4 q# c) W, x
  156. Text #9* m5 f  k2 X! I3 D5 `
  157. ID                                       : 11
    ' ^5 f* U: U2 X+ k2 n) ]3 G0 _" Z4 V
  158. Format                                   : UTF-8
    $ h5 l3 ^' j( \7 X3 H" ?
  159. Codec ID                                 : S_TEXT/UTF87 @0 M  X1 \* F& {
  160. Codec ID/Info                            : UTF-8 Plain Text  V; {! h# s1 Z( L
  161. Duration                                 : 2 h 6 min4 ]; T, T) F  ?5 Z
  162. Bit rate                                 : 52 b/s# i' i6 I) M4 M3 ~, S
  163. Count of elements                        : 16256 B  i/ i. i) n5 q$ {8 J
  164. Stream size                              : 48.7 KiB (0%). v: y8 R, x/ C5 ?( m3 k
  165. Language                                 : German* Z5 v2 d4 x8 `/ y' m- a, Z7 k
  166. Default                                  : No8 c8 i; f( o6 r& d
  167. Forced                                   : No
    4 w; S) ]: Y# M' Y' l- Q- e4 I
  168. ; B: l3 r- G2 {# c- |9 ~. k
  169. Text #101 ?% x* ~; x/ ~4 {# |( E
  170. ID                                       : 12
    2 ?/ P) c0 E( X- ^& [) q+ Q
  171. Format                                   : UTF-8; B0 H+ U+ [2 B8 ]8 a, o5 C
  172. Codec ID                                 : S_TEXT/UTF8; L  _( h6 \" G) ?! m* \
  173. Codec ID/Info                            : UTF-8 Plain Text
    3 f$ V; R  U8 F& U7 R
  174. Duration                                 : 2 h 6 min9 P# V; O' l0 _9 z
  175. Bit rate                                 : 50 b/s) O8 k# z- Y- V& g* t  D
  176. Count of elements                        : 1630
    2 [# l+ W) N0 n" d. Y8 g7 f% o
  177. Stream size                              : 46.5 KiB (0%)
    # N% L3 q8 G$ \5 J& Q4 m
  178. Language                                 : Indonesian: L( X) t6 J# W  Y4 O3 N+ i
  179. Default                                  : No
    9 Z, J8 [' d( v, c3 y+ b1 z
  180. Forced                                   : No
    2 F& R9 C9 T4 X. F( @
  181. , J5 ^& \* H& G8 B( V( G, a; g
  182. Text #11
    9 Q/ C7 E0 H5 I+ j9 v0 i& G; L- r5 W
  183. ID                                       : 13
    0 \# {* M2 E0 E1 d
  184. Format                                   : UTF-8
    6 ]" ^" L: N) D2 t/ e" U! G% q
  185. Codec ID                                 : S_TEXT/UTF8
    : |9 C6 k0 z/ p( X0 u  c- c- x/ w
  186. Codec ID/Info                            : UTF-8 Plain Text
    - A( S9 q! d, i) J
  187. Duration                                 : 2 h 6 min
    " C6 V& Y, z: w+ K( m
  188. Bit rate                                 : 51 b/s
    & L" ~: O! O! m6 U. R
  189. Count of elements                        : 1610
    : \' S0 H- D% q2 q+ F. ?
  190. Stream size                              : 47.7 KiB (0%)0 y$ m, L) d/ n. j# r
  191. Language                                 : Italian
    ( D2 i, J. K2 G! s4 Q& U3 s/ B7 e
  192. Default                                  : No3 n; H& `/ M! ]  i
  193. Forced                                   : No  }/ Y2 a2 }4 P- h; T
  194. + Y9 t# J6 l8 i3 M
  195. Text #12' J7 P4 s2 _! E0 b
  196. ID                                       : 14
    * _: ]- ~2 f7 B8 U( ]' \, }% T
  197. Format                                   : UTF-8
    6 ^2 T/ }" S% p8 ~% Y
  198. Codec ID                                 : S_TEXT/UTF8
    " z8 n# y" P  `8 k$ B
  199. Codec ID/Info                            : UTF-8 Plain Text9 Z# {! f' n/ C" [7 ^$ W, B) W
  200. Duration                                 : 2 h 6 min
    0 j. i3 v; Z' }, k
  201. Bit rate                                 : 55 b/s
      ?7 Z8 E# T- s" \, [; ]5 H! {
  202. Count of elements                        : 1585
    ) K' _- F; @- K2 }* W
  203. Stream size                              : 51.8 KiB (0%)' T- R. h9 ^2 S! L# F
  204. Language                                 : Japanese; e; f3 S. T, W! C( T$ G
  205. Default                                  : No
    0 r/ ^, U  I! Y6 k% r) Q
  206. Forced                                   : No0 A: V, Y) T+ c/ G# F" o. N! _' h

  207. 3 \+ D$ G5 O/ J+ `  y
  208. Text #13
    . ^, ^) u6 O7 A6 I5 M+ h
  209. ID                                       : 15
    , ~. I, _- }, H+ x0 d) H& M" e3 y" V
  210. Format                                   : UTF-8
    # W- u/ b8 Q0 I2 k3 a8 ?* z
  211. Codec ID                                 : S_TEXT/UTF8
    0 {5 x% ^) ?' u9 m
  212. Codec ID/Info                            : UTF-8 Plain Text% x) `5 T$ f7 |3 h3 H/ D
  213. Duration                                 : 2 h 6 min
    " d4 N4 b8 b  v4 k5 U
  214. Bit rate                                 : 68 b/s3 g1 r- f0 M/ _7 a+ p8 Z& `! z# L
  215. Count of elements                        : 1647
    : I0 s" h0 m* s% N
  216. Stream size                              : 63.3 KiB (0%)
    # O: F/ f; G9 b2 x) }
  217. Language                                 : Korean
    - M; W/ W0 B& w9 V
  218. Default                                  : No, j; W0 n8 O5 Z  D
  219. Forced                                   : No
    5 Y1 ^$ d* g+ U1 f+ a8 }0 L7 q0 f
  220. # l9 v5 ^. H, Z% S( r! M; t5 ~
  221. Text #14- c  @4 u0 N% o4 {' c
  222. ID                                       : 16
    / j7 R, [0 v3 P# I+ u
  223. Format                                   : UTF-8
    4 x& P1 @3 n0 q& a$ L8 t$ e
  224. Codec ID                                 : S_TEXT/UTF8
    # q, q2 I( G2 i8 W" @# p2 x
  225. Codec ID/Info                            : UTF-8 Plain Text
    , r  ?1 V; K0 u7 x
  226. Duration                                 : 2 h 6 min
    & |2 z3 C' k6 o0 S2 Y5 r
  227. Bit rate                                 : 49 b/s
    , R( D/ U2 y  j2 [- _
  228. Count of elements                        : 16248 J: ^9 H4 `: a! I0 S& ~6 m( i
  229. Stream size                              : 45.5 KiB (0%)# S% n" e  T7 ~$ e) T* g
  230. Language                                 : Norwegian# x- k; E6 }" A* F
  231. Default                                  : No
    $ D2 {9 c% d: |1 g2 r: H: K; `" m( v
  232. Forced                                   : No" o* k1 j! j5 w$ T

  233. ( M, H+ K! I8 N' A0 ]" Y
  234. Text #15$ j4 s1 q$ d- @3 U# U! t; ^
  235. ID                                       : 17! F/ f- S2 v1 p$ d1 r' \4 q5 |9 J
  236. Format                                   : UTF-8
    8 \+ c! O9 n$ M/ o) y, W( p" g8 j
  237. Codec ID                                 : S_TEXT/UTF86 Z* m* s$ m6 ^! W( {+ g! s
  238. Codec ID/Info                            : UTF-8 Plain Text2 \6 p5 j; b6 T- J2 Y
  239. Duration                                 : 2 h 6 min
    5 c/ s; P8 x4 k) Y+ F. i
  240. Bit rate                                 : 52 b/s! p1 |5 X9 x9 A: ?; D3 Q0 h
  241. Count of elements                        : 16077 D% G. S3 G* a9 `9 z
  242. Stream size                              : 48.7 KiB (0%)& p% b" Q) D6 }+ q% W( @2 H
  243. Title                                    : Brazilian
    $ n+ r4 z1 r' Z7 c# T# y
  244. Language                                 : Portuguese
    % P+ B( V+ b3 |5 W' O& O  m
  245. Default                                  : No
    3 `5 ?' ~) D. t, _1 ~5 n* G
  246. Forced                                   : No
    + ^5 B" Z5 y6 i) f" W* M- N9 g

  247. $ d' x, y8 N$ @% k0 g/ }
  248. Text #16
      k! {& u' ]4 y  `3 u. O+ H" Y
  249. ID                                       : 18
    9 O+ [) J4 h" o3 a2 q' o  Y) e
  250. Format                                   : UTF-8
    : K8 ~) N% M+ {2 u& c) [; F* v- z
  251. Codec ID                                 : S_TEXT/UTF8  b! V' x( q% T* b. j
  252. Codec ID/Info                            : UTF-8 Plain Text
    8 |! V. |( n$ O
  253. Duration                                 : 2 h 6 min7 r, r: w. w1 q! M- M3 W
  254. Bit rate                                 : 21 b/s
    ; {8 _3 ^# @# d% H# f) B% e
  255. Count of elements                        : 5319 a7 r) [1 _% y7 U; z- Y- {! ]& R
  256. Stream size                              : 19.9 KiB (0%), k! \2 V; q' `. F- \5 R$ S! C
  257. Title                                    : Latin American
    ; G2 k; h$ y! Y9 B8 \: l2 D' c
  258. Language                                 : Spanish
    1 Y7 o+ @8 y. f$ h% G+ e5 f% n1 b
  259. Default                                  : No. f/ C. A6 `; @( `: y& a+ D
  260. Forced                                   : No
    $ b* Y( U  d  c8 J

  261. + a3 J% |/ Y6 R
  262. Text #17
    3 F$ f8 Y0 I  p7 I. i& T
  263. ID                                       : 19
    # [+ G& h0 P5 w: [6 T: q/ _
  264. Format                                   : UTF-82 R& K' K+ m3 @' p7 Q6 {/ G+ n- _
  265. Codec ID                                 : S_TEXT/UTF89 u- t5 w- N( F1 s9 `/ Z& M! I' S4 y
  266. Codec ID/Info                            : UTF-8 Plain Text
    / _& q" k( J+ s" w8 U  M, g2 W" d2 x
  267. Duration                                 : 2 h 6 min# P6 I4 g1 k7 f1 t
  268. Bit rate                                 : 19 b/s
    7 j. D( M& S1 _
  269. Count of elements                        : 5512 C$ d" r0 t& x
  270. Stream size                              : 18.5 KiB (0%)# Q3 V+ h' B- y2 }
  271. Title                                    : Castilian
    & P, X+ y' l$ E
  272. Language                                 : Spanish
    + Q( X6 {* }' Q; t" b0 r+ I7 ?
  273. Default                                  : No+ B- o, \# V3 q1 n( O
  274. Forced                                   : No
    ! D* P0 _9 v  f/ Q" m0 c% w% [

  275. : I0 S! n" o5 J1 x4 X
  276. Text #186 f9 a7 X4 T5 {2 t: M6 M
  277. ID                                       : 20% L% e1 R+ s' M$ z% Z
  278. Format                                   : UTF-8
    & B# e# o& B+ e7 ~& q  o7 `6 R& M
  279. Codec ID                                 : S_TEXT/UTF8* X2 U/ P0 ]3 i0 P
  280. Codec ID/Info                            : UTF-8 Plain Text$ F/ T" D1 i6 B: S& q
  281. Duration                                 : 2 h 6 min
    % [, X% x  s' U0 ]7 {
  282. Bit rate                                 : 50 b/s# d7 `+ h* V: b
  283. Count of elements                        : 16243 D) p% ?6 R; A2 \" P
  284. Stream size                              : 46.8 KiB (0%)8 `  m' x) c" s, C2 T2 R) e
  285. Language                                 : Swedish0 _$ {; F/ v) k7 i) Y9 a! A
  286. Default                                  : No
    ( \: F" ^- A' P% V
  287. Forced                                   : No
    ) F( F7 u3 l. G4 U' i* \
  288.   q- {- c2 o; D, d: \% c
  289. Text #19
    ' u  ]; [* _1 C  P. u, [
  290. ID                                       : 21
    5 a! e; T; o# |1 G6 v
  291. Format                                   : UTF-8
    . n. Z1 r$ R) S; v- b/ M" z. y
  292. Codec ID                                 : S_TEXT/UTF85 ?! Q1 N2 f7 i) H, C
  293. Codec ID/Info                            : UTF-8 Plain Text
    ) m4 b( p4 T6 i: X
  294. Duration                                 : 2 h 6 min
    : a& K7 Q5 e; @+ x! x3 j" }3 E0 q
  295. Bit rate                                 : 129 b/s
    * ^3 D4 X+ ]( Q: _7 K9 ^
  296. Count of elements                        : 1645
    : y$ a5 O$ p, O
  297. Stream size                              : 120 KiB (0%)
    ; ^, M3 d, x( B( e9 u  I3 X
  298. Language                                 : Thai
    ! g6 e. ~# Z: U- }5 b/ V. G1 W1 C+ H
  299. Default                                  : No3 v* q" u7 Z6 C/ i* q& n! ~
  300. Forced                                   : No
    ; M0 @5 w; z% E+ S& m& ?* K
  301. 7 i+ O% j, ?/ z. F: R2 M
  302. Text #20
      c! z1 s' M) }* H
  303. ID                                       : 22
    ' B5 U( j# c5 |% _  m$ I
  304. Format                                   : UTF-82 D- z9 [( _: c- B4 O: o9 d/ M
  305. Codec ID                                 : S_TEXT/UTF8
    2 k1 K: D9 p: q7 |7 w2 \
  306. Codec ID/Info                            : UTF-8 Plain Text
    9 |) D: @* T- ^1 b4 i
  307. Duration                                 : 2 h 6 min
    ! y8 t" N. X# o
  308. Bit rate                                 : 53 b/s& o* ~* o: V3 f) D/ E9 a/ Q
  309. Count of elements                        : 1627
    9 m. l& j0 o) w! x) i7 q
  310. Stream size                              : 49.3 KiB (0%)
    ' _  N2 E/ _) M9 F
  311. Language                                 : Turkish
    ' c. {. R1 V3 |" C# W' Q6 o: Z0 F
  312. Default                                  : No' C$ M5 B! `+ C  {
  313. Forced                                   : No
    ( ?2 ^% S7 H8 j2 s) n1 L, O

  314. 6 V: b, w5 D, q- u+ ?: m
  315. Text #21
      s& b- n1 l8 Y. h) @, A
  316. ID                                       : 23
    + s: _1 }* Q7 z0 i0 B$ b, F+ M8 J6 e' N6 X
  317. Format                                   : UTF-8
    4 s; g5 U6 K) q5 _0 b
  318. Codec ID                                 : S_TEXT/UTF83 {, j& b( d* p3 Z& g: h
  319. Codec ID/Info                            : UTF-8 Plain Text0 G* C2 s9 E1 S+ D7 Y6 t
  320. Duration                                 : 2 h 6 min+ K- w& A" H/ i$ D* @  J
  321. Bit rate                                 : 72 b/s( m1 z7 W  B: W' B7 C
  322. Count of elements                        : 1631
    - A5 W3 U( Z% ^$ k( d' O3 i
  323. Stream size                              : 67.3 KiB (0%)
    ; Z. ~- j8 E. [4 H
  324. Language                                 : Vietnamese0 P# ~4 q0 T% a* W  g7 J
  325. Default                                  : No2 H1 z. n1 B3 \* p% F- L
  326. Forced                                   : No
    ( R: v; n2 {7 n9 }- K" S( q

  327. " U2 G7 l* q8 H3 ?' C; X  S
  328. Menu
    : `1 m- |' q3 u$ S+ W, q
  329. 00:00:00.000                             : en:Chapter 01/ H7 e' J. t1 w2 l) C
  330. 00:11:43.167                             : en:Chapter 02
    6 Z9 d& U7 S- q( R( J+ f3 ~) M# S
  331. 00:22:08.125                             : en:Chapter 033 z6 ^, B& G9 x3 D
  332. 00:33:51.375                             : en:Chapter 04
    ! i! r- `$ ?: J2 P& R$ O
  333. 00:43:50.458                             : en:Chapter 058 ^* ]2 I8 W2 h, K2 t0 }
  334. 00:55:11.500                             : en:Chapter 06$ y" I+ T* m* f) d% m+ w/ C
  335. 01:09:41.833                             : en:Chapter 07
    8 q; A( c1 \9 f! B
  336. 01:19:58.625                             : en:Chapter 08
    : G" c; r$ a. `' p* {& B
  337. 01:29:03.500                             : en:Chapter 09+ M- Z# P% h0 G! f
  338. 01:37:52.958                             : en:Chapter 10/ O/ d3 {8 Z: \" ]5 {5 e2 J4 N
  339. 01:48:37.750                             : en:Chapter 11
    ( I- A0 @! j1 c+ d; S9 O
  340. 02:01:13.125                             : en:Chapter 12
复制代码
' H! Z  N) i1 U# T- c' J
' J% u3 n( D6 c) Q. s2 H* E
0 q  F8 N9 }8 P% U- d. A4 s
; a$ W! Y: u' t5 L$ f
% p% Y* G0 ]+ Q0 h
9 E2 b! t+ ^' H; T/ }
4 M" s. P3 b2 I$ w8 h
* {+ S& b# f: `( b6 P

9 o0 Y/ e2 _& n/ w) a4 n1 j; I6 ?" K2 L: R, F6 F- W( j. d
) w+ p. `* |$ s3 ]* q% [6 |

; ?( h8 C2 V, k: C( \/ P
回复

使用道具 举报

级别:普通观众 Lv.2

注册时间
2019-5-24
最后登录
2020-8-6
听众
10
收听
0
主题
0
蓝光币
0 枚
贡献
0 点
发表于 3 天前 | 显示全部楼层
楼主发贴辛苦了,谢谢楼主分享!我觉得中国高清电影网是注册对了!
回复

使用道具 举报

级别:普通观众 Lv.2

注册时间
2019-5-24
最后登录
2020-8-6
听众
10
收听
0
主题
0
蓝光币
0 枚
贡献
0 点
发表于 3 天前 | 显示全部楼层

# m; j9 `8 C+ a2 ]% @. I楼主太厉害了!楼主,电影应该很好看我觉得中国高清电影网真是个好地方!
回复

使用道具 举报

懒得打字嘛,点击右侧快捷回复 【右侧内容,后台自定义】
您需要登录后才可以回帖 登录 | 立即注册

本版积分规则

Archiver|手机版|小黑屋| 中国高清网 ( ICP备17007870号-2 ) |网站地图 

GMT+8, 2020-8-7 17:20 , Processed in 0.244042 second(s), 39 queries .

Powered by HDchina X3.4

Copyright 2017-2019©HDchina.All right reserved

返回顶部 联系我们