查看: 38|回复: 0

[科幻片] 异界/昏迷 Coma.2019.720p.BluRay.x264-YOL0W 5.67GB

[复制链接]

 成长值: 6410

级别:资源管理组

注册时间
2017-10-20
最后登录
2020-8-7
听众
1
收听
0
主题
100960
蓝光币
179200 枚
贡献
21715 点
发表于 5 天前 | 显示全部楼层 |阅读模式
( w9 q* c( r& N
# W$ H: F) Z! S" q. @3 ^9 l7 Q3 p
  ?: F- c, t5 W+ K" ~1 W: p. d
1 ~6 S( o9 N' z( E: F9 N& X/ A2 U
译  名 异界 / Koma / The Coma / 昏迷$ m; w: ~, j9 O5 j
片  名 Кома$ t" `; g( U0 m9 h, t  g  J* u" w
年  代 2020- r: M3 A6 Y1 `& ^2 B
产  地 俄罗斯
7 q" N) N5 T4 G: D% d. F; x类  别 科幻' t& h$ }, `" A
语  言 俄语
3 V/ K" c& U/ ]+ y; h上映日期 2020-01-30(俄罗斯)- L! q3 U3 ^3 _1 e" Q
IMDb评分  6.5/10 from 2299 users
% S7 B% T/ G% C' ~7 S4 ^" iIMDb链接  https://www.imdb.com/title/tt6087226% g: ]& R# J3 x3 _
豆瓣评分 6.3/10 from 14338 users! x1 W# p  {0 [' ?/ K! x- [
豆瓣链接 https://movie.douban.com/subject/30264504/
1 s# ]. u$ F0 r: B2 w片  长 111分钟
  {. R/ }+ i) n0 `# L4 {. ^+ `: [* ~导  演 尼基塔·阿格诺夫 Nikita Argunov; _8 S. q1 Z; D+ b6 G: ]% y9 \8 A
编  剧 尼基塔·阿格诺夫 Nikita Argunov / 提难道·邓肯 Timofei Dekin / 阿莱克西·克莱福科维奇 Aleksey Gravitskiy3 B* T5 q4 m. u
主  演 林奈·穆罕默托夫 Rinal Mukhametov3 |8 q7 L2 z/ |: H. d6 G3 y
       柳波芙·阿克肖诺娃 Lyubov Aksyonova
6 [' b( |1 e! {$ |8 m0 x8 M2 ^; C       安东·庞布施尼 Anton Pampushnyy
/ k  g7 s* |- i7 S# s* U       米洛斯·比柯维奇 Milos Bikovic
6 R0 f# `! h1 B3 j- T. D: e       康斯坦丁·拉夫罗年科 Konstantin Lavronenko3 A$ R) K7 K* f, E; J: \
       阿列克谢·谢列布里亚科夫 Aleksey Serebryakov
, `4 S5 b5 U4 r% V       维伦·巴比切夫 Vilen Babichev
" p% C- p/ o9 r+ D- v2 j2 ?, P       Polina Kuzminskaya1 d2 F5 D) O9 J. T% {: [
; A, j' s9 c" s$ e

, i& s) V9 ~( {9 V标  签 科幻 | 俄罗斯 | 科幻片 | 科幻奇异 | 俄罗斯电影 | 悬疑 | 惊悚 | 2019+ A8 w8 G% j. N! l  M- e9 U& h% {
7 t: g; m- J% p1 Z9 F2 F
简  介  : l, M: n2 J( P: S- `; t% D; N+ {

1 U* b' x8 z7 {- A9 f* r4 D( K  在一场庞大而奥秘的变乱以后,一位年轻有才华的修建师在一个与现实天下类似的奇异天下里苏醒,这个天下建立在这里群众的记忆之上,而这些人则处于深度昏迷当中。由于这些人的记忆力良莠不齐、紊乱、不稳定,致使希奇的记忆和回忆——城市、冰川、河流可以共存在一个房间里,一切的物理定律都可以被打破,修建师必须找到他们昏迷的具体纪律,才能找到通往现实天下的出口。就在他与命运抗争的同时碰到了真爱,而履历此次昏迷以后,他发现自己不能不重新熟悉这个天下……; I8 a) F) e3 A' m4 {
! p) ]; s. ~  G% s% d  ~$ W" h6 w
  1. Video7 j+ J4 M. B( ]5 Y
  2. ID                                       : 1/ p- ^/ _: X* \2 O) J
  3. Format                                   : AVC
    ' V+ p# n: w* }/ H. A
  4. Format/Info                              : Advanced Video Codec
    8 x8 l7 i6 ?  N2 W0 N! w6 [
  5. Format profile                           : High@L4.1
    # Y) u6 H3 E, C1 c' I0 b
  6. Format settings                          : CABAC / 8 Ref Frames
    . S, k5 [* _5 Z# x
  7. Format settings, CABAC                   : Yes
    6 Q& g( L; ]7 {# D
  8. Format settings, Reference frames        : 8 frames
    5 H9 d1 p, l/ \' C# x/ y5 h
  9. Codec ID                                 : V_MPEG4/ISO/AVC
    - |4 |& F) [% @: E
  10. Duration                                 : 1 h 51 min
    , Y0 B7 N- m) X0 u- d# Q
  11. Bit rate                                 : 5 987 kb/s
    8 D) h+ R- V$ U& S
  12. Width                                    : 1 280 pixels
    : S) r$ N2 Z' S2 \2 q
  13. Height                                   : 536 pixels6 J9 U  ~/ t1 d' C% B
  14. Display aspect ratio                     : 2.40:1# T0 Q5 f8 q+ W5 _  @5 r
  15. Frame rate mode                          : Constant' j5 i, Q: W9 j% a2 r
  16. Frame rate                               : 23.976 (24000/1001/45378) FPS
    1 ?' x# X- K+ t  ]9 ~7 }
  17. Color space                              : YUV
    6 R- k2 }; M9 v8 Q6 I( N# y
  18. Chroma subsampling                       : 4:2:0) g( e3 r, o, @" d
  19. Bit depth                                : 8 bits
    & C  X. i8 q. w* }' E7 z% S; ?. I
  20. Scan type                                : Progressive
    - T; t, d5 L: m
  21. Bits/(Pixel*Frame)                       : 0.3641 |- @* H+ D' X( D" ~4 O
  22. Stream size                              : 4.65 GiB (82%)7 I5 R! _, k, v
  23. Writing library                          : x264 core 161 r3018 db0d417
    4 f) t, |$ K1 b9 U6 }
  24. Encoding settings                        : cabac=1 / ref=8 / deblock=1:-3:-3 / analyse=0x3:0x133 / me=umh / subme=9 / psy=1 / psy_rd=1.00:0.00 / mixed_ref=1 / me_range=32 / chroma_me=1 / trellis=2 / 8x8dct=1 / cqm=0 / deadzone=21,11 / fast_pskip=0 / chroma_qp_offset=-2 / threads=48 / lookahead_threads=4 / sliced_threads=0 / nr=0 / decimate=0 / interlaced=0 / bluray_compat=0 / constrained_intra=0 / bframes=9 / b_pyramid=2 / b_adapt=2 / b_bias=0 / direct=3 / weightb=1 / open_gop=0 / weightp=2 / keyint=250 / keyint_min=23 / scenecut=40 / intra_refresh=0 / rc=crf / mbtree=0 / crf=17.0 / qcomp=0.60 / qpmin=0 / qpmax=69 / qpstep=4 / ip_ratio=1.40 / pb_ratio=1.30 / aq=3:0.88
    6 C1 ?& o& Z) m& V: c( b; C9 I. Q
  25. Default                                  : Yes
    9 a9 _( ~: n/ u# i  b
  26. Forced                                   : No
    ! r) A+ r- K! y' P
  27. Color range                              : Limited% D1 h! O4 E/ t# X
  28. Matrix coefficients                      : BT.709
    $ @+ M1 K2 n% i" e  M
  29. Audio #1
    6 T# ]1 Q8 e7 H$ a) X/ b
  30. ID                                       : 2
    ( d  o& J" ]' \+ `1 f
  31. Format                                   : AC-3; K& O% W/ p4 v
  32. Format/Info                              : Audio Coding 3
    8 h- d+ a$ I; K, L# O6 A
  33. Commercial name                          : Dolby Digital
    ; z9 U5 o) ^5 \) m6 B
  34. Codec ID                                 : A_AC3
    1 C$ x+ C, m0 m2 x* c" l
  35. Duration                                 : 1 h 51 min+ s& p4 f" o  ?$ L. z5 S" B
  36. Bit rate mode                            : Constant
    ; n( q6 d( p) b
  37. Bit rate                                 : 640 kb/s
    + B7 Y1 Y9 X1 N2 I: _; `6 D+ M
  38. Channel(s)                               : 6 channels0 k& X8 @2 t' j) T
  39. Channel layout                           : L R C LFE Ls Rs
    8 x# n4 u  y" ^! k
  40. Sampling rate                            : 48.0 kHz/ R( F, ~$ c3 _  n6 y4 L/ x7 [0 O+ W
  41. Frame rate                               : 31.250 FPS (1536 SPF)
    0 B# T$ r6 D, R
  42. Bit depth                                : 16 bits4 ~' K) Z& D' V6 u8 g! E  d% u9 B
  43. Compression mode                         : Lossy
    ) x8 V: z9 G6 {0 o
  44. Stream size                              : 509 MiB (9%)
    - s, N4 E% V: a; N# v- W
  45. Title                                    : Russian
    " R! x7 S- G3 B- e: O( c" ^) v
  46. Language                                 : Russian
    - k) r1 C2 F) P5 _7 z$ q
  47. Service kind                             : Complete Main5 u% E  E- i, I
  48. Default                                  : No
    ) p1 U3 [( u, Q% ^! g& C
  49. Forced                                   : No
    0 X# B% r) q2 `  X1 u& l
  50. Audio #2" Q! I9 q* }( a) [
  51. ID                                       : 3
    # b/ B* y% V% T9 `* k
  52. Format                                   : AC-3
    # j8 p- K+ C) V- P, ^4 T) c- _
  53. Format/Info                              : Audio Coding 3
    9 ?1 a4 v/ p2 l4 l: y2 Q1 e
  54. Commercial name                          : Dolby Digital7 Q+ o/ n4 i, z0 W" N
  55. Codec ID                                 : A_AC3
    6 M* g: \- @0 o. z# c) R
  56. Duration                                 : 1 h 51 min$ \( n. v4 }5 A" I4 p- T" P
  57. Bit rate mode                            : Constant
    9 ?  S4 y! t; n
  58. Bit rate                                 : 640 kb/s
    : w6 O4 ~: D9 R
  59. Channel(s)                               : 6 channels) N# {: G% ~; u0 ]" v8 t+ A
  60. Channel layout                           : L R C LFE Ls Rs8 }/ w6 N  C; r; I" y
  61. Sampling rate                            : 48.0 kHz
    % y. Z8 l" h7 w2 A' o4 I
  62. Frame rate                               : 31.250 FPS (1536 SPF); d! e. W0 f. b- @
  63. Bit depth                                : 16 bits
    / P% u  d1 m4 [/ B4 U) K3 S
  64. Compression mode                         : Lossy
    . f1 n' W6 U. o% r! N! I
  65. Stream size                              : 509 MiB (9%)( r& y. D5 @) Q
  66. Title                                    : English/ X9 y8 _5 J. h+ R& t
  67. Language                                 : English! f( a6 {, I0 g; T5 S. x$ x3 R
  68. Service kind                             : Complete Main
    0 B, _" d% X" ]( u- N. c' K$ {3 s& {
  69. Default                                  : No
    4 y( o6 p8 H. A$ c/ ^2 n" E/ B
  70. Forced                                   : No9 {8 N0 _) S8 U
  71. Text #1
    " I2 @- v" k: d& h' B( ?2 G
  72. ID                                       : 4  \& W6 g& b- l- I7 w
  73. Format                                   : UTF-8
    ! o# n2 [& p8 g. M! [  \& x
  74. Codec ID                                 : S_TEXT/UTF83 w+ S' c& `, Y- X. v6 u9 r
  75. Codec ID/Info                            : UTF-8 Plain Text
    2 N% c. e. U; @0 w0 M: @  Q
  76. Duration                                 : 1 h 42 min
    % d1 y' q0 B1 O
  77. Bit rate                                 : 40 b/s
    ' E/ R0 V' K4 I8 H
  78. Count of elements                        : 928& ?7 K, Q. R% G" c9 B
  79. Stream size                              : 30.6 KiB (0%). a+ Z7 Z4 n5 w( w2 |/ Z* Y7 O
  80. Title                                    : English forced for Russian audio# `0 e- U+ |: a3 E
  81. Language                                 : English
    6 K  @. ]5 R: I' r5 N3 K& w; a& A' \
  82. Default                                  : Yes$ Y* F8 l# ]( Y
  83. Forced                                   : Yes
    0 I+ I" ?7 H' |* v' ^; }+ k
  84. Text #2
    8 f* q. u% k. s" b" g" T
  85. ID                                       : 5. S. [4 U3 ?7 D  a1 l% |+ f
  86. Format                                   : PGS6 t' ^" K& u% q1 v4 \+ @
  87. Muxing mode                              : zlib
    * F% x0 K- n6 g$ p
  88. Codec ID                                 : S_HDMV/PGS
    ; W2 m+ A" w0 o$ ]: n
  89. Codec ID/Info                            : Picture based subtitle format used on BDs/HD-DVDs3 P1 [3 s- D  T1 \0 x- ?$ m$ o2 F
  90. Duration                                 : 1 h 42 min; c6 t+ }+ x+ L1 F; }8 U( P
  91. Bit rate                                 : 24.3 kb/s
    " x' U4 [! [0 b- d
  92. Count of elements                        : 1856
    % G9 v3 o  j0 V( R
  93. Stream size                              : 17.7 MiB (0%)
    4 J8 `" t- X! F  Z9 }
  94. Title                                    : English forced for Russian audio
    ! j  }8 U: t& a2 u( m
  95. Language                                 : English5 q" }9 }) _0 n  P
  96. Default                                  : No& W+ @3 t0 n, u& q, W5 i
  97. Forced                                   : No
    2 h4 @, q* b# k/ V; ?
  98. Text #3/ p# J# ^4 L% {# K1 f. ~4 y
  99. ID                                       : 6  _9 P4 j; n4 c. s
  100. Format                                   : PGS
    5 `  m. J% R6 G! R: c, X% z* a
  101. Muxing mode                              : zlib
    & x- o4 @5 H) y+ j9 ~
  102. Codec ID                                 : S_HDMV/PGS8 T" M8 j0 B! ^+ e8 B
  103. Codec ID/Info                            : Picture based subtitle format used on BDs/HD-DVDs# l$ m7 o; E0 T  O
  104. Duration                                 : 1 h 49 min" C2 b1 f: V. z  n* u$ S3 V
  105. Bit rate                                 : 30.8 kb/s2 z% Q9 m2 E- j, T
  106. Count of elements                        : 2516
    : ]- O0 Q4 P0 r  I: j: z
  107. Stream size                              : 24.2 MiB (0%)
    6 g3 v$ H9 }. V3 N) P
  108. Title                                    : English SDH
    # V4 s/ q4 x* }+ }8 h. q
  109. Language                                 : English5 M3 m  s/ C9 W7 a: l# _
  110. Default                                  : No
    ' N( ?& Q+ o. L1 \3 d$ {
  111. Forced                                   : No; Y- o  C5 ^6 n
  112. Menu+ T) |& L5 ~3 K* Q" C% v
  113. 00:00:00.000                             : en:Chapter 01
    % u8 l3 f, `7 x
  114. 00:12:53.189                             : en:Chapter 02
    # r/ F3 k! d5 t7 [* L+ L
  115. 00:18:54.800                             : en:Chapter 03; e4 S) n8 @5 {; H  S# ?' ^
  116. 00:27:47.040                             : en:Chapter 04+ ^) j, g# J. Q5 N! v  Y
  117. 00:34:38.618                             : en:Chapter 05
    ) U: l+ d5 R- F. H0 S- y
  118. 00:44:32.044                             : en:Chapter 06
    2 k0 J" F- A7 [+ t8 y) u5 l! n6 y
  119. 00:49:38.475                             : en:Chapter 07- ?/ T8 N+ Z) N1 x/ g+ B8 A
  120. 00:57:45.837                             : en:Chapter 08
    ; K8 b+ V1 F5 n
  121. 01:05:45.108                             : en:Chapter 09
    & h4 P9 ]- g* B6 U2 E1 k
  122. 01:13:19.478                             : en:Chapter 107 q# g) \( y: p
  123. 01:23:24.166                             : en:Chapter 117 R8 f8 v2 P# ]" ^( D& v! |
  124. 01:29:22.691                             : en:Chapter 12
      x) q0 t3 \8 R$ C
  125. 01:34:24.325                             : en:Chapter 138 D2 g. ?/ ~; B, d1 g
  126. 01:40:15.760                             : en:Chapter 148 Q. W* i) s3 t  l- k4 {. a, Q
  127. 01:43:55.187                             : en:Chapter 153 J+ Q7 ~  p& x6 n2 X% N* t) ~* I: W
  128. 01:47:06.462                             : en:Chapter 16
复制代码
+ T* ?- g+ a) }2 C8 z: D* m1 y
# V6 x* N: `2 e4 Q/ B" p* X6 g7 f
) d$ W: Z" ]' ]" _  A  }( w0 J8 u

! A& B" i4 d2 A3 H
- `* q1 j* F, M  w$ D* P& H! w" x3 p5 l4 ]* [( T
8 Z. x1 R- P9 L% r: J4 u
回复

使用道具 举报

懒得打字嘛,点击右侧快捷回复 【右侧内容,后台自定义】
您需要登录后才可以回帖 登录 | 立即注册

本版积分规则

Archiver|手机版|小黑屋| 中国高清网 ( ICP备17007870号-2 ) |网站地图 

GMT+8, 2020-8-7 17:12 , Processed in 0.170649 second(s), 39 queries .

Powered by HDchina X3.4

Copyright 2017-2019©HDchina.All right reserved

返回顶部 联系我们