查看: 33|回复: 1

[爱情片] 三生三世十里桃花 San.Sheng.San.Shi.Shi.Li.Tao.Hua.2017.720p.BluRay.x264.DTS-HDChina 4.98GB

[复制链接]

 成长值: 6410

级别:资源管理组

注册时间
2017-10-20
最后登录
2020-8-7
听众
1
收听
0
主题
100960
蓝光币
179196 枚
贡献
21715 点
发表于 5 天前 | 显示全部楼层 |阅读模式
译  名 OnceUponaTime( a" X8 S6 l; Q0 e$ i( {* h. @' i% X0 R
片  名 三生三世十里桃花
5 Q7 h! l5 w  H" I* P年  代 2017
! |  X4 f! I: i# u/ r# i. v产  地 中国大陆
' A1 O5 \  q/ M9 y  C类  别 恋爱/奇异# `" S& o+ {0 D1 k  u- D
语  言 汉语普通话6 d  s* ^- h# A$ b1 P
上映日期 2017-08-03(中国大陆)
* |1 U9 `9 I/ I+ j0 L. dIMDb评分  5.7/10 from 828 users# r( h0 u3 h+ i/ Q
IMDb链接  http://www.imdb.com/title/tt6138688/% p0 M' O* k* a% r
豆瓣评分 3.9/10 from 145,909 users- Q" e' N- R& z7 i" K. l
豆瓣链接 https://movie.douban.com/subject/25823277/
) T- [* x* M7 f+ y* U0 Z片  长 109分钟4 R4 F, B- O4 a% v3 g5 a* ]
导  演 赵小丁 Xiaoding Zhao / 安东尼·拉默里纳拉 Anthony LaMolinara6 s  _9 K* p1 R: o* i
主  演 刘亦菲 Yifei Liu0 D! C; H0 |" `" T
      杨洋 Yang Yang
: o4 u/ X# i2 J* Z' Z6 L      罗晋 Jin Luo
% R, R. @/ T; j' w, B% o0 X      严屹宽 Yikuan Yan( J5 u4 o8 ]& d" D' V' S: s
      李纯 Chun Li. N- j+ I0 v& A5 [4 L9 j! G: A
      顾璇 Xuan Gu
% B) {& _% p, C! x: N      陈佩斯 Peisi Chen
# P, S: X/ P8 t  e9 d9 l      彭子苏 Zisu Peng) ]3 H1 X" ~! E/ f7 a# i
      张贺茗 Heming Zhang4 j  D6 s1 y# E( P" v, [7 g
      王羽铮 Yuzheng Wang
, S7 e3 ^+ Z+ I' i* B- Q$ R1 }  ?      塔拉 Luc
+ M( Y" r0 u/ a7 ^, b3 ]0 _/ f' c5 c, D+ D& p
简  介
5 `5 y/ ~1 V+ T7 L6 G1 q8 d+ a) o* [. }1 U' V
  白浅(刘亦菲 饰)落空了上一世的记忆,占据在青丘山内,过着与世无争自在安闲的生活。在东海盛宴上,白浅碰见了带着天孙阿离(彭子苏 饰)的天族太半夜华(杨洋 饰),现实上,两人之间早就定下了婚约。夜华震动于白浅具有的和他死去的妻子素素如出一辙的表面,因而起头接近白浅,在此进程中被白浅善良开畅的性情渐渐吸引。' U+ P7 ]- l6 I/ ~8 ?
  现实上,白浅一向忘不了的是昔时为了拯救众生而牺牲了自己的天族战神墨渊(杨洋 饰),他的仙体一向被保存在炎华洞内。夜华的侧妃素锦(李纯 饰)非常妒忌白浅可以获得夜华的爱好,因而勾结鬼族王后玄女(顾璇 饰)偷走了墨渊的仙体,得知此消息,白浅落空了明智。
3 a' o  ]( n5 m6 {$ ^, `
4 d8 O- K+ Q6 F  n  I* i) _9 [: \获奖情况& Y3 Q2 d: h6 D

, j  E" o2 F( v  u  第4届豆瓣电影年度榜单  (2017)
, n( N6 S* {& a# B  Y3 [  8月最受关注电影(提名)
7 ^4 |: P* T- r5 s- T+ g8 J9 H: R" D  O' I
  第3届豆瓣电影年度榜单  (2016)2 B* O* @( O" Q- V
  最值得期待的华语电影(提名)
: P2 C9 i* u& ^0 e1 V

  1. * k4 N: Z* ^: E# c
  2. Video" {0 o: r% N9 F2 T, |8 l
  3. ID                                       : 1
    / C# a( w9 E, q) |- H
  4. Format                                   : AVC0 M' m( U) w* m( n( h
  5. Format/Info                              : Advanced Video Codec
    4 |: V* v/ d! _- b& V* z
  6. Format profile                           : High@L4.18 G$ x5 _) `. L5 K, R* C5 b1 O1 o
  7. Format settings                          : CABAC / 12 Ref Frames
    : J0 f4 l4 V1 A( f) R
  8. Format settings, CABAC                   : Yes
    / c' [9 S# C& t
  9. Format settings, ReFrames                : 12 frames% F* g( o( |- n. ~) e+ }1 j
  10. Codec ID                                 : V_MPEG4/ISO/AVC& Y- ?4 z# A# T/ F% x& D% \
  11. Duration                                 : 1 h 49 min
    # x$ i9 e1 I2 R- B5 R4 Y
  12. Bit rate                                 : 5 000 kb/s1 \: a0 z' J- `$ ?/ S
  13. Width                                    : 1 280 pixels
    ( B6 a% X7 z# O$ K9 u
  14. Height                                   : 536 pixels3 e. S6 [2 j, H+ c: `
  15. Display aspect ratio                     : 2.40:1
    - @2 k; v5 r( N& U% i
  16. Frame rate mode                          : Constant
    , ?& U- r* q& \; o0 D
  17. Frame rate                               : 24.000 FPS: m/ U$ @1 h  K, U4 R
  18. Color space                              : YUV
    " g4 g  x# j) G' e, ]6 `
  19. Chroma subsampling                       : 4:2:0
    ' L7 m7 Y% ?8 X8 _! j1 ]2 e+ u
  20. Bit depth                                : 8 bits/ H2 g- [' _- h4 m. Z- ~( Y
  21. Scan type                                : Progressive
    9 u$ H$ S: ]+ z7 [, N7 E
  22. Bits/(Pixel*Frame)                       : 0.304, d' W  Z" c( s- h5 Z7 m
  23. Stream size                              : 3.82 GiB (77%); U" n4 V: u; `% a1 X
  24. Title                                    : San.Sheng.San.Shi.Shi.Li.Tao.Hua.2017.720p.BluRay.x264.DTS-HDC
    ( G+ v" G# s: ^' P, S  @% I: D
  25. Writing library                          : x264 core 148 r2665kMod a01e339
    ' @& p/ {. C0 Q' R! ^
  26. Encoding settings                        : cabac=1 / ref=12 / deblock=1:-3:-3 / analyse=0x3:0x133 / me=umh / subme=11 / psy=1 / fade_compensate=0.00 / psy_rd=1.05:0.00 / mixed_ref=1 / me_range=32 / chroma_me=1 / trellis=2 / 8x8dct=1 / cqm=0 / deadzone=21,11 / fast_pskip=0 / chroma_qp_offset=-2 / threads=17 / lookahead_threads=2 / sliced_threads=0 / nr=0 / decimate=0 / interlaced=0 / bluray_compat=0 / constrained_intra=0 / fgo=0 / bframes=8 / b_pyramid=2 / b_adapt=2 / b_bias=0 / direct=3 / weightb=1 / open_gop=0 / weightp=2 / keyint=240 / keyint_min=24 / scenecut=40 / intra_refresh=0 / rc=2pass / mbtree=0 / bitrate=5000 / ratetol=1.0 / qcomp=0.70 / qpmin=0 / qpmax=69 / qpstep=4 / cplxblur=20.0 / qblur=0.5 / ip_ratio=1.20 / pb_ratio=1.20 / aq=3:0.85
    / O) E; N/ e3 m: J3 i4 h# l
  27. Default                                  : Yes4 m/ \3 d* U" y* X  D+ a# d" p
  28. Forced                                   : No) p' v; i) S! v4 ^* I9 s7 ~

  29. : x, R( u! M) ]
  30. Audio  s/ }8 C+ F" |) S5 _% B/ s  E
  31. ID                                       : 2; V0 r) P7 |* j6 j) e6 G
  32. Format                                   : DTS
    9 B- j/ y  k- |1 z7 X" v
  33. Format/Info                              : Digital Theater Systems) B# _' o2 B8 M( T3 H& l
  34. Codec ID                                 : A_DTS
    4 K, b2 V& V! N) {4 P, L% l) g+ \
  35. Duration                                 : 1 h 49 min( ]* e. ]9 F0 c4 u
  36. Bit rate mode                            : Constant8 `4 z' g. I  ^3 D- E
  37. Bit rate                                 : 1 509 kb/s
    * ?. K: _" V5 [
  38. Channel(s)                               : 6 channels+ p& @: {: ^0 s4 [7 s" e
  39. Channel positions                        : Front: L C R, Side: L R, LFE
    4 b9 L1 ?) C8 b7 t" [* `: g
  40. Sampling rate                            : 48.0 kHz, L8 s  @/ W) t. g9 }. U
  41. Frame rate                               : 93.750 FPS (512 SPF)
    ' }/ }* ]$ M( H; P' j
  42. Bit depth                                : 24 bits) g, P6 r5 Z/ [+ w% m/ @; K
  43. Compression mode                         : Lossy/ C4 v. H$ q: v! k
  44. Delay relative to video                  : 2 s 0 ms
    . X3 c3 \( U$ s2 Y# k
  45. Stream size                              : 1.15 GiB (23%)
    ( E7 Y4 c. x, b
  46. Title                                    : San.Sheng.San.Shi.Shi.Li.Tao.Hua.2017.720p.BluRay.x264.DTS-HDC
    + D( K  Z! k- S8 S8 S9 a4 A! W/ O
  47. Language                                 : Chinese- j) v: s3 V" B
  48. Default                                  : Yes; M* J! i8 o) z* m
  49. Forced                                   : No
    ) z1 m- k) U2 I3 T* n2 C5 y% t; L; W

  50. ' S" V1 o1 h& f/ R5 \5 R
  51. Text
    1 O1 s- `: \6 S3 u! r# G; \0 f
  52. ID                                       : 39 C0 ^, }: F- g& [4 T. G
  53. Format                                   : UTF-8
    7 _8 i, b, p. ]' _8 R
  54. Codec ID                                 : S_TEXT/UTF82 C. M' P. B# [! o" t
  55. Codec ID/Info                            : UTF-8 Plain Text8 v, S4 ~1 n5 M3 ^1 h$ r- j
  56. Duration                                 : 1 h 38 min$ K/ T- m( l& o2 ]0 Q
  57. Bit rate                                 : 48 b/s
    3 \/ r1 _; H! y
  58. Count of elements                        : 1244
    0 J2 [1 E& }. }- _& ^& f1 x$ d
  59. Stream size                              : 35.1 KiB (0%)* Z  U: M1 }7 n4 ]2 [
  60. Title                                    : English
    , N" w+ F& j% |# ?& v
  61. Language                                 : English5 H' ~2 v" U8 P5 l' s' Y  v
  62. Default                                  : Yes5 S5 j3 M) N) O( A# C( c+ p/ O
  63. Forced                                   : Yes: o# I7 |* q6 G/ b4 I. e
  64. * M" p: \; O8 q3 p
  65. Menu
    2 X- Y: S$ c- u% Y
  66. 00:00:00.000                             : en:00:00:00.000
    , m8 n: a: @0 a* G, ~$ J7 A1 I7 }
  67. 00:07:35.917                             : en:00:07:35.917, Y6 Z* n4 q; n' ~. a7 M+ l
  68. 00:15:06.875                             : en:00:15:06.875
    : w) A: D5 R- Z( N: @7 ?& L
  69. 00:24:02.500                             : en:00:24:02.500. t/ P" `$ n% y
  70. 00:36:01.750                             : en:00:36:01.750( }7 z" m! G8 O" X8 U
  71. 00:43:22.708                             : en:00:43:22.7083 B. d/ l; g& R4 P
  72. 00:50:34.042                             : en:00:50:34.042
      ^% R$ A+ \' t- p7 j6 m- j2 \" u+ X
  73. 01:00:30.208                             : en:01:00:30.208
    / B8 E; a0 P' k2 c2 @8 c
  74. 01:12:22.792                             : en:01:12:22.792: z* R5 N( k1 z0 W( m* O
  75. 01:21:38.500                             : en:01:21:38.500
    0 @2 A: ~7 K) F- M9 Z
  76. 01:30:19.042                             : en:01:30:19.042% ^- o) d0 ~! N8 f9 t6 O
  77. 01:40:58.583                             : en:01:40:58.583
    - S2 p: e* @' L+ J, i* Q5 _% N

  78. 9 J5 I3 x$ J. \2 J: h5 ^
  79. $ H2 a( V( y0 O8 X5 W8 L" U
复制代码
. W7 _8 D+ E/ \! \2 H
/ F& F& N) m$ f) }! W
. E, G, P! x$ j3 v! V

3 z; ~7 E: ]8 \8 m 2 V! I- x# U/ r  u' Y& c+ O) F2 t
5 u# V# L$ z- I0 u5 }  x8 L
5 ^9 D2 Q8 _: M# d$ M
1 ?0 X  y/ Q/ o$ Y/ }3 S3 h

8 t6 X6 E7 A0 y( T$ g; I
7 [! J  `0 q5 ^9 t6 {# F
$ P. J9 \3 g) o1 j/ c& q" ~. i4 E3 P/ p/ K2 {
回复

使用道具 举报

级别:专业龙套 Lv.4

注册时间
2019-12-20
最后登录
2020-8-6
听众
4
收听
0
主题
0
蓝光币
203 枚
贡献
0 点
QQ
发表于 5 天前 | 显示全部楼层
在云南著名景区普者黑拍的,支持一下!
回复

使用道具 举报

懒得打字嘛,点击右侧快捷回复 【右侧内容,后台自定义】
您需要登录后才可以回帖 登录 | 立即注册

本版积分规则

Archiver|手机版|小黑屋| 中国高清网 ( ICP备17007870号-2 ) |网站地图 

GMT+8, 2020-8-7 16:58 , Processed in 0.165952 second(s), 40 queries .

Powered by HDchina X3.4

Copyright 2017-2019©HDchina.All right reserved

返回顶部 联系我们